<?xml version="1.0" standalone="no"?>
<!DOCTYPE svg PUBLIC "-//W3C//DTD SVG 1.1//EN" "https://www.w3.org/Graphics/SVG/1.1/DTD/svg11.dtd" >
<svg xmlns="https://www.w3.org/2000/svg" xmlns:xlink="https://www.w3.org/1999/xlink" version="1.1">
<metadata>
Created by FontForge 20190801 at Sat Aug  8 01:53:58 2015
 By Jimmy Wärting
(c) 2014 Apple Inc. All rights reserved.
</metadata>
<defs>
<font id="SFCompactDisplay-Bold" horiz-adv-x="1800" >
  <font-face 
    font-family="SF Compact Display"
    font-weight="700"
    font-stretch="normal"
    units-per-em="2048"
    panose-1="2 11 5 4 3 2 2 6 2 4"
    ascent="1638"
    descent="-410"
    x-height="1064"
    cap-height="1365"
    bbox="-539 -531 2154 1950"
    underline-thickness="50"
    underline-position="-100"
    stemh="235"
    stemv="288"
    unicode-range="U+0020-1F189"
  />
<missing-glyph horiz-adv-x="2048" 
d="M100 -494v212h1848v-212h-1848zM100 -48v212h1848v-212h-1848zM100 399v212h1848v-212h-1848zM100 845v212h1848v-212h-1848zM100 1292v212h1848v-212h-1848zM100 1738v212h1848v-212h-1848z" />
    <glyph glyph-name=".notdef" horiz-adv-x="2048" 
d="M100 -494v212h1848v-212h-1848zM100 -48v212h1848v-212h-1848zM100 399v212h1848v-212h-1848zM100 845v212h1848v-212h-1848zM100 1292v212h1848v-212h-1848zM100 1738v212h1848v-212h-1848z" />
    <glyph glyph-name=".null" horiz-adv-x="0" 
 />
    <glyph glyph-name="nonmarkingreturn" horiz-adv-x="0" 
 />
    <glyph glyph-name="space" unicode=" " horiz-adv-x="402" 
 />
    <glyph glyph-name="A" unicode="A" horiz-adv-x="1273" 
d="M305 0h-291l452 1365h344l450 -1365h-308l-101 339h-444zM637 1093h-13l-160 -541h331z" />
    <glyph glyph-name="Agrave" unicode="&#xc0;" horiz-adv-x="1272" 
d="M305 0h-291l452 1365h344l450 -1365h-308l-101 339h-444zM637 1093h-13l-160 -541h331zM746 1504h-196l-255 294h243z" />
    <glyph glyph-name="Aacute" unicode="&#xc1;" horiz-adv-x="1272" 
d="M305 0h-291l452 1365h344l450 -1365h-308l-101 339h-444zM637 1093h-13l-160 -541h331zM722 1504h-196l208 294h243z" />
    <glyph glyph-name="Adieresis" unicode="&#xc4;" horiz-adv-x="1273" 
d="M305 0h-291l452 1365h344l450 -1365h-308l-101 339h-444zM637 1093h-13l-160 -541h331zM459 1473c-60 0 -106 48 -106 110c0 63 46 112 106 112c63 0 112 -49 112 -112c0 -62 -49 -110 -112 -110zM813 1473c-61 0 -108 48 -108 110c0 63 47 112 108 112
c62 0 110 -49 110 -112c0 -62 -48 -110 -110 -110z" />
    <glyph glyph-name="Adieresismacron" unicode="&#x1de;" horiz-adv-x="1273" 
d="M305 0h-291l452 1365h344l450 -1365h-308l-101 339h-444zM637 1093h-13l-160 -541h331zM458 1473c-60 0 -106 48 -106 110c0 63 46 112 106 112c63 0 112 -49 112 -112c0 -62 -49 -110 -112 -110zM812 1473c-61 0 -108 48 -108 110c0 63 47 112 108 112
c62 0 110 -49 110 -112c0 -62 -48 -110 -110 -110zM930 1787h-586v136h586v-136z" />
    <glyph glyph-name="Aring" unicode="&#xc5;" horiz-adv-x="1273" 
d="M305 0h-291l452 1365h344l450 -1365h-308l-101 339h-444zM637 1093h-13l-160 -541h331zM637 1462c-124 0 -219 88 -219 212c0 123 95 210 219 210s218 -87 218 -210c0 -124 -95 -212 -218 -212zM544 1673c0 -53 39 -93 92 -93s93 40 93 93s-40 93 -93 93s-92 -40 -92 -93
z" />
    <glyph glyph-name="Aringacute" unicode="&#x1fa;" horiz-adv-x="1273" 
d="M305 0h-291l452 1365h344l450 -1365h-308l-101 339h-444zM637 1093h-13l-160 -541h331zM522 1808l84 135h266l-121 -135h-229zM637 1414c-104 0 -185 75 -185 178s80 177 185 177c104 0 185 -74 185 -177s-81 -178 -185 -178zM561 1592c0 -43 32 -77 76 -77s76 34 76 77
s-32 76 -76 76s-76 -33 -76 -76z" />
    <glyph glyph-name="Atilde" unicode="&#xc3;" horiz-adv-x="1272" 
d="M305 0h-291l452 1365h344l450 -1365h-308l-101 339h-444zM637 1093h-13l-160 -541h331zM749 1475c-130 0 -161 111 -223 111c-42 0 -59 -48 -61 -89h-141c0 107 63 219 194 219c129 0 170 -111 231 -111c41 0 59 50 61 95h141c0 -118 -76 -225 -202 -225z" />
    <glyph glyph-name="Abrevegrave" unicode="&#x1eb0;" horiz-adv-x="1273" 
d="M305 0h-291l452 1365h344l450 -1365h-308l-101 339h-444zM637 1093h-13l-160 -541h331zM954 1737c0 -147 -116 -258 -317 -258s-320 111 -320 258h153c0 -65 51 -120 167 -120s167 55 167 120h150zM743 1753h-181l-193 192h222z" />
    <glyph glyph-name="Adotmacron" unicode="&#x1e0;" horiz-adv-x="1273" 
d="M305 0h-291l452 1365h344l450 -1365h-308l-101 339h-444zM637 1093h-13l-160 -541h331zM511 1578c0 70 56 124 126 124s126 -54 126 -124c0 -69 -56 -122 -126 -122s-126 53 -126 122zM930 1787h-586v136h586v-136z" />
    <glyph glyph-name="Aringbelow" unicode="&#x1e00;" horiz-adv-x="1273" 
d="M305 0h-291l452 1365h344l450 -1365h-308l-101 339h-444zM637 1093h-13l-160 -541h331zM637 -531c-124 0 -219 88 -219 212c0 123 95 210 219 210s218 -87 218 -210c0 -124 -95 -212 -218 -212zM544 -320c0 -53 39 -93 92 -93s93 40 93 93s-40 93 -93 93s-92 -40 -92 -93
z" />
    <glyph glyph-name="Acircumflex" unicode="&#xc2;" horiz-adv-x="1273" 
d="M305 0h-291l452 1365h344l450 -1365h-308l-101 339h-444zM637 1093h-13l-160 -541h331zM311 1504l232 276h188l232 -276h-208l-113 147h-10l-113 -147h-208z" />
    <glyph glyph-name="Acircumflexdotbelow" unicode="&#x1eac;" horiz-adv-x="1273" 
d="M305 0h-291l452 1365h344l450 -1365h-308l-101 339h-444zM637 1093h-13l-160 -541h331zM517 -259c0 69 53 122 119 122c67 0 120 -53 120 -122c0 -67 -53 -120 -120 -120c-66 0 -119 53 -119 120zM311 1504l232 276h188l232 -276h-208l-113 147h-10l-113 -147h-208z" />
    <glyph glyph-name="Acircumflexacute" unicode="&#x1ea4;" horiz-adv-x="1273" 
d="M305 0h-291l452 1365h344l450 -1365h-308l-101 339h-444zM637 1093h-13l-160 -541h331zM276 1504l269 228h184l269 -228h-224l-132 111h-10l-132 -111h-224zM874 1689l212 240h209l-246 -240h-175z" />
    <glyph glyph-name="Acircumflextilde" unicode="&#x1eaa;" horiz-adv-x="1273" 
d="M305 0h-291l452 1365h344l450 -1365h-308l-101 339h-444zM637 1093h-13l-160 -541h331zM301 1504l254 197h164l254 -197h-209l-125 103h-4l-125 -103h-209zM495 1768h-128c0 95 64 174 163 174s139 -80 194 -80c37 0 55 21 57 64h129c0 -100 -75 -185 -179 -185
c-98 0 -133 82 -185 82c-35 0 -50 -28 -51 -55z" />
    <glyph glyph-name="Acircumflexgrave" unicode="&#x1ea6;" horiz-adv-x="1273" 
d="M305 0h-291l452 1365h344l450 -1365h-308l-101 339h-444zM637 1093h-13l-160 -541h331zM276 1504l269 228h184l269 -228h-224l-132 111h-10l-132 -111h-224zM1150 1689h-175l-255 240h209z" />
    <glyph glyph-name="Acircumflexhookabove" unicode="&#x1ea8;" horiz-adv-x="1273" 
d="M305 0h-291l452 1365h344l450 -1365h-308l-101 339h-444zM637 1093h-13l-160 -541h331zM276 1504l269 228h184l269 -228h-224l-132 111h-10l-132 -111h-224zM800 1837v94c20 7 52 12 86 12c100 0 180 -45 180 -146c0 -75 -57 -127 -114 -151l-71 82c36 14 54 31 54 57
c0 37 -38 59 -76 59c-27 0 -42 -2 -59 -7z" />
    <glyph glyph-name="Abreve" unicode="&#x102;" horiz-adv-x="1273" 
d="M305 0h-291l452 1365h344l450 -1365h-308l-101 339h-444zM637 1093h-13l-160 -541h331zM332 1759h151c0 -80 48 -140 154 -140s154 60 154 140h148c0 -153 -102 -280 -302 -280s-305 126 -305 280z" />
    <glyph glyph-name="Abreveacute" unicode="&#x1eae;" horiz-adv-x="1273" 
d="M305 0h-291l452 1365h344l450 -1365h-308l-101 339h-444zM637 1093h-13l-160 -541h331zM954 1737c0 -147 -116 -258 -317 -258s-320 111 -320 258h153c0 -65 51 -120 167 -120s167 55 167 120h150zM527 1753l152 192h222l-193 -192h-181z" />
    <glyph glyph-name="Abrevetilde" unicode="&#x1eb4;" horiz-adv-x="1273" 
d="M305 0h-291l452 1365h344l450 -1365h-308l-101 339h-444zM637 1093h-13l-160 -541h331zM948 1696c0 -133 -132 -228 -311 -228c-176 0 -308 95 -308 228h144c0 -55 57 -108 164 -108s164 53 164 108h147zM492 1765h-134c0 98 67 180 169 180s142 -83 200 -83
c37 0 55 21 57 67h135c0 -103 -78 -191 -185 -191c-101 0 -136 85 -191 85c-35 0 -50 -31 -51 -58z" />
    <glyph glyph-name="Abrevehookabove" unicode="&#x1eb2;" horiz-adv-x="1273" 
d="M305 0h-291l452 1365h344l450 -1365h-308l-101 339h-444zM637 1093h-13l-160 -541h331zM948 1696c0 -133 -132 -228 -311 -228c-176 0 -308 95 -308 228h144c0 -55 57 -108 164 -108s164 53 164 108h147zM487 1824v98c19 7 47 12 82 12c102 0 175 -54 175 -135
c0 -69 -51 -119 -106 -135l-74 82c26 5 47 19 47 42c0 31 -34 46 -66 46c-24 0 -42 -4 -58 -10z" />
    <glyph glyph-name="Abrevedotbelow" unicode="&#x1eb6;" horiz-adv-x="1273" 
d="M305 0h-291l452 1365h344l450 -1365h-308l-101 339h-444zM637 1093h-13l-160 -541h331zM519 -259c0 69 53 122 119 122c67 0 120 -53 120 -122c0 -67 -53 -120 -120 -120c-66 0 -119 53 -119 120zM332 1759h151c0 -80 48 -140 154 -140s154 60 154 140h148
c0 -153 -102 -280 -302 -280s-305 126 -305 280z" />
    <glyph glyph-name="Ainvertedbreve" unicode="&#x202;" horiz-adv-x="1273" 
d="M305 0h-291l452 1365h344l450 -1365h-308l-101 339h-444zM637 1093h-13l-160 -541h331zM637 1643c-106 0 -154 -59 -154 -139h-151c0 153 105 279 305 279s302 -126 302 -279h-148c0 80 -48 139 -154 139z" />
    <glyph glyph-name="Acaron" unicode="&#x1cd;" horiz-adv-x="1273" 
d="M305 0h-291l452 1365h344l450 -1365h-308l-101 339h-444zM637 1093h-13l-160 -541h331zM311 1779h208l113 -147h10l113 147h208l-232 -276h-188z" />
    <glyph glyph-name="Adotaccent" unicode="&#x226;" horiz-adv-x="1273" 
d="M305 0h-291l452 1365h344l450 -1365h-308l-101 339h-444zM637 1093h-13l-160 -541h331zM497 1650c0 77 63 137 140 137s140 -60 140 -137s-63 -136 -140 -136s-140 59 -140 136z" />
    <glyph glyph-name="Adotbelow" unicode="&#x1ea0;" horiz-adv-x="1273" 
d="M305 0h-291l452 1365h344l450 -1365h-308l-101 339h-444zM637 1093h-13l-160 -541h331zM517 -259c0 69 53 122 119 122c67 0 120 -53 120 -122c0 -67 -53 -120 -120 -120c-66 0 -119 53 -119 120z" />
    <glyph glyph-name="Ahookabove" unicode="&#x1ea2;" horiz-adv-x="1272" 
d="M305 0h-291l452 1365h344l450 -1365h-308l-101 339h-444zM637 1093h-13l-160 -541h331zM483 1661v116c19 8 62 19 112 19c133 0 221 -63 221 -175c0 -105 -87 -153 -147 -180l-84 95c38 12 81 37 81 75c0 46 -47 61 -95 61c-34 0 -66 -5 -88 -11z" />
    <glyph glyph-name="Adblgrave" unicode="&#x200;" horiz-adv-x="1272" 
d="M305 0h-291l452 1365h344l450 -1365h-308l-101 339h-444zM637 1093h-13l-160 -541h331zM572 1504h-190l-285 259h238zM940 1504h-190l-285 259h238z" />
    <glyph glyph-name="Amacron" unicode="&#x100;" horiz-adv-x="1273" 
d="M305 0h-291l452 1365h344l450 -1365h-308l-101 339h-444zM637 1093h-13l-160 -541h331zM929 1509h-586v136h586v-136z" />
    <glyph glyph-name="Aogonek" unicode="&#x104;" horiz-adv-x="1273" 
d="M305 0h-291l452 1365h344l437 -1325c-106 -38 -159 -103 -159 -167c0 -54 41 -96 119 -96c24 0 54 3 75 8v-154c-27 -12 -91 -21 -146 -21c-142 0 -249 74 -249 204c0 89 49 157 116 200v9h-59l-93 316h-444zM637 1093h-13l-160 -541h331z" />
    <glyph glyph-name="B" unicode="B" horiz-adv-x="1266" 
d="M141 0v1365h581c246 0 409 -126 409 -335c0 -169 -103 -268 -237 -299v-13c160 -15 305 -124 305 -332c0 -245 -201 -386 -475 -386h-583zM428 1153v-351h172c172 0 247 66 247 178c0 106 -71 173 -194 173h-225zM428 606v-393h193c202 0 284 68 284 193
c0 123 -82 200 -236 200h-241z" />
    <glyph glyph-name="Blinebelow" unicode="&#x1e06;" horiz-adv-x="1266" 
d="M141 0v1365h581c246 0 409 -126 409 -335c0 -169 -103 -268 -237 -299v-13c160 -15 305 -124 305 -332c0 -245 -201 -386 -475 -386h-583zM428 1153v-351h172c172 0 247 66 247 178c0 106 -71 173 -194 173h-225zM428 606v-393h193c202 0 284 68 284 193
c0 123 -82 200 -236 200h-241zM905 -359h-590v157h590v-157z" />
    <glyph glyph-name="Bdotbelow" unicode="&#x1e04;" horiz-adv-x="1266" 
d="M492 -259c0 69 53 122 119 122c67 0 120 -53 120 -122c0 -67 -53 -120 -120 -120c-66 0 -119 53 -119 120zM141 0v1365h581c246 0 409 -126 409 -335c0 -169 -103 -268 -237 -299v-13c160 -15 305 -124 305 -332c0 -245 -201 -386 -475 -386h-583zM428 1153v-351h172
c172 0 247 66 247 178c0 106 -71 173 -194 173h-225zM428 606v-393h193c202 0 284 68 284 193c0 123 -82 200 -236 200h-241z" />
    <glyph glyph-name="Bdotaccent" unicode="&#x1e02;" horiz-adv-x="1266" 
d="M470 1650c0 77 63 137 140 137s140 -60 140 -137s-63 -136 -140 -136s-140 59 -140 136zM141 0v1365h581c246 0 409 -126 409 -335c0 -169 -103 -268 -237 -299v-13c160 -15 305 -124 305 -332c0 -245 -201 -386 -475 -386h-583zM428 1153v-351h172c172 0 247 66 247 178
c0 106 -71 173 -194 173h-225zM428 606v-393h193c202 0 284 68 284 193c0 123 -82 200 -236 200h-241z" />
    <glyph glyph-name="C" unicode="C" horiz-adv-x="1286" 
d="M380 757v-154c0 -249 104 -386 286 -386c161 0 261 108 263 258h278v-30c0 -279 -228 -471 -543 -471c-369 0 -578 241 -578 630v153c0 392 209 634 578 634c316 0 543 -196 543 -484v-29h-278c-2 157 -102 270 -263 270c-182 0 -286 -139 -286 -391z" />
    <glyph glyph-name="Cacute" unicode="&#x106;" horiz-adv-x="1286" 
d="M739 1504h-196l208 294h243zM380 757v-154c0 -249 104 -386 286 -386c161 0 261 108 263 258h278v-30c0 -279 -228 -471 -543 -471c-369 0 -578 241 -578 630v153c0 392 209 634 578 634c316 0 543 -196 543 -484v-29h-278c-2 157 -102 270 -263 270
c-182 0 -286 -139 -286 -391z" />
    <glyph glyph-name="Ccaron" unicode="&#x10c;" horiz-adv-x="1286" 
d="M380 757v-154c0 -249 104 -386 286 -386c161 0 261 108 263 258h278v-30c0 -279 -228 -471 -543 -471c-369 0 -578 241 -578 630v153c0 392 209 634 578 634c316 0 543 -196 543 -484v-29h-278c-2 157 -102 270 -263 270c-182 0 -286 -139 -286 -391zM327 1779h208
l113 -147h10l113 147h208l-232 -276h-188z" />
    <glyph glyph-name="Ccircumflex" unicode="&#x108;" horiz-adv-x="1286" 
d="M380 757v-154c0 -249 104 -386 286 -386c161 0 261 108 263 258h278v-30c0 -279 -228 -471 -543 -471c-369 0 -578 241 -578 630v153c0 392 209 634 578 634c316 0 543 -196 543 -484v-29h-278c-2 157 -102 270 -263 270c-182 0 -286 -139 -286 -391zM327 1504l232 276
h188l232 -276h-208l-113 147h-10l-113 -147h-208z" />
    <glyph glyph-name="Cdotaccent" unicode="&#x10a;" horiz-adv-x="1286" 
d="M513 1650c0 77 63 137 140 137s140 -60 140 -137s-63 -136 -140 -136s-140 59 -140 136zM380 757v-154c0 -249 104 -386 286 -386c161 0 261 108 263 258h278v-30c0 -279 -228 -471 -543 -471c-369 0 -578 241 -578 630v153c0 392 209 634 578 634
c316 0 543 -196 543 -484v-29h-278c-2 157 -102 270 -263 270c-182 0 -286 -139 -286 -391z" />
    <glyph glyph-name="Ccedilla" unicode="&#xc7;" horiz-adv-x="1286" 
d="M639 -482c-61 0 -110 7 -136 15v126c28 -8 76 -14 111 -14c61 0 109 17 109 59c0 40 -24 60 -128 60h-55v105l41 109c-318 35 -495 268 -495 626v153c0 392 209 634 578 634c316 0 543 -196 543 -484v-29h-278c-2 158 -103 270 -263 270c-182 0 -286 -139 -286 -391v-154
c0 -249 104 -386 286 -386c161 0 261 108 263 258h278v-30c0 -254 -191 -438 -464 -466l-38 -96c122 0 192 -66 192 -169c0 -131 -97 -196 -258 -196z" />
    <glyph glyph-name="Ccedillaacute" unicode="&#x1e08;" horiz-adv-x="1286" 
d="M739 1504h-196l208 294h243zM639 -482c-61 0 -110 7 -136 15v126c28 -8 76 -14 111 -14c61 0 109 17 109 59c0 40 -24 60 -128 60h-55v105l41 109c-318 35 -495 268 -495 626v153c0 392 209 634 578 634c316 0 543 -196 543 -484v-29h-278c-2 158 -103 270 -263 270
c-182 0 -286 -139 -286 -391v-154c0 -249 104 -386 286 -386c161 0 261 108 263 258h278v-30c0 -254 -191 -438 -464 -466l-38 -96c122 0 192 -66 192 -169c0 -131 -97 -196 -258 -196z" />
    <glyph glyph-name="D" unicode="D" horiz-adv-x="1336" 
d="M141 1365h511c418 0 612 -250 612 -678c0 -431 -197 -687 -612 -687h-511v1365zM431 1131v-897h179c216 0 357 105 357 447c0 269 -91 450 -357 450h-179z" />
    <glyph glyph-name="Ddotaccent" unicode="&#x1e0a;" horiz-adv-x="1336" 
d="M470 1650c0 77 63 137 140 137s140 -60 140 -137s-63 -136 -140 -136s-140 59 -140 136zM141 1365h511c418 0 612 -250 612 -678c0 -431 -197 -687 -612 -687h-511v1365zM431 1131v-897h179c216 0 357 105 357 447c0 269 -91 450 -357 450h-179z" />
    <glyph glyph-name="Dcircumflexbelow" unicode="&#x1e12;" horiz-adv-x="1336" 
d="M141 1365h511c418 0 612 -250 612 -678c0 -431 -197 -687 -612 -687h-511v1365zM431 1131v-897h179c216 0 357 105 357 447c0 269 -91 450 -357 450h-179zM285 -390l230 274h190l230 -274h-208l-112 151h-10l-112 -151h-208z" />
    <glyph glyph-name="Dcommaaccent" unicode="&#x1e10;" horiz-adv-x="1336" 
d="M613 -489h-189l85 335h218zM141 1365h511c418 0 612 -250 612 -678c0 -431 -197 -687 -612 -687h-511v1365zM431 1131v-897h179c216 0 357 105 357 447c0 269 -91 450 -357 450h-179z" />
    <glyph glyph-name="Dlinebelow" unicode="&#x1e0e;" horiz-adv-x="1336" 
d="M905 -359h-590v157h590v-157zM141 1365h511c418 0 612 -250 612 -678c0 -431 -197 -687 -612 -687h-511v1365zM431 1131v-897h179c216 0 357 105 357 447c0 269 -91 450 -357 450h-179z" />
    <glyph glyph-name="Dcaron" unicode="&#x10e;" horiz-adv-x="1336" 
d="M284 1779h208l113 -147h10l113 147h208l-232 -276h-188zM141 1365h511c418 0 612 -250 612 -678c0 -431 -197 -687 -612 -687h-511v1365zM431 1131v-897h179c216 0 357 105 357 447c0 269 -91 450 -357 450h-179z" />
    <glyph glyph-name="Ddotbelow" unicode="&#x1e0c;" horiz-adv-x="1336" 
d="M492 -259c0 69 53 122 119 122c67 0 120 -53 120 -122c0 -67 -53 -120 -120 -120c-66 0 -119 53 -119 120zM141 1365h511c418 0 612 -250 612 -678c0 -431 -197 -687 -612 -687h-511v1365zM431 1131v-897h179c216 0 357 105 357 447c0 269 -91 450 -357 450h-179z" />
    <glyph glyph-name="Dcroat" unicode="&#x110;" horiz-adv-x="1426" 
d="M704 0h-511v567h-127v250h127v548h511c418 0 612 -250 612 -678c0 -431 -197 -687 -612 -687zM482 240h179c216 0 356 104 356 447c0 268 -91 450 -356 450h-179v-320h273v-250h-273v-327z" />
    <glyph glyph-name="E" unicode="E" horiz-adv-x="1133" 
d="M1032 234v-234h-891v1365h891v-234h-604v-332h568v-218h-568v-347h604z" />
    <glyph glyph-name="Egrave" unicode="&#xc8;" horiz-adv-x="1133" 
d="M687 1504h-196l-255 294h243zM1032 234v-234h-891v1365h891v-234h-604v-332h568v-218h-568v-347h604z" />
    <glyph glyph-name="Edblgrave" unicode="&#x204;" horiz-adv-x="1133" 
d="M513 1504h-190l-285 259h238zM881 1504h-190l-285 259h238zM1032 234v-234h-891v1365h891v-234h-604v-332h568v-218h-568v-347h604z" />
    <glyph glyph-name="Eacute" unicode="&#xc9;" horiz-adv-x="1133" 
d="M663 1504h-196l208 294h243zM1032 234v-234h-891v1365h891v-234h-604v-332h568v-218h-568v-347h604z" />
    <glyph glyph-name="Ecircumflex" unicode="&#xca;" horiz-adv-x="1133" 
d="M251 1504l232 276h188l232 -276h-208l-113 147h-10l-113 -147h-208zM1032 234v-234h-891v1365h891v-234h-604v-332h568v-218h-568v-347h604z" />
    <glyph glyph-name="Ecircumflexhookabove" unicode="&#x1ec2;" horiz-adv-x="1133" 
d="M1032 234v-234h-891v1365h891v-234h-604v-332h568v-218h-568v-347h604zM216 1504l269 228h184l269 -228h-224l-132 111h-10l-132 -111h-224zM740 1837v94c20 7 52 12 86 12c100 0 180 -45 180 -146c0 -75 -57 -127 -114 -151l-71 82c36 14 54 31 54 57
c0 37 -38 59 -76 59c-27 0 -42 -2 -59 -7z" />
    <glyph glyph-name="Ecircumflexgrave" unicode="&#x1ec0;" horiz-adv-x="1133" 
d="M1032 234v-234h-891v1365h891v-234h-604v-332h568v-218h-568v-347h604zM216 1504l269 228h184l269 -228h-224l-132 111h-10l-132 -111h-224zM1090 1689h-175l-255 240h209z" />
    <glyph glyph-name="Ecircumflextilde" unicode="&#x1ec4;" horiz-adv-x="1133" 
d="M241 1504l254 197h164l254 -197h-209l-125 103h-4l-125 -103h-209zM435 1768h-128c0 95 64 174 163 174s139 -80 194 -80c37 0 55 21 57 64h129c0 -100 -75 -185 -179 -185c-98 0 -133 82 -185 82c-35 0 -50 -28 -51 -55zM1032 234v-234h-891v1365h891v-234h-604v-332
h568v-218h-568v-347h604z" />
    <glyph glyph-name="Ecircumflexdotbelow" unicode="&#x1ec6;" horiz-adv-x="1133" 
d="M459 -259c0 69 53 122 119 122c67 0 120 -53 120 -122c0 -67 -53 -120 -120 -120c-66 0 -119 53 -119 120zM251 1504l232 276h188l232 -276h-208l-113 147h-10l-113 -147h-208zM1032 234v-234h-891v1365h891v-234h-604v-332h568v-218h-568v-347h604z" />
    <glyph glyph-name="Ecircumflexacute" unicode="&#x1ebe;" horiz-adv-x="1133" 
d="M1032 234v-234h-891v1365h891v-234h-604v-332h568v-218h-568v-347h604zM216 1504l269 228h184l269 -228h-224l-132 111h-10l-132 -111h-224zM814 1689l212 240h209l-246 -240h-175z" />
    <glyph glyph-name="Edieresis" unicode="&#xcb;" horiz-adv-x="1133" 
d="M398 1473c-60 0 -106 48 -106 110c0 63 46 112 106 112c63 0 112 -49 112 -112c0 -62 -49 -110 -112 -110zM752 1473c-61 0 -108 48 -108 110c0 63 47 112 108 112c62 0 110 -49 110 -112c0 -62 -48 -110 -110 -110zM1032 234v-234h-891v1365h891v-234h-604v-332h568
v-218h-568v-347h604z" />
    <glyph glyph-name="Edotbelow" unicode="&#x1eb8;" horiz-adv-x="1133" 
d="M459 -259c0 69 53 122 119 122c67 0 120 -53 120 -122c0 -67 -53 -120 -120 -120c-66 0 -119 53 -119 120zM1032 234v-234h-891v1365h891v-234h-604v-332h568v-218h-568v-347h604z" />
    <glyph glyph-name="Einvertedbreve" unicode="&#x206;" horiz-adv-x="1133" 
d="M1032 234v-234h-891v1365h891v-234h-604v-332h568v-218h-568v-347h604zM577 1643c-106 0 -154 -59 -154 -139h-151c0 153 105 279 305 279s302 -126 302 -279h-148c0 80 -48 139 -154 139z" />
    <glyph glyph-name="Ehookabove" unicode="&#x1eba;" horiz-adv-x="1133" 
d="M1032 234v-234h-891v1365h891v-234h-604v-332h568v-218h-568v-347h604zM424 1661v116c19 8 62 19 112 19c133 0 221 -63 221 -175c0 -105 -87 -153 -147 -180l-84 95c38 12 81 37 81 75c0 46 -47 61 -95 61c-34 0 -66 -5 -88 -11z" />
    <glyph glyph-name="Ecaron" unicode="&#x11a;" horiz-adv-x="1133" 
d="M251 1779h208l113 -147h10l113 147h208l-232 -276h-188zM1032 234v-234h-891v1365h891v-234h-604v-332h568v-218h-568v-347h604z" />
    <glyph glyph-name="Emacron" unicode="&#x112;" horiz-adv-x="1133" 
d="M1032 234v-234h-891v1365h891v-234h-604v-332h568v-218h-568v-347h604zM870 1509h-586v136h586v-136z" />
    <glyph glyph-name="Emacrongrave" unicode="&#x1e14;" horiz-adv-x="1133" 
d="M686 1745h-195l-255 193h240zM870 1509h-586v136h586v-136zM1032 234v-234h-891v1365h891v-234h-604v-332h568v-218h-568v-347h604z" />
    <glyph glyph-name="Emacronacute" unicode="&#x1e16;" horiz-adv-x="1133" 
d="M468 1745l210 193h240l-255 -193h-195zM870 1509h-586v136h586v-136zM1032 234v-234h-891v1365h891v-234h-604v-332h568v-218h-568v-347h604z" />
    <glyph glyph-name="Etilde" unicode="&#x1ebc;" horiz-adv-x="1133" 
d="M1032 234v-234h-891v1365h891v-234h-604v-332h568v-218h-568v-347h604zM690 1475c-130 0 -161 111 -223 111c-42 0 -59 -48 -61 -89h-141c0 107 63 219 194 219c129 0 170 -111 231 -111c41 0 59 50 61 95h141c0 -118 -76 -225 -202 -225z" />
    <glyph glyph-name="Ecircumflexbelow" unicode="&#x1e18;" horiz-adv-x="1133" 
d="M1032 234v-234h-891v1365h891v-234h-604v-332h568v-218h-568v-347h604zM252 -390l230 274h190l230 -274h-208l-112 151h-10l-112 -151h-208z" />
    <glyph glyph-name="Ebreve" unicode="&#x114;" horiz-adv-x="1133" 
d="M1032 234v-234h-891v1365h891v-234h-604v-332h568v-218h-568v-347h604zM272 1759h151c0 -80 48 -140 154 -140s154 60 154 140h148c0 -153 -102 -280 -302 -280s-305 126 -305 280z" />
    <glyph glyph-name="Etildebelow" unicode="&#x1e1a;" horiz-adv-x="1133" 
d="M701 -382c-134 0 -173 118 -241 118c-49 0 -60 -62 -61 -95h-153c0 124 70 237 201 237c134 0 175 -118 247 -118c43 0 66 46 68 101h153c0 -126 -80 -243 -214 -243zM1032 234v-234h-891v1365h891v-234h-604v-332h568v-218h-568v-347h604z" />
    <glyph glyph-name="Edotaccent" unicode="&#x116;" horiz-adv-x="1133" 
d="M437 1650c0 77 63 137 140 137s140 -60 140 -137s-63 -136 -140 -136s-140 59 -140 136zM1032 234v-234h-891v1365h891v-234h-604v-332h568v-218h-568v-347h604z" />
    <glyph glyph-name="Ecedilla" unicode="&#x228;" horiz-adv-x="1133" 
d="M578 -472c-68 -2 -122 8 -146 15v126c27 -8 75 -14 111 -14c52 0 109 11 109 60c0 50 -44 59 -129 59h-55v105l46 121h-373v1365h891v-234h-604v-332h568v-218h-568v-347h604v-234h-356l-42 -107c117 0 192 -63 192 -169c0 -135 -103 -193 -248 -196z" />
    <glyph glyph-name="Ecedillabreve" unicode="&#x1e1c;" horiz-adv-x="1133" 
d="M578 -472c-68 -2 -122 8 -146 15v126c27 -8 75 -14 111 -14c52 0 109 11 109 60c0 50 -44 59 -129 59h-55v105l46 121h-373v1365h891v-234h-604v-332h568v-218h-568v-347h604v-234h-356l-42 -107c117 0 192 -63 192 -169c0 -135 -103 -193 -248 -196zM272 1759h151
c0 -80 48 -140 154 -140s154 60 154 140h148c0 -153 -102 -280 -302 -280s-305 126 -305 280z" />
    <glyph glyph-name="Eogonek" unicode="&#x118;" horiz-adv-x="1134" 
d="M1033 -369c-31 -10 -90 -21 -142 -21c-132 0 -247 62 -247 200c0 78 42 139 102 180v10h-605v1365h891v-234h-604v-332h568v-218h-568v-347h604v-189c-85 -18 -189 -76 -189 -172c0 -62 49 -96 119 -96c23 0 54 4 71 8v-154z" />
    <glyph glyph-name="F" unicode="F" horiz-adv-x="1077" 
d="M431 0h-290v1365h883v-236h-593v-364h541v-231h-541v-534z" />
    <glyph glyph-name="Fdotaccent" unicode="&#x1e1e;" horiz-adv-x="1077" 
d="M427 1650c0 77 63 137 140 137s140 -60 140 -137s-63 -136 -140 -136s-140 59 -140 136zM431 0h-290v1365h883v-236h-593v-364h541v-231h-541v-534z" />
    <glyph glyph-name="G" unicode="G" horiz-adv-x="1311" 
d="M1223 924h-282c-15 133 -111 226 -268 226c-189 0 -295 -136 -295 -373v-174c0 -230 87 -388 303 -388c168 0 269 105 269 236v78h-267v211h542v-270c0 -264 -189 -496 -550 -496c-405 0 -589 261 -589 628v178c0 365 211 611 588 611c346 0 539 -215 549 -467z" />
    <glyph glyph-name="Gacute" unicode="&#x1f4;" horiz-adv-x="1311" 
d="M751 1504h-196l208 294h243zM1223 924h-282c-15 133 -111 226 -268 226c-189 0 -295 -136 -295 -373v-174c0 -230 87 -388 303 -388c168 0 269 105 269 236v78h-267v211h542v-270c0 -264 -189 -496 -550 -496c-405 0 -589 261 -589 628v178c0 365 211 611 588 611
c346 0 539 -215 549 -467z" />
    <glyph glyph-name="Gcaron" unicode="&#x1e6;" horiz-adv-x="1311" 
d="M339 1779h208l113 -147h10l113 147h208l-232 -276h-188zM1223 924h-282c-15 133 -111 226 -268 226c-189 0 -295 -136 -295 -373v-174c0 -230 87 -388 303 -388c168 0 269 105 269 236v78h-267v211h542v-270c0 -264 -189 -496 -550 -496c-405 0 -589 261 -589 628v178
c0 365 211 611 588 611c346 0 539 -215 549 -467z" />
    <glyph glyph-name="Gcircumflex" unicode="&#x11c;" horiz-adv-x="1311" 
d="M339 1504l232 276h188l232 -276h-208l-113 147h-10l-113 -147h-208zM1223 924h-282c-15 133 -111 226 -268 226c-189 0 -295 -136 -295 -373v-174c0 -230 87 -388 303 -388c168 0 269 105 269 236v78h-267v211h542v-270c0 -264 -189 -496 -550 -496
c-405 0 -589 261 -589 628v178c0 365 211 611 588 611c346 0 539 -215 549 -467z" />
    <glyph glyph-name="Gbreve" unicode="&#x11e;" horiz-adv-x="1311" 
d="M1223 924h-282c-15 133 -111 226 -268 226c-189 0 -295 -136 -295 -373v-174c0 -230 87 -388 303 -388c168 0 269 105 269 236v78h-267v211h542v-270c0 -264 -189 -496 -550 -496c-405 0 -589 261 -589 628v178c0 365 211 611 588 611c346 0 539 -215 549 -467zM360 1759
h151c0 -80 48 -140 154 -140s154 60 154 140h148c0 -153 -102 -280 -302 -280s-305 126 -305 280z" />
    <glyph glyph-name="Gmacron" unicode="&#x1e20;" horiz-adv-x="1311" 
d="M1223 924h-282c-15 133 -111 226 -268 226c-189 0 -295 -136 -295 -373v-174c0 -230 87 -388 303 -388c168 0 269 105 269 236v78h-267v211h542v-270c0 -264 -189 -496 -550 -496c-405 0 -589 261 -589 628v178c0 365 211 611 588 611c346 0 539 -215 549 -467zM958 1509
h-586v136h586v-136z" />
    <glyph glyph-name="Gdotaccent" unicode="&#x120;" horiz-adv-x="1311" 
d="M525 1650c0 77 63 137 140 137s140 -60 140 -137s-63 -136 -140 -136s-140 59 -140 136zM1223 924h-282c-15 133 -111 226 -268 226c-189 0 -295 -136 -295 -373v-174c0 -230 87 -388 303 -388c168 0 269 105 269 236v78h-267v211h542v-270c0 -264 -189 -496 -550 -496
c-405 0 -589 261 -589 628v178c0 365 211 611 588 611c346 0 539 -215 549 -467z" />
    <glyph glyph-name="Gcommaaccent" unicode="&#x122;" horiz-adv-x="1311" 
d="M668 -489h-189l85 335h218zM1223 924h-282c-15 133 -111 226 -268 226c-189 0 -295 -136 -295 -373v-174c0 -230 87 -388 303 -388c168 0 269 105 269 236v78h-267v211h542v-270c0 -264 -189 -496 -550 -496c-405 0 -589 261 -589 628v178c0 365 211 611 588 611
c346 0 539 -215 549 -467z" />
    <glyph glyph-name="H" unicode="H" horiz-adv-x="1412" 
d="M1271 0h-290v577h-550v-577h-290v1365h290v-550h550v550h290v-1365z" />
    <glyph glyph-name="Hdieresis" unicode="&#x1e26;" horiz-adv-x="1412" 
d="M1271 0h-290v577h-550v-577h-290v1365h290v-550h550v550h290v-1365zM527 1473c-60 0 -106 48 -106 110c0 63 46 112 106 112c63 0 112 -49 112 -112c0 -62 -49 -110 -112 -110zM881 1473c-61 0 -108 48 -108 110c0 63 47 112 108 112c62 0 110 -49 110 -112
c0 -62 -48 -110 -110 -110z" />
    <glyph glyph-name="Hcaron" unicode="&#x21e;" horiz-adv-x="1412" 
d="M1271 0h-290v577h-550v-577h-290v1365h290v-550h550v550h290v-1365zM379 1779h208l113 -147h10l113 147h208l-232 -276h-188z" />
    <glyph glyph-name="Hcircumflex" unicode="&#x124;" horiz-adv-x="1412" 
d="M1271 0h-290v577h-550v-577h-290v1365h290v-550h550v550h290v-1365zM379 1504l232 276h188l232 -276h-208l-113 147h-10l-113 -147h-208z" />
    <glyph glyph-name="Hdotbelow" unicode="&#x1e24;" horiz-adv-x="1412" 
d="M1271 0h-290v577h-550v-577h-290v1365h290v-550h550v550h290v-1365zM585 -259c0 69 53 122 119 122c67 0 120 -53 120 -122c0 -67 -53 -120 -120 -120c-66 0 -119 53 -119 120z" />
    <glyph glyph-name="Hdotaccent" unicode="&#x1e22;" horiz-adv-x="1412" 
d="M1271 0h-290v577h-550v-577h-290v1365h290v-550h550v550h290v-1365zM565 1650c0 77 63 137 140 137s140 -60 140 -137s-63 -136 -140 -136s-140 59 -140 136z" />
    <glyph glyph-name="Hbrevebelow" unicode="&#x1e2a;" horiz-adv-x="1412" 
d="M1271 0h-290v577h-550v-577h-290v1365h290v-550h550v550h290v-1365zM869 -127h161c0 -163 -107 -313 -325 -313s-332 147 -332 313h168c0 -84 51 -164 164 -164s164 80 164 164z" />
    <glyph glyph-name="Hcedilla" unicode="&#x1e28;" horiz-adv-x="1412" 
d="M324 -472c-63 0 -109 7 -136 15v126c26 -8 74 -14 111 -14c63 0 109 16 109 59c0 40 -25 60 -129 60h-55v105l46 121h-129v1365h290v-550h550v550h290v-1365h-290v577h-550v-577l-41 -107c121 0 192 -66 192 -169c0 -131 -98 -196 -258 -196z" />
    <glyph glyph-name="Hbar" unicode="&#x126;" horiz-adv-x="1411" 
d="M431 800h550v195h-550v-195zM431 562v-562h-290v995h-90v177h90v193h290v-193h550v193h290v-193h89v-177h-89v-995h-290v562h-550z" />
    <glyph glyph-name="I" unicode="I" horiz-adv-x="572" 
d="M431 0h-290v1365h290v-1365z" />
    <glyph glyph-name="Idotaccent" unicode="&#x130;" horiz-adv-x="572" 
d="M431 0h-290v1365h290v-1365zM146 1650c0 77 63 137 140 137s140 -60 140 -137s-63 -136 -140 -136s-140 59 -140 136z" />
    <glyph glyph-name="Igrave" unicode="&#xcc;" horiz-adv-x="572" 
d="M431 0h-290v1365h290v-1365zM396 1504h-196l-255 294h243z" />
    <glyph glyph-name="Idblgrave" unicode="&#x208;" horiz-adv-x="572" 
d="M431 0h-290v1365h290v-1365zM222 1504h-190l-285 259h238zM590 1504h-190l-285 259h238z" />
    <glyph glyph-name="Iacute" unicode="&#xcd;" horiz-adv-x="572" 
d="M431 0h-290v1365h290v-1365zM372 1504h-196l208 294h243z" />
    <glyph glyph-name="Icircumflex" unicode="&#xce;" horiz-adv-x="572" 
d="M431 0h-290v1365h290v-1365zM-40 1504l232 276h188l232 -276h-208l-113 147h-10l-113 -147h-208z" />
    <glyph glyph-name="Icaron" unicode="&#x1cf;" horiz-adv-x="571" 
d="M431 0h-290v1365h290v-1365zM-41 1779h208l113 -147h10l113 147h208l-232 -276h-188z" />
    <glyph glyph-name="Idieresis" unicode="&#xcf;" horiz-adv-x="572" 
d="M431 0h-290v1365h290v-1365zM107 1473c-60 0 -106 48 -106 110c0 63 46 112 106 112c63 0 112 -49 112 -112c0 -62 -49 -110 -112 -110zM461 1473c-61 0 -108 48 -108 110c0 63 47 112 108 112c62 0 110 -49 110 -112c0 -62 -48 -110 -110 -110z" />
    <glyph glyph-name="Idieresisacute" unicode="&#x1e2e;" horiz-adv-x="572" 
d="M431 0h-290v1365h290v-1365zM177 1745l210 193h240l-255 -193h-195zM107 1473c-60 0 -106 48 -106 110c0 63 46 112 106 112c63 0 112 -49 112 -112c0 -62 -49 -110 -112 -110zM461 1473c-61 0 -108 48 -108 110c0 63 47 112 108 112c62 0 110 -49 110 -112
c0 -62 -48 -110 -110 -110z" />
    <glyph glyph-name="Ibreve" unicode="&#x12c;" horiz-adv-x="572" 
d="M431 0h-290v1365h290v-1365zM-19 1759h151c0 -80 48 -140 154 -140s154 60 154 140h148c0 -153 -102 -280 -302 -280s-305 126 -305 280z" />
    <glyph glyph-name="Idotbelow" unicode="&#x1eca;" horiz-adv-x="572" 
d="M431 0h-290v1365h290v-1365zM167 -259c0 69 53 122 119 122c67 0 120 -53 120 -122c0 -67 -53 -120 -120 -120c-66 0 -119 53 -119 120z" />
    <glyph glyph-name="Iinvertedbreve" unicode="&#x20a;" horiz-adv-x="572" 
d="M431 0h-290v1365h290v-1365zM286 1643c-106 0 -154 -59 -154 -139h-151c0 153 105 279 305 279s302 -126 302 -279h-148c0 80 -48 139 -154 139z" />
    <glyph glyph-name="Imacron" unicode="&#x12a;" horiz-adv-x="572" 
d="M431 0h-290v1365h290v-1365zM579 1509h-586v136h586v-136z" />
    <glyph glyph-name="Itildebelow" unicode="&#x1e2c;" horiz-adv-x="572" 
d="M431 0h-290v1365h290v-1365zM409 -382c-134 0 -173 118 -241 118c-49 0 -60 -62 -61 -95h-153c0 124 70 237 201 237c134 0 175 -118 247 -118c43 0 66 46 68 101h153c0 -126 -80 -243 -214 -243z" />
    <glyph glyph-name="Ihookabove" unicode="&#x1ec8;" horiz-adv-x="572" 
d="M431 0h-290v1365h290v-1365zM133 1661v116c19 8 62 19 112 19c133 0 221 -63 221 -175c0 -105 -87 -153 -147 -180l-84 95c38 12 81 37 81 75c0 46 -47 61 -95 61c-34 0 -66 -5 -88 -11z" />
    <glyph glyph-name="Itilde" unicode="&#x128;" horiz-adv-x="572" 
d="M431 0h-290v1365h290v-1365zM399 1475c-130 0 -161 111 -223 111c-42 0 -59 -48 -61 -89h-141c0 107 63 219 194 219c129 0 170 -111 231 -111c41 0 59 50 61 95h141c0 -118 -76 -225 -202 -225z" />
    <glyph glyph-name="Iogonek" unicode="&#x12e;" horiz-adv-x="571" 
d="M453 -366c-20 -10 -80 -24 -146 -24c-159 0 -246 83 -246 204c0 103 66 163 120 196v8h-40v1347h290v-1323c-113 -45 -167 -103 -167 -171c0 -63 48 -95 114 -95c23 0 59 4 75 9v-151z" />
    <glyph glyph-name="J" unicode="J" horiz-adv-x="1083" 
d="M26 405h278c3 -105 64 -175 178 -175c126 0 180 76 180 222v913h290v-917c0 -311 -175 -474 -468 -474c-307 0 -458 202 -458 431z" />
    <glyph glyph-name="Jcircumflex" unicode="&#x134;" horiz-adv-x="1083" 
d="M26 405h278c3 -105 64 -175 178 -175c126 0 180 76 180 222v913h290v-917c0 -311 -175 -474 -468 -474c-307 0 -458 202 -458 431zM481 1504l232 276h188l232 -276h-208l-113 147h-10l-113 -147h-208z" />
    <glyph glyph-name="K" unicode="K" horiz-adv-x="1273" 
d="M1260 1365l-483 -589l503 -776h-346l-369 584l-134 -154v-430h-290v1365h290v-601h13l501 601h315z" />
    <glyph glyph-name="Kacute" unicode="&#x1e30;" horiz-adv-x="1273" 
d="M710 1504h-196l208 294h243zM1260 1365l-483 -589l503 -776h-346l-369 584l-134 -154v-430h-290v1365h290v-601h13l501 601h315z" />
    <glyph glyph-name="Kcaron" unicode="&#x1e8;" horiz-adv-x="1273" 
d="M1260 1365l-483 -589l503 -776h-346l-369 584l-134 -154v-430h-290v1365h290v-601h13l501 601h315zM298 1779h208l113 -147h10l113 147h208l-232 -276h-188z" />
    <glyph glyph-name="Kdotbelow" unicode="&#x1e32;" horiz-adv-x="1273" 
d="M518 -259c0 69 53 122 119 122c67 0 120 -53 120 -122c0 -67 -53 -120 -120 -120c-66 0 -119 53 -119 120zM1260 1365l-483 -589l503 -776h-346l-369 584l-134 -154v-430h-290v1365h290v-601h13l501 601h315z" />
    <glyph glyph-name="Klinebelow" unicode="&#x1e34;" horiz-adv-x="1273" 
d="M1260 1365l-483 -589l503 -776h-346l-369 584l-134 -154v-430h-290v1365h290v-601h13l501 601h315zM931 -359h-590v157h590v-157z" />
    <glyph glyph-name="Kcommaaccent" unicode="&#x136;" horiz-adv-x="1273" 
d="M1260 1365l-483 -589l503 -776h-346l-369 584l-134 -154v-430h-290v1365h290v-601h13l501 601h315zM639 -489h-189l85 335h218z" />
    <glyph glyph-name="L" unicode="L" horiz-adv-x="1025" 
d="M1000 245v-245h-859v1365h290v-1120h569z" />
    <glyph glyph-name="Lacute" unicode="&#x139;" horiz-adv-x="1025" 
d="M371 1504h-196l208 294h243zM1000 245v-245h-859v1365h290v-1120h569z" />
    <glyph glyph-name="Lcircumflexbelow" unicode="&#x1e3c;" horiz-adv-x="1025" 
d="M1000 245v-245h-859v1365h290v-1120h569zM194 -390l230 274h190l230 -274h-208l-112 151h-10l-112 -151h-208z" />
    <glyph glyph-name="Ldotbelow" unicode="&#x1e36;" horiz-adv-x="1025" 
d="M401 -259c0 69 53 122 119 122c67 0 120 -53 120 -122c0 -67 -53 -120 -120 -120c-66 0 -119 53 -119 120zM1000 245v-245h-859v1365h290v-1120h569z" />
    <glyph glyph-name="Ldotbelowmacron" unicode="&#x1e38;" horiz-adv-x="1025" 
d="M401 -259c0 69 53 122 119 122c67 0 120 -53 120 -122c0 -67 -53 -120 -120 -120c-66 0 -119 53 -119 120zM1000 245v-245h-859v1365h290v-1120h569zM578 1509h-586v136h586v-136z" />
    <glyph glyph-name="Llinebelow" unicode="&#x1e3a;" horiz-adv-x="1025" 
d="M814 -359h-590v157h590v-157zM1000 245v-245h-859v1365h290v-1120h569z" />
    <glyph glyph-name="Lcommaaccent" unicode="&#x13b;" horiz-adv-x="1025" 
d="M522 -489h-189l85 335h218zM1000 245v-245h-859v1365h290v-1120h569z" />
    <glyph glyph-name="Lcaron" unicode="&#x13d;" horiz-adv-x="1025" 
d="M634 1436h229l-50 -488h-179v488zM1000 245v-245h-859v1365h290v-1120h569z" />
    <glyph glyph-name="Lslash" unicode="&#x141;" horiz-adv-x="1047" 
d="M1022 0h-858v510l-119 -68v242l119 68v613h289v-451l309 178v-245l-309 -176v-426h569v-245z" />
    <glyph glyph-name="M" unicode="M" horiz-adv-x="1640" 
d="M402 0h-258v1365h296l377 -846h9l377 846h294v-1365h-261v884h-12l-314 -702h-181l-315 702h-12v-884z" />
    <glyph glyph-name="Macute" unicode="&#x1e3e;" horiz-adv-x="1640" 
d="M906 1504h-196l208 294h243zM402 0h-258v1365h296l377 -846h9l377 846h294v-1365h-261v884h-12l-314 -702h-181l-315 702h-12v-884z" />
    <glyph glyph-name="Mdotaccent" unicode="&#x1e40;" horiz-adv-x="1640" 
d="M680 1650c0 77 63 137 140 137s140 -60 140 -137s-63 -136 -140 -136s-140 59 -140 136zM402 0h-258v1365h296l377 -846h9l377 846h294v-1365h-261v884h-12l-314 -702h-181l-315 702h-12v-884z" />
    <glyph glyph-name="Mdotbelow" unicode="&#x1e42;" horiz-adv-x="1640" 
d="M699 -259c0 69 53 122 119 122c67 0 120 -53 120 -122c0 -67 -53 -120 -120 -120c-66 0 -119 53 -119 120zM402 0h-258v1365h296l377 -846h9l377 846h294v-1365h-261v884h-12l-314 -702h-181l-315 702h-12v-884z" />
    <glyph glyph-name="N" unicode="N" horiz-adv-x="1385" 
d="M410 0h-269v1365h237l587 -876h10v876h269v-1365h-236l-588 882h-10v-882z" />
    <glyph glyph-name="Ngrave" unicode="&#x1f8;" horiz-adv-x="1385" 
d="M802 1504h-196l-255 294h243zM410 0h-269v1365h237l587 -876h10v876h269v-1365h-236l-588 882h-10v-882z" />
    <glyph glyph-name="Nacute" unicode="&#x143;" horiz-adv-x="1385" 
d="M778 1504h-196l208 294h243zM410 0h-269v1365h237l587 -876h10v876h269v-1365h-236l-588 882h-10v-882z" />
    <glyph glyph-name="Ntilde" unicode="&#xd1;" horiz-adv-x="1385" 
d="M805 1475c-130 0 -161 111 -223 111c-42 0 -59 -48 -61 -89h-141c0 107 63 219 194 219c129 0 170 -111 231 -111c41 0 59 50 61 95h141c0 -118 -76 -225 -202 -225zM410 0h-269v1365h237l587 -876h10v876h269v-1365h-236l-588 882h-10v-882z" />
    <glyph glyph-name="Ndotbelow" unicode="&#x1e46;" horiz-adv-x="1385" 
d="M574 -259c0 69 53 122 119 122c67 0 120 -53 120 -122c0 -67 -53 -120 -120 -120c-66 0 -119 53 -119 120zM410 0h-269v1365h237l587 -876h10v876h269v-1365h-236l-588 882h-10v-882z" />
    <glyph glyph-name="Ndotaccent" unicode="&#x1e44;" horiz-adv-x="1385" 
d="M552 1650c0 77 63 137 140 137s140 -60 140 -137s-63 -136 -140 -136s-140 59 -140 136zM410 0h-269v1365h237l587 -876h10v876h269v-1365h-236l-588 882h-10v-882z" />
    <glyph glyph-name="Ncaron" unicode="&#x147;" horiz-adv-x="1385" 
d="M366 1779h208l113 -147h10l113 147h208l-232 -276h-188zM410 0h-269v1365h237l587 -876h10v876h269v-1365h-236l-588 882h-10v-882z" />
    <glyph glyph-name="Ncircumflexbelow" unicode="&#x1e4a;" horiz-adv-x="1385" 
d="M410 0h-269v1365h237l587 -876h10v876h269v-1365h-236l-588 882h-10v-882zM367 -390l230 274h190l230 -274h-208l-112 151h-10l-112 -151h-208z" />
    <glyph glyph-name="Nlinebelow" unicode="&#x1e48;" horiz-adv-x="1385" 
d="M987 -359h-590v157h590v-157zM410 0h-269v1365h237l587 -876h10v876h269v-1365h-236l-588 882h-10v-882z" />
    <glyph glyph-name="Ncommaaccent" unicode="&#x145;" horiz-adv-x="1385" 
d="M695 -489h-189l85 335h218zM410 0h-269v1365h237l587 -876h10v876h269v-1365h-236l-588 882h-10v-882z" />
    <glyph glyph-name="O" unicode="O" horiz-adv-x="1358" 
d="M381 766v-174c0 -255 124 -379 298 -379c175 0 298 124 298 379v174c0 254 -123 386 -298 386c-174 0 -298 -132 -298 -386zM86 593v170c0 388 223 628 594 628c372 0 592 -242 592 -628v-170c0 -385 -222 -619 -594 -619c-371 0 -592 234 -592 619z" />
    <glyph glyph-name="Odieresis" unicode="&#xd6;" horiz-adv-x="1358" 
d="M500 1473c-60 0 -106 48 -106 110c0 63 46 112 106 112c63 0 112 -49 112 -112c0 -62 -49 -110 -112 -110zM854 1473c-61 0 -108 48 -108 110c0 63 47 112 108 112c62 0 110 -49 110 -112c0 -62 -48 -110 -110 -110zM381 766v-174c0 -255 124 -379 298 -379
c175 0 298 124 298 379v174c0 254 -123 386 -298 386c-174 0 -298 -132 -298 -386zM86 593v170c0 388 223 628 594 628c372 0 592 -242 592 -628v-170c0 -385 -222 -619 -594 -619c-371 0 -592 234 -592 619z" />
    <glyph glyph-name="Oslash" unicode="&#xd8;" horiz-adv-x="1357" 
d="M677 -26c-153 0 -280 41 -376 119l-99 -122l-126 103l111 137c-66 100 -101 229 -101 382v170c0 388 222 628 593 628c150 0 277 -41 372 -117l88 109l130 -96l-105 -129c70 -103 107 -237 107 -395v-170c0 -385 -222 -619 -594 -619zM373 589c0 -47 6 -94 18 -129
l494 611c-53 57 -125 86 -208 86c-178 0 -304 -133 -304 -391v-177zM677 205c179 0 305 126 305 384v177c0 53 -7 104 -21 142l-497 -614c53 -60 128 -89 213 -89z" />
    <glyph glyph-name="Otilde" unicode="&#xd5;" horiz-adv-x="1358" 
d="M381 766v-174c0 -255 124 -379 298 -379c175 0 298 124 298 379v174c0 254 -123 386 -298 386c-174 0 -298 -132 -298 -386zM86 593v170c0 388 223 628 594 628c372 0 592 -242 592 -628v-170c0 -385 -222 -619 -594 -619c-371 0 -592 234 -592 619zM791 1475
c-130 0 -161 111 -223 111c-42 0 -59 -48 -61 -89h-141c0 107 63 219 194 219c129 0 170 -111 231 -111c41 0 59 50 61 95h141c0 -118 -76 -225 -202 -225z" />
    <glyph glyph-name="Oacute" unicode="&#xd3;" horiz-adv-x="1358" 
d="M764 1504h-196l208 294h243zM381 766v-174c0 -255 124 -379 298 -379c175 0 298 124 298 379v174c0 254 -123 386 -298 386c-174 0 -298 -132 -298 -386zM86 593v170c0 388 223 628 594 628c372 0 592 -242 592 -628v-170c0 -385 -222 -619 -594 -619
c-371 0 -592 234 -592 619z" />
    <glyph glyph-name="Ocircumflex" unicode="&#xd4;" horiz-adv-x="1358" 
d="M352 1504l232 276h188l232 -276h-208l-113 147h-10l-113 -147h-208zM381 766v-174c0 -255 124 -379 298 -379c175 0 298 124 298 379v174c0 254 -123 386 -298 386c-174 0 -298 -132 -298 -386zM86 593v170c0 388 223 628 594 628c372 0 592 -242 592 -628v-170
c0 -385 -222 -619 -594 -619c-371 0 -592 234 -592 619z" />
    <glyph glyph-name="Ograve" unicode="&#xd2;" horiz-adv-x="1358" 
d="M788 1504h-196l-255 294h243zM381 766v-174c0 -255 124 -379 298 -379c175 0 298 124 298 379v174c0 254 -123 386 -298 386c-174 0 -298 -132 -298 -386zM86 593v170c0 388 223 628 594 628c372 0 592 -242 592 -628v-170c0 -385 -222 -619 -594 -619
c-371 0 -592 234 -592 619z" />
    <glyph glyph-name="Ocircumflexhookabove" unicode="&#x1ed4;" horiz-adv-x="1358" 
d="M317 1504l269 228h184l269 -228h-224l-132 111h-10l-132 -111h-224zM841 1837v94c20 7 52 12 86 12c100 0 180 -45 180 -146c0 -75 -57 -127 -114 -151l-71 82c36 14 54 31 54 57c0 37 -38 59 -76 59c-27 0 -42 -2 -59 -7zM381 766v-174c0 -255 124 -379 298 -379
c175 0 298 124 298 379v174c0 254 -123 386 -298 386c-174 0 -298 -132 -298 -386zM86 593v170c0 388 223 628 594 628c372 0 592 -242 592 -628v-170c0 -385 -222 -619 -594 -619c-371 0 -592 234 -592 619z" />
    <glyph glyph-name="Ocircumflexgrave" unicode="&#x1ed2;" horiz-adv-x="1358" 
d="M317 1504l269 228h184l269 -228h-224l-132 111h-10l-132 -111h-224zM1191 1689h-175l-255 240h209zM381 766v-174c0 -255 124 -379 298 -379c175 0 298 124 298 379v174c0 254 -123 386 -298 386c-174 0 -298 -132 -298 -386zM86 593v170c0 388 223 628 594 628
c372 0 592 -242 592 -628v-170c0 -385 -222 -619 -594 -619c-371 0 -592 234 -592 619z" />
    <glyph glyph-name="Odotbelow" unicode="&#x1ecc;" horiz-adv-x="1358" 
d="M558 -259c0 69 53 122 119 122c67 0 120 -53 120 -122c0 -67 -53 -120 -120 -120c-66 0 -119 53 -119 120zM381 766v-174c0 -255 124 -379 298 -379c175 0 298 124 298 379v174c0 254 -123 386 -298 386c-174 0 -298 -132 -298 -386zM86 593v170c0 388 223 628 594 628
c372 0 592 -242 592 -628v-170c0 -385 -222 -619 -594 -619c-371 0 -592 234 -592 619z" />
    <glyph glyph-name="Odblgrave" unicode="&#x20c;" horiz-adv-x="1358" 
d="M614 1504h-190l-285 259h238zM982 1504h-190l-285 259h238zM381 766v-174c0 -255 124 -379 298 -379c175 0 298 124 298 379v174c0 254 -123 386 -298 386c-174 0 -298 -132 -298 -386zM86 593v170c0 388 223 628 594 628c372 0 592 -242 592 -628v-170
c0 -385 -222 -619 -594 -619c-371 0 -592 234 -592 619z" />
    <glyph glyph-name="Otildeacute" unicode="&#x1e4c;" horiz-adv-x="1358" 
d="M381 766v-174c0 -255 124 -379 298 -379c175 0 298 124 298 379v174c0 254 -123 386 -298 386c-174 0 -298 -132 -298 -386zM86 593v170c0 388 223 628 594 628c372 0 592 -242 592 -628v-170c0 -385 -222 -619 -594 -619c-371 0 -592 234 -592 619zM573 1745l210 193
h230l-255 -193h-185zM791 1475c-130 0 -161 111 -223 111c-42 0 -59 -48 -61 -89h-141c0 107 63 219 194 219c129 0 170 -111 231 -111c41 0 59 50 61 95h141c0 -118 -76 -225 -202 -225z" />
    <glyph glyph-name="Omacronacute" unicode="&#x1e52;" horiz-adv-x="1358" 
d="M569 1745l210 193h240l-255 -193h-195zM971 1509h-586v136h586v-136zM381 766v-174c0 -255 124 -379 298 -379c175 0 298 124 298 379v174c0 254 -123 386 -298 386c-174 0 -298 -132 -298 -386zM86 593v170c0 388 223 628 594 628c372 0 592 -242 592 -628v-170
c0 -385 -222 -619 -594 -619c-371 0 -592 234 -592 619z" />
    <glyph glyph-name="Ocircumflextilde" unicode="&#x1ed6;" horiz-adv-x="1358" 
d="M342 1504l254 197h164l254 -197h-209l-125 103h-4l-125 -103h-209zM536 1768h-128c0 95 64 174 163 174s139 -80 194 -80c37 0 55 21 57 64h129c0 -100 -75 -185 -179 -185c-98 0 -133 82 -185 82c-35 0 -50 -28 -51 -55zM381 766v-174c0 -255 124 -379 298 -379
c175 0 298 124 298 379v174c0 254 -123 386 -298 386c-174 0 -298 -132 -298 -386zM86 593v170c0 388 223 628 594 628c372 0 592 -242 592 -628v-170c0 -385 -222 -619 -594 -619c-371 0 -592 234 -592 619z" />
    <glyph glyph-name="Odotaccentmacron" unicode="&#x230;" horiz-adv-x="1358" 
d="M552 1578c0 70 56 124 126 124s126 -54 126 -124c0 -69 -56 -122 -126 -122s-126 53 -126 122zM971 1787h-586v136h586v-136zM381 766v-174c0 -255 124 -379 298 -379c175 0 298 124 298 379v174c0 254 -123 386 -298 386c-174 0 -298 -132 -298 -386zM86 593v170
c0 388 223 628 594 628c372 0 592 -242 592 -628v-170c0 -385 -222 -619 -594 -619c-371 0 -592 234 -592 619z" />
    <glyph glyph-name="Omacrongrave" unicode="&#x1e50;" horiz-adv-x="1358" 
d="M787 1745h-195l-255 193h240zM971 1509h-586v136h586v-136zM381 766v-174c0 -255 124 -379 298 -379c175 0 298 124 298 379v174c0 254 -123 386 -298 386c-174 0 -298 -132 -298 -386zM86 593v170c0 388 223 628 594 628c372 0 592 -242 592 -628v-170
c0 -385 -222 -619 -594 -619c-371 0 -592 234 -592 619z" />
    <glyph glyph-name="Ocaron" unicode="&#x1d1;" horiz-adv-x="1358" 
d="M352 1779h208l113 -147h10l113 147h208l-232 -276h-188zM381 766v-174c0 -255 124 -379 298 -379c175 0 298 124 298 379v174c0 254 -123 386 -298 386c-174 0 -298 -132 -298 -386zM86 593v170c0 388 223 628 594 628c372 0 592 -242 592 -628v-170
c0 -385 -222 -619 -594 -619c-371 0 -592 234 -592 619z" />
    <glyph glyph-name="Oslashacute" unicode="&#x1fe;" horiz-adv-x="1357" 
d="M677 -26c-153 0 -280 41 -376 119l-99 -122l-126 103l111 137c-66 100 -101 229 -101 382v170c0 388 222 628 593 628c150 0 277 -41 372 -117l88 109l130 -96l-105 -129c70 -103 107 -237 107 -395v-170c0 -385 -222 -619 -594 -619zM373 589c0 -47 6 -94 18 -129
l494 611c-53 57 -125 86 -208 86c-178 0 -304 -133 -304 -391v-177zM677 205c179 0 305 126 305 384v177c0 53 -7 104 -21 142l-497 -614c53 -60 128 -89 213 -89zM764 1504h-196l208 294h243z" />
    <glyph glyph-name="Ohungarumlaut" unicode="&#x150;" horiz-adv-x="1358" 
d="M374 1504l237 259h239l-285 -259h-191zM742 1504l237 259h238l-284 -259h-191zM381 766v-174c0 -255 124 -379 298 -379c175 0 298 124 298 379v174c0 254 -123 386 -298 386c-174 0 -298 -132 -298 -386zM86 593v170c0 388 223 628 594 628c372 0 592 -242 592 -628
v-170c0 -385 -222 -619 -594 -619c-371 0 -592 234 -592 619z" />
    <glyph glyph-name="Obreve" unicode="&#x14e;" horiz-adv-x="1358" 
d="M381 766v-174c0 -255 124 -379 298 -379c175 0 298 124 298 379v174c0 254 -123 386 -298 386c-174 0 -298 -132 -298 -386zM86 593v170c0 388 223 628 594 628c372 0 592 -242 592 -628v-170c0 -385 -222 -619 -594 -619c-371 0 -592 234 -592 619zM373 1759h151
c0 -80 48 -140 154 -140s154 60 154 140h148c0 -153 -102 -280 -302 -280s-305 126 -305 280z" />
    <glyph glyph-name="Oinvertedbreve" unicode="&#x20e;" horiz-adv-x="1358" 
d="M678 1643c-106 0 -154 -59 -154 -139h-151c0 153 105 279 305 279s302 -126 302 -279h-148c0 80 -48 139 -154 139zM381 766v-174c0 -255 124 -379 298 -379c175 0 298 124 298 379v174c0 254 -123 386 -298 386c-174 0 -298 -132 -298 -386zM86 593v170
c0 388 223 628 594 628c372 0 592 -242 592 -628v-170c0 -385 -222 -619 -594 -619c-371 0 -592 234 -592 619z" />
    <glyph glyph-name="Ohookabove" unicode="&#x1ece;" horiz-adv-x="1358" 
d="M525 1661v116c19 8 62 19 112 19c133 0 221 -63 221 -175c0 -105 -87 -153 -147 -180l-84 95c38 12 81 37 81 75c0 46 -47 61 -95 61c-34 0 -66 -5 -88 -11zM381 766v-174c0 -255 124 -379 298 -379c175 0 298 124 298 379v174c0 254 -123 386 -298 386
c-174 0 -298 -132 -298 -386zM86 593v170c0 388 223 628 594 628c372 0 592 -242 592 -628v-170c0 -385 -222 -619 -594 -619c-371 0 -592 234 -592 619z" />
    <glyph glyph-name="Odieresismacron" unicode="&#x22a;" horiz-adv-x="1358" 
d="M381 766v-174c0 -255 124 -379 298 -379c175 0 298 124 298 379v174c0 254 -123 386 -298 386c-174 0 -298 -132 -298 -386zM86 593v170c0 388 223 628 594 628c372 0 592 -242 592 -628v-170c0 -385 -222 -619 -594 -619c-371 0 -592 234 -592 619zM499 1473
c-60 0 -106 48 -106 110c0 63 46 112 106 112c63 0 112 -49 112 -112c0 -62 -49 -110 -112 -110zM853 1473c-61 0 -108 48 -108 110c0 63 47 112 108 112c62 0 110 -49 110 -112c0 -62 -48 -110 -110 -110zM971 1787h-586v136h586v-136z" />
    <glyph glyph-name="Otildemacron" unicode="&#x22c;" horiz-adv-x="1358" 
d="M791 1475c-130 0 -161 111 -223 111c-42 0 -59 -48 -61 -89h-141c0 107 63 219 194 219c129 0 170 -111 231 -111c41 0 59 50 61 95h141c0 -118 -76 -225 -202 -225zM971 1787h-586v136h586v-136zM381 766v-174c0 -255 124 -379 298 -379c175 0 298 124 298 379v174
c0 254 -123 386 -298 386c-174 0 -298 -132 -298 -386zM86 593v170c0 388 223 628 594 628c372 0 592 -242 592 -628v-170c0 -385 -222 -619 -594 -619c-371 0 -592 234 -592 619z" />
    <glyph glyph-name="Odotaccent" unicode="&#x22e;" horiz-adv-x="1358" 
d="M538 1650c0 77 63 137 140 137s140 -60 140 -137s-63 -136 -140 -136s-140 59 -140 136zM381 766v-174c0 -255 124 -379 298 -379c175 0 298 124 298 379v174c0 254 -123 386 -298 386c-174 0 -298 -132 -298 -386zM86 593v170c0 388 223 628 594 628
c372 0 592 -242 592 -628v-170c0 -385 -222 -619 -594 -619c-371 0 -592 234 -592 619z" />
    <glyph glyph-name="Ocircumflexdotbelow" unicode="&#x1ed8;" horiz-adv-x="1358" 
d="M558 -259c0 69 53 122 119 122c67 0 120 -53 120 -122c0 -67 -53 -120 -120 -120c-66 0 -119 53 -119 120zM352 1504l232 276h188l232 -276h-208l-113 147h-10l-113 -147h-208zM381 766v-174c0 -255 124 -379 298 -379c175 0 298 124 298 379v174
c0 254 -123 386 -298 386c-174 0 -298 -132 -298 -386zM86 593v170c0 388 223 628 594 628c372 0 592 -242 592 -628v-170c0 -385 -222 -619 -594 -619c-371 0 -592 234 -592 619z" />
    <glyph glyph-name="Ocircumflexacute" unicode="&#x1ed0;" horiz-adv-x="1358" 
d="M317 1504l269 228h184l269 -228h-224l-132 111h-10l-132 -111h-224zM915 1689l212 240h209l-246 -240h-175zM381 766v-174c0 -255 124 -379 298 -379c175 0 298 124 298 379v174c0 254 -123 386 -298 386c-174 0 -298 -132 -298 -386zM86 593v170c0 388 223 628 594 628
c372 0 592 -242 592 -628v-170c0 -385 -222 -619 -594 -619c-371 0 -592 234 -592 619z" />
    <glyph glyph-name="Otildedieresis" unicode="&#x1e4e;" horiz-adv-x="1358" 
d="M499 1709c-60 0 -106 48 -106 110c0 63 46 112 106 112c63 0 112 -49 112 -112c0 -62 -49 -110 -112 -110zM853 1709c-61 0 -108 48 -108 110c0 63 47 112 108 112c62 0 110 -49 110 -112c0 -62 -48 -110 -110 -110zM791 1439c-130 0 -161 111 -223 111
c-42 0 -59 -48 -61 -89h-141c0 107 63 219 194 219c129 0 170 -111 231 -111c41 0 59 50 61 95h141c0 -118 -76 -225 -202 -225zM381 766v-174c0 -255 124 -379 298 -379c175 0 298 124 298 379v174c0 254 -123 386 -298 386c-174 0 -298 -132 -298 -386zM86 593v170
c0 388 223 628 594 628c372 0 592 -242 592 -628v-170c0 -385 -222 -619 -594 -619c-371 0 -592 234 -592 619z" />
    <glyph glyph-name="Omacron" unicode="&#x14c;" horiz-adv-x="1358" 
d="M381 766v-174c0 -255 124 -379 298 -379c175 0 298 124 298 379v174c0 254 -123 386 -298 386c-174 0 -298 -132 -298 -386zM86 593v170c0 388 223 628 594 628c372 0 592 -242 592 -628v-170c0 -385 -222 -619 -594 -619c-371 0 -592 234 -592 619zM972 1509h-586v136
h586v-136z" />
    <glyph glyph-name="Oogonek" unicode="&#x1ea;" horiz-adv-x="1358" 
d="M381 766v-174c0 -255 123 -379 298 -379c174 0 298 124 298 379v174c0 254 -124 386 -298 386c-175 0 -298 -132 -298 -386zM645 -23c-327 0 -559 242 -559 616v170c0 388 223 628 594 628c372 0 592 -242 592 -628v-170c0 -263 -104 -394 -194 -491
c-76 -83 -151 -136 -151 -220c0 -71 53 -99 120 -99c22 0 54 3 74 9l-1 -161c-29 -8 -74 -21 -144 -21c-148 2 -247 75 -248 201c0 73 32 136 92 190l-6 13c-56 -30 -123 -37 -169 -37z" />
    <glyph glyph-name="Oogonekmacron" unicode="&#x1ec;" horiz-adv-x="1357" 
d="M381 766v-174c0 -255 123 -379 298 -379c174 0 298 124 298 379v174c0 254 -124 386 -298 386c-175 0 -298 -132 -298 -386zM645 -23c-327 0 -559 242 -559 616v170c0 388 223 628 594 628c372 0 592 -242 592 -628v-170c0 -263 -104 -394 -194 -491
c-76 -83 -151 -136 -151 -220c0 -71 53 -99 120 -99c22 0 54 3 74 9l-1 -161c-29 -8 -74 -21 -144 -21c-148 2 -247 75 -248 201c0 73 32 136 92 190l-6 13c-56 -30 -123 -37 -169 -37zM971 1509h-586v136h586v-136z" />
    <glyph glyph-name="Ohorn" unicode="&#x1a0;" horiz-adv-x="1386" 
d="M1271 593c0 -385 -222 -619 -594 -619c-371 0 -591 234 -591 619v170c0 388 222 628 593 628c185 0 285 -72 412 -72c115 0 134 60 134 137v123h223v-154c0 -174 -98 -289 -268 -289l-3 -3c52 -84 94 -223 94 -370v-170zM380 766v-175c0 -255 124 -379 298 -379
c175 0 299 124 299 379v175c0 254 -124 386 -299 386c-174 0 -298 -132 -298 -386z" />
    <glyph glyph-name="Ohorndotbelow" unicode="&#x1ee2;" horiz-adv-x="1386" 
d="M560 -259c0 69 53 122 119 122c67 0 120 -53 120 -122c0 -67 -53 -120 -120 -120c-66 0 -119 53 -119 120zM1271 593c0 -385 -222 -619 -594 -619c-371 0 -591 234 -591 619v170c0 388 222 628 593 628c185 0 285 -72 412 -72c115 0 134 60 134 137v123h223v-154
c0 -174 -98 -289 -268 -289l-3 -3c52 -84 94 -223 94 -370v-170zM380 766v-175c0 -255 124 -379 298 -379c175 0 299 124 299 379v175c0 254 -124 386 -299 386c-174 0 -298 -132 -298 -386z" />
    <glyph glyph-name="Ohornhookabove" unicode="&#x1ede;" horiz-adv-x="1386" 
d="M525 1661v116c19 8 62 19 112 19c133 0 221 -63 221 -175c0 -105 -87 -153 -147 -180l-84 95c38 12 81 37 81 75c0 46 -47 61 -95 61c-34 0 -66 -5 -88 -11zM1271 593c0 -385 -222 -619 -594 -619c-371 0 -591 234 -591 619v170c0 388 222 628 593 628
c185 0 285 -72 412 -72c115 0 134 60 134 137v123h223v-154c0 -174 -98 -289 -268 -289l-3 -3c52 -84 94 -223 94 -370v-170zM380 766v-175c0 -255 124 -379 298 -379c175 0 299 124 299 379v175c0 254 -124 386 -299 386c-174 0 -298 -132 -298 -386z" />
    <glyph glyph-name="Ohorntilde" unicode="&#x1ee0;" horiz-adv-x="1386" 
d="M1271 593c0 -385 -222 -619 -594 -619c-371 0 -591 234 -591 619v170c0 388 222 628 593 628c185 0 285 -72 412 -72c115 0 134 60 134 137v123h223v-154c0 -174 -98 -289 -268 -289l-3 -3c52 -84 94 -223 94 -370v-170zM380 766v-175c0 -255 124 -379 298 -379
c175 0 299 124 299 379v175c0 254 -124 386 -299 386c-174 0 -298 -132 -298 -386zM791 1475c-130 0 -161 111 -223 111c-42 0 -59 -48 -61 -89h-141c0 107 63 219 194 219c129 0 170 -111 231 -111c41 0 59 50 61 95h141c0 -118 -76 -225 -202 -225z" />
    <glyph glyph-name="Ohorngrave" unicode="&#x1edc;" horiz-adv-x="1386" 
d="M788 1504h-196l-255 294h243zM1271 593c0 -385 -222 -619 -594 -619c-371 0 -591 234 -591 619v170c0 388 222 628 593 628c185 0 285 -72 412 -72c115 0 134 60 134 137v123h223v-154c0 -174 -98 -289 -268 -289l-3 -3c52 -84 94 -223 94 -370v-170zM380 766v-175
c0 -255 124 -379 298 -379c175 0 299 124 299 379v175c0 254 -124 386 -299 386c-174 0 -298 -132 -298 -386z" />
    <glyph glyph-name="Ohornacute" unicode="&#x1eda;" horiz-adv-x="1386" 
d="M764 1504h-196l208 294h243zM1271 593c0 -385 -222 -619 -594 -619c-371 0 -591 234 -591 619v170c0 388 222 628 593 628c185 0 285 -72 412 -72c115 0 134 60 134 137v123h223v-154c0 -174 -98 -289 -268 -289l-3 -3c52 -84 94 -223 94 -370v-170zM380 766v-175
c0 -255 124 -379 298 -379c175 0 299 124 299 379v175c0 254 -124 386 -299 386c-174 0 -298 -132 -298 -386z" />
    <glyph glyph-name="P" unicode="P" horiz-adv-x="1207" 
d="M141 1365h556c300 0 467 -204 467 -461c0 -260 -169 -457 -470 -457h-264v-447h-289v1365zM429 1138v-467h153c179 0 288 56 288 233c0 150 -88 234 -233 234h-208z" />
    <glyph glyph-name="Pdotaccent" unicode="&#x1e56;" horiz-adv-x="1207" 
d="M141 1365h556c300 0 467 -204 467 -461c0 -260 -169 -457 -470 -457h-264v-447h-289v1365zM429 1138v-467h153c179 0 288 56 288 233c0 150 -88 234 -233 234h-208zM448 1650c0 77 63 137 140 137s140 -60 140 -137s-63 -136 -140 -136s-140 59 -140 136z" />
    <glyph glyph-name="Pacute" unicode="&#x1e54;" horiz-adv-x="1207" 
d="M674 1504h-196l208 294h243zM141 1365h556c300 0 467 -204 467 -461c0 -260 -169 -457 -470 -457h-264v-447h-289v1365zM429 1138v-467h153c179 0 288 56 288 233c0 150 -88 234 -233 234h-208z" />
    <glyph glyph-name="Q" unicode="Q" horiz-adv-x="1361" 
d="M89 599v165c0 386 230 627 592 627c363 0 593 -243 593 -627v-165c0 -208 -67 -372 -186 -480l170 -251h-283l-95 139c-59 -21 -127 -33 -199 -33c-362 0 -592 241 -592 625zM373 766v-172c0 -265 127 -395 300 -399c28 0 53 5 76 14l-148 215h261l63 -85
c40 61 65 146 65 255v172c0 257 -131 387 -309 387c-177 0 -308 -130 -308 -387z" />
    <glyph glyph-name="R" unicode="R" horiz-adv-x="1270" 
d="M697 1365c328 0 486 -190 486 -436c0 -225 -147 -344 -247 -384l274 -545h-322l-237 502h-225v-502h-285v1365h556zM426 715h225c144 0 234 72 234 209c0 145 -98 218 -230 218h-229v-427z" />
    <glyph glyph-name="Rcaron" unicode="&#x158;" horiz-adv-x="1270" 
d="M697 1365c328 0 486 -190 486 -436c0 -225 -147 -344 -247 -384l274 -545h-322l-237 502h-225v-502h-285v1365h556zM426 715h225c144 0 234 72 234 209c0 145 -98 218 -230 218h-229v-427zM289 1779h208l113 -147h10l113 147h208l-232 -276h-188z" />
    <glyph glyph-name="Rlinebelow" unicode="&#x1e5e;" horiz-adv-x="1270" 
d="M697 1365c328 0 486 -190 486 -436c0 -225 -147 -344 -247 -384l274 -545h-322l-237 502h-225v-502h-285v1365h556zM426 715h225c144 0 234 72 234 209c0 145 -98 218 -230 218h-229v-427zM910 -359h-590v157h590v-157z" />
    <glyph glyph-name="Rdotbelowmacron" unicode="&#x1e5c;" horiz-adv-x="1270" 
d="M497 -259c0 69 53 122 119 122c67 0 120 -53 120 -122c0 -67 -53 -120 -120 -120c-66 0 -119 53 -119 120zM697 1365c328 0 486 -190 486 -436c0 -225 -147 -344 -247 -384l274 -545h-322l-237 502h-225v-502h-285v1365h556zM426 715h225c144 0 234 72 234 209
c0 145 -98 218 -230 218h-229v-427zM908 1509h-586v136h586v-136z" />
    <glyph glyph-name="Rdblgrave" unicode="&#x210;" horiz-adv-x="1270" 
d="M551 1504h-190l-285 259h238zM919 1504h-190l-285 259h238zM697 1365c328 0 486 -190 486 -436c0 -225 -147 -344 -247 -384l274 -545h-322l-237 502h-225v-502h-285v1365h556zM426 715h225c144 0 234 72 234 209c0 145 -98 218 -230 218h-229v-427z" />
    <glyph glyph-name="Rinvertedbreve" unicode="&#x212;" horiz-adv-x="1270" 
d="M697 1365c328 0 486 -190 486 -436c0 -225 -147 -344 -247 -384l274 -545h-322l-237 502h-225v-502h-285v1365h556zM426 715h225c144 0 234 72 234 209c0 145 -98 218 -230 218h-229v-427zM615 1643c-106 0 -154 -59 -154 -139h-151c0 153 105 279 305 279
s302 -126 302 -279h-148c0 80 -48 139 -154 139z" />
    <glyph glyph-name="Racute" unicode="&#x154;" horiz-adv-x="1270" 
d="M701 1504h-196l208 294h243zM697 1365c328 0 486 -190 486 -436c0 -225 -147 -344 -247 -384l274 -545h-322l-237 502h-225v-502h-285v1365h556zM426 715h225c144 0 234 72 234 209c0 145 -98 218 -230 218h-229v-427z" />
    <glyph glyph-name="Rdotbelow" unicode="&#x1e5a;" horiz-adv-x="1270" 
d="M497 -259c0 69 53 122 119 122c67 0 120 -53 120 -122c0 -67 -53 -120 -120 -120c-66 0 -119 53 -119 120zM697 1365c328 0 486 -190 486 -436c0 -225 -147 -344 -247 -384l274 -545h-322l-237 502h-225v-502h-285v1365h556zM426 715h225c144 0 234 72 234 209
c0 145 -98 218 -230 218h-229v-427z" />
    <glyph glyph-name="Rdotaccent" unicode="&#x1e58;" horiz-adv-x="1270" 
d="M475 1650c0 77 63 137 140 137s140 -60 140 -137s-63 -136 -140 -136s-140 59 -140 136zM697 1365c328 0 486 -190 486 -436c0 -225 -147 -344 -247 -384l274 -545h-322l-237 502h-225v-502h-285v1365h556zM426 715h225c144 0 234 72 234 209c0 145 -98 218 -230 218
h-229v-427z" />
    <glyph glyph-name="Rcommaaccent" unicode="&#x156;" horiz-adv-x="1270" 
d="M697 1365c328 0 486 -190 486 -436c0 -225 -147 -344 -247 -384l274 -545h-322l-237 502h-225v-502h-285v1365h556zM426 715h225c144 0 234 72 234 209c0 145 -98 218 -230 218h-229v-427zM618 -489h-189l85 335h218z" />
    <glyph glyph-name="S" unicode="S" horiz-adv-x="1217" 
d="M59 392h278c8 -101 99 -191 272 -191c161 0 247 72 247 178c0 93 -70 138 -208 169l-205 47c-192 41 -352 149 -352 381c0 268 228 417 517 417c305 0 510 -168 513 -409h-270c-7 96 -86 185 -244 185c-140 0 -227 -66 -227 -171c0 -79 64 -132 186 -157l207 -46
c200 -43 369 -140 369 -388c0 -268 -209 -433 -547 -433c-402 0 -532 225 -536 418z" />
    <glyph glyph-name="Scaron" unicode="&#x160;" horiz-adv-x="1217" 
d="M59 392h278c8 -101 99 -191 272 -191c161 0 247 72 247 178c0 93 -70 138 -208 169l-205 47c-192 41 -352 149 -352 381c0 268 228 417 517 417c305 0 510 -168 513 -409h-270c-7 96 -86 185 -244 185c-140 0 -227 -66 -227 -171c0 -79 64 -132 186 -157l207 -46
c200 -43 369 -140 369 -388c0 -268 -209 -433 -547 -433c-402 0 -532 225 -536 418zM281 1779h208l113 -147h10l113 147h208l-232 -276h-188z" />
    <glyph glyph-name="Scedilla" unicode="&#x15e;" horiz-adv-x="1217" 
d="M607 -472c-68 -1 -122 8 -146 16v125c27 -8 75 -13 111 -13c52 0 109 11 109 60s-40 59 -124 59h-55v104l39 96c-360 19 -478 233 -482 417h278c8 -101 99 -191 272 -191c161 0 247 72 247 178c0 93 -70 138 -208 169l-205 47c-192 41 -352 149 -352 381
c0 268 228 417 517 417c305 0 510 -168 513 -409h-270c-7 96 -86 185 -244 185c-140 0 -227 -66 -227 -171c0 -79 64 -132 186 -157l207 -46c200 -43 369 -140 369 -388c0 -238 -166 -394 -438 -427l-37 -87c117 0 188 -62 188 -168c0 -136 -103 -194 -248 -197z" />
    <glyph glyph-name="Sdotaccent" unicode="&#x1e60;" horiz-adv-x="1217" 
d="M467 1650c0 77 63 137 140 137s140 -60 140 -137s-63 -136 -140 -136s-140 59 -140 136zM59 392h278c8 -101 99 -191 272 -191c161 0 247 72 247 178c0 93 -70 138 -208 169l-205 47c-192 41 -352 149 -352 381c0 268 228 417 517 417c305 0 510 -168 513 -409h-270
c-7 96 -86 185 -244 185c-140 0 -227 -66 -227 -171c0 -79 64 -132 186 -157l207 -46c200 -43 369 -140 369 -388c0 -268 -209 -433 -547 -433c-402 0 -532 225 -536 418z" />
    <glyph glyph-name="Sdotbelow" unicode="&#x1e62;" horiz-adv-x="1217" 
d="M477 -259c0 69 53 122 119 122c67 0 120 -53 120 -122c0 -67 -53 -120 -120 -120c-66 0 -119 53 -119 120zM59 392h278c8 -101 99 -191 272 -191c161 0 247 72 247 178c0 93 -70 138 -208 169l-205 47c-192 41 -352 149 -352 381c0 268 228 417 517 417
c305 0 510 -168 513 -409h-270c-7 96 -86 185 -244 185c-140 0 -227 -66 -227 -171c0 -79 64 -132 186 -157l207 -46c200 -43 369 -140 369 -388c0 -268 -209 -433 -547 -433c-402 0 -532 225 -536 418z" />
    <glyph glyph-name="Scommaaccent" unicode="&#x218;" horiz-adv-x="1217" 
d="M59 392h278c8 -101 99 -191 272 -191c161 0 247 72 247 178c0 93 -70 138 -208 169l-205 47c-192 41 -352 149 -352 381c0 268 228 417 517 417c305 0 510 -168 513 -409h-270c-7 96 -86 185 -244 185c-140 0 -227 -66 -227 -171c0 -79 64 -132 186 -157l207 -46
c200 -43 369 -140 369 -388c0 -268 -209 -433 -547 -433c-402 0 -532 225 -536 418zM598 -489h-189l85 335h218z" />
    <glyph glyph-name="Sdotbelowdotaccent" unicode="&#x1e68;" horiz-adv-x="1217" 
d="M477 -259c0 69 53 122 119 122c67 0 120 -53 120 -122c0 -67 -53 -120 -120 -120c-66 0 -119 53 -119 120zM59 392h278c8 -101 99 -191 272 -191c161 0 247 72 247 178c0 93 -70 138 -208 169l-205 47c-192 41 -352 149 -352 381c0 268 228 417 517 417
c305 0 510 -168 513 -409h-270c-7 96 -86 185 -244 185c-140 0 -227 -66 -227 -171c0 -79 64 -132 186 -157l207 -46c200 -43 369 -140 369 -388c0 -268 -209 -433 -547 -433c-402 0 -532 225 -536 418zM467 1650c0 77 63 137 140 137s140 -60 140 -137s-63 -136 -140 -136
s-140 59 -140 136z" />
    <glyph glyph-name="Scarondotaccent" unicode="&#x1e66;" horiz-adv-x="1217" 
d="M250 1703h226l129 -103h4l129 103h226l-274 -200h-166zM508 1840c0 53 45 98 99 98s99 -45 99 -98s-45 -99 -99 -99s-99 46 -99 99zM59 392h278c8 -101 99 -191 272 -191c161 0 247 72 247 178c0 93 -70 138 -208 169l-205 47c-192 41 -352 149 -352 381
c0 268 228 417 517 417c305 0 510 -168 513 -409h-270c-7 96 -86 185 -244 185c-140 0 -227 -66 -227 -171c0 -79 64 -132 186 -157l207 -46c200 -43 369 -140 369 -388c0 -268 -209 -433 -547 -433c-402 0 -532 225 -536 418z" />
    <glyph glyph-name="Scircumflex" unicode="&#x15c;" horiz-adv-x="1217" 
d="M59 392h278c8 -101 99 -191 272 -191c161 0 247 72 247 178c0 93 -70 138 -208 169l-205 47c-192 41 -352 149 -352 381c0 268 228 417 517 417c305 0 510 -168 513 -409h-270c-7 96 -86 185 -244 185c-140 0 -227 -66 -227 -171c0 -79 64 -132 186 -157l207 -46
c200 -43 369 -140 369 -388c0 -268 -209 -433 -547 -433c-402 0 -532 225 -536 418zM281 1504l232 276h188l232 -276h-208l-113 147h-10l-113 -147h-208z" />
    <glyph glyph-name="Sacutedotaccent" unicode="&#x1e64;" horiz-adv-x="1217" 
d="M801 1504h-196l208 294h243zM249 1668c0 77 63 137 140 137s140 -60 140 -137s-63 -136 -140 -136s-140 59 -140 136zM59 392h278c8 -101 99 -191 272 -191c161 0 247 72 247 178c0 93 -70 138 -208 169l-205 47c-192 41 -352 149 -352 381c0 268 228 417 517 417
c305 0 510 -168 513 -409h-270c-7 96 -86 185 -244 185c-140 0 -227 -66 -227 -171c0 -79 64 -132 186 -157l207 -46c200 -43 369 -140 369 -388c0 -268 -209 -433 -547 -433c-402 0 -532 225 -536 418z" />
    <glyph glyph-name="Sacute" unicode="&#x15a;" horiz-adv-x="1217" 
d="M693 1504h-196l208 294h243zM59 392h278c8 -101 99 -191 272 -191c161 0 247 72 247 178c0 93 -70 138 -208 169l-205 47c-192 41 -352 149 -352 381c0 268 228 417 517 417c305 0 510 -168 513 -409h-270c-7 96 -86 185 -244 185c-140 0 -227 -66 -227 -171
c0 -79 64 -132 186 -157l207 -46c200 -43 369 -140 369 -388c0 -268 -209 -433 -547 -433c-402 0 -532 225 -536 418z" />
    <glyph glyph-name="T" unicode="T" horiz-adv-x="1083" 
d="M686 0h-289v1125h-383v240h1055v-240h-383v-1125z" />
    <glyph glyph-name="Tcircumflexbelow" unicode="&#x1e70;" horiz-adv-x="1083" 
d="M686 0h-289v1125h-383v240h1055v-240h-383v-1125zM219 -390l230 274h190l230 -274h-208l-112 151h-10l-112 -151h-208z" />
    <glyph glyph-name="Tdotbelow" unicode="&#x1e6c;" horiz-adv-x="1083" 
d="M421 -259c0 69 53 122 119 122c67 0 120 -53 120 -122c0 -67 -53 -120 -120 -120c-66 0 -119 53 -119 120zM686 0h-289v1125h-383v240h1055v-240h-383v-1125z" />
    <glyph glyph-name="Tcommaaccent" unicode="&#x21a;" horiz-adv-x="1083" 
d="M544 -489h-189l85 335h218zM686 0h-289v1125h-383v240h1055v-240h-383v-1125z" />
    <glyph glyph-name="Tdotaccent" unicode="&#x1e6a;" horiz-adv-x="1083" 
d="M401 1650c0 77 63 137 140 137s140 -60 140 -137s-63 -136 -140 -136s-140 59 -140 136zM686 0h-289v1125h-383v240h1055v-240h-383v-1125z" />
    <glyph glyph-name="Tcedilla" unicode="&#x162;" horiz-adv-x="1083" 
d="M533 -482c-68 -2 -122 8 -146 15v126c27 -8 75 -14 111 -14c52 0 109 11 109 60c0 50 -44 59 -129 59h-55v105l50 131h-76v1125h-383v240h1055v-240h-383v-1125h-52l-45 -117c117 0 192 -63 192 -169c0 -135 -103 -193 -248 -196z" />
    <glyph glyph-name="Tlinebelow" unicode="&#x1e6e;" horiz-adv-x="1083" 
d="M834 -359h-590v157h590v-157zM686 0h-289v1125h-383v240h1055v-240h-383v-1125z" />
    <glyph glyph-name="Tcaron" unicode="&#x164;" horiz-adv-x="1083" 
d="M215 1779h208l113 -147h10l113 147h208l-232 -276h-188zM686 0h-289v1125h-383v240h1055v-240h-383v-1125z" />
    <glyph glyph-name="Tbar" unicode="&#x166;" horiz-adv-x="1084" 
d="M915 589h-229v-589h-288v589h-228v177h228v359h-383v240h1055v-240h-384v-359h229v-177z" />
    <glyph glyph-name="U" unicode="U" horiz-adv-x="1367" 
d="M414 1365v-862c0 -184 109 -284 270 -284c160 0 269 101 269 284v862h289v-902c0 -291 -211 -489 -558 -489c-348 0 -558 198 -558 489v902h288z" />
    <glyph glyph-name="Ugrave" unicode="&#xd9;" horiz-adv-x="1367" 
d="M793 1504h-196l-255 294h243zM414 1365v-862c0 -184 109 -284 270 -284c160 0 269 101 269 284v862h289v-902c0 -291 -211 -489 -558 -489c-348 0 -558 198 -558 489v902h288z" />
    <glyph glyph-name="Udblgrave" unicode="&#x214;" horiz-adv-x="1367" 
d="M619 1504h-190l-285 259h238zM987 1504h-190l-285 259h238zM414 1365v-862c0 -184 109 -284 270 -284c160 0 269 101 269 284v862h289v-902c0 -291 -211 -489 -558 -489c-348 0 -558 198 -558 489v902h288z" />
    <glyph glyph-name="Uacute" unicode="&#xda;" horiz-adv-x="1367" 
d="M769 1504h-196l208 294h243zM414 1365v-862c0 -184 109 -284 270 -284c160 0 269 101 269 284v862h289v-902c0 -291 -211 -489 -558 -489c-348 0 -558 198 -558 489v902h288z" />
    <glyph glyph-name="Uhungarumlaut" unicode="&#x170;" horiz-adv-x="1367" 
d="M414 1365v-862c0 -184 109 -284 270 -284c160 0 269 101 269 284v862h289v-902c0 -291 -211 -489 -558 -489c-348 0 -558 198 -558 489v902h288zM379 1504l237 259h239l-285 -259h-191zM747 1504l237 259h238l-284 -259h-191z" />
    <glyph glyph-name="Ucircumflex" unicode="&#xdb;" horiz-adv-x="1367" 
d="M357 1504l232 276h188l232 -276h-208l-113 147h-10l-113 -147h-208zM414 1365v-862c0 -184 109 -284 270 -284c160 0 269 101 269 284v862h289v-902c0 -291 -211 -489 -558 -489c-348 0 -558 198 -558 489v902h288z" />
    <glyph glyph-name="Ucaron" unicode="&#x1d3;" horiz-adv-x="1367" 
d="M357 1779h208l113 -147h10l113 147h208l-232 -276h-188zM414 1365v-862c0 -184 109 -284 270 -284c160 0 269 101 269 284v862h289v-902c0 -291 -211 -489 -558 -489c-348 0 -558 198 -558 489v902h288z" />
    <glyph glyph-name="Ucircumflexbelow" unicode="&#x1e76;" horiz-adv-x="1367" 
d="M414 1365v-862c0 -184 109 -284 270 -284c160 0 269 101 269 284v862h289v-902c0 -291 -211 -489 -558 -489c-348 0 -558 198 -558 489v902h288zM359 -390l230 274h190l230 -274h-208l-112 151h-10l-112 -151h-208z" />
    <glyph glyph-name="Udieresis" unicode="&#xdc;" horiz-adv-x="1367" 
d="M504 1473c-60 0 -106 48 -106 110c0 63 46 112 106 112c63 0 112 -49 112 -112c0 -62 -49 -110 -112 -110zM858 1473c-61 0 -108 48 -108 110c0 63 47 112 108 112c62 0 110 -49 110 -112c0 -62 -48 -110 -110 -110zM414 1365v-862c0 -184 109 -284 270 -284
c160 0 269 101 269 284v862h289v-902c0 -291 -211 -489 -558 -489c-348 0 -558 198 -558 489v902h288z" />
    <glyph glyph-name="Udieresisgrave" unicode="&#x1db;" horiz-adv-x="1367" 
d="M792 1745h-195l-255 193h240zM504 1473c-60 0 -106 48 -106 110c0 63 46 112 106 112c63 0 112 -49 112 -112c0 -62 -49 -110 -112 -110zM858 1473c-61 0 -108 48 -108 110c0 63 47 112 108 112c62 0 110 -49 110 -112c0 -62 -48 -110 -110 -110zM414 1365v-862
c0 -184 109 -284 270 -284c160 0 269 101 269 284v862h289v-902c0 -291 -211 -489 -558 -489c-348 0 -558 198 -558 489v902h288z" />
    <glyph glyph-name="Udieresisacute" unicode="&#x1d7;" horiz-adv-x="1367" 
d="M574 1745l210 193h240l-255 -193h-195zM504 1473c-60 0 -106 48 -106 110c0 63 46 112 106 112c63 0 112 -49 112 -112c0 -62 -49 -110 -112 -110zM858 1473c-61 0 -108 48 -108 110c0 63 47 112 108 112c62 0 110 -49 110 -112c0 -62 -48 -110 -110 -110zM414 1365v-862
c0 -184 109 -284 270 -284c160 0 269 101 269 284v862h289v-902c0 -291 -211 -489 -558 -489c-348 0 -558 198 -558 489v902h288z" />
    <glyph glyph-name="Udieresismacron" unicode="&#x1d5;" horiz-adv-x="1367" 
d="M414 1365v-862c0 -184 109 -284 270 -284c160 0 269 101 269 284v862h289v-902c0 -291 -211 -489 -558 -489c-348 0 -558 198 -558 489v902h288zM504 1473c-60 0 -106 48 -106 110c0 63 46 112 106 112c63 0 112 -49 112 -112c0 -62 -49 -110 -112 -110zM858 1473
c-61 0 -108 48 -108 110c0 63 47 112 108 112c62 0 110 -49 110 -112c0 -62 -48 -110 -110 -110zM976 1787h-586v136h586v-136z" />
    <glyph glyph-name="Udieresiscaron" unicode="&#x1d9;" horiz-adv-x="1367" 
d="M399 1583c0 63 46 112 106 112c63 0 112 -49 112 -112c0 -62 -49 -110 -112 -110c-60 0 -106 48 -106 110zM751 1583c0 63 47 112 108 112c62 0 110 -49 110 -112c0 -62 -48 -110 -110 -110c-61 0 -108 48 -108 110zM326 1933h226l129 -103h4l129 103h226l-274 -200h-166
zM414 1365v-862c0 -184 109 -284 270 -284c160 0 269 101 269 284v862h289v-902c0 -291 -211 -489 -558 -489c-348 0 -558 198 -558 489v902h288z" />
    <glyph glyph-name="Udieresisbelow" unicode="&#x1e72;" horiz-adv-x="1367" 
d="M414 1365v-862c0 -184 109 -284 270 -284c160 0 269 101 269 284v862h289v-902c0 -291 -211 -489 -558 -489c-348 0 -558 198 -558 489v902h288zM487 -379c-66 0 -116 49 -116 116c0 69 50 119 116 119c68 0 118 -50 118 -119c0 -67 -50 -116 -118 -116zM875 -379
c-66 0 -114 49 -114 116c0 69 48 119 114 119c69 0 120 -50 120 -119c0 -67 -51 -116 -120 -116z" />
    <glyph glyph-name="Utildebelow" unicode="&#x1e74;" horiz-adv-x="1367" 
d="M808 -382c-134 0 -173 118 -241 118c-49 0 -60 -62 -61 -95h-153c0 124 70 237 201 237c134 0 175 -118 247 -118c43 0 66 46 68 101h153c0 -126 -80 -243 -214 -243zM414 1365v-862c0 -184 109 -284 270 -284c160 0 269 101 269 284v862h289v-902
c0 -291 -211 -489 -558 -489c-348 0 -558 198 -558 489v902h288z" />
    <glyph glyph-name="Uhookabove" unicode="&#x1ee6;" horiz-adv-x="1367" 
d="M414 1365v-862c0 -184 109 -284 270 -284c160 0 269 101 269 284v862h289v-902c0 -291 -211 -489 -558 -489c-348 0 -558 198 -558 489v902h288zM530 1661v116c19 8 62 19 112 19c133 0 221 -63 221 -175c0 -105 -87 -153 -147 -180l-84 95c38 12 81 37 81 75
c0 46 -47 61 -95 61c-34 0 -66 -5 -88 -11z" />
    <glyph glyph-name="Ubreve" unicode="&#x16c;" horiz-adv-x="1367" 
d="M414 1365v-862c0 -184 109 -284 270 -284c160 0 269 101 269 284v862h289v-902c0 -291 -211 -489 -558 -489c-348 0 -558 198 -558 489v902h288zM378 1759h151c0 -80 48 -140 154 -140s154 60 154 140h148c0 -153 -102 -280 -302 -280s-305 126 -305 280z" />
    <glyph glyph-name="Uinvertedbreve" unicode="&#x216;" horiz-adv-x="1367" 
d="M414 1365v-862c0 -184 109 -284 270 -284c160 0 269 101 269 284v862h289v-902c0 -291 -211 -489 -558 -489c-348 0 -558 198 -558 489v902h288zM683 1643c-106 0 -154 -59 -154 -139h-151c0 153 105 279 305 279s302 -126 302 -279h-148c0 80 -48 139 -154 139z" />
    <glyph glyph-name="Utildeacute" unicode="&#x1e78;" horiz-adv-x="1367" 
d="M414 1365v-862c0 -184 109 -284 270 -284c160 0 269 101 269 284v862h289v-902c0 -291 -211 -489 -558 -489c-348 0 -558 198 -558 489v902h288zM578 1745l210 193h230l-255 -193h-185zM796 1475c-130 0 -161 111 -223 111c-42 0 -59 -48 -61 -89h-141
c0 107 63 219 194 219c129 0 170 -111 231 -111c41 0 59 50 61 95h141c0 -118 -76 -225 -202 -225z" />
    <glyph glyph-name="Udotbelow" unicode="&#x1ee4;" horiz-adv-x="1367" 
d="M566 -259c0 69 53 122 119 122c67 0 120 -53 120 -122c0 -67 -53 -120 -120 -120c-66 0 -119 53 -119 120zM414 1365v-862c0 -184 109 -284 270 -284c160 0 269 101 269 284v862h289v-902c0 -291 -211 -489 -558 -489c-348 0 -558 198 -558 489v902h288z" />
    <glyph glyph-name="Utilde" unicode="&#x168;" horiz-adv-x="1367" 
d="M414 1365v-862c0 -184 109 -284 270 -284c160 0 269 101 269 284v862h289v-902c0 -291 -211 -489 -558 -489c-348 0 -558 198 -558 489v902h288zM796 1475c-130 0 -161 111 -223 111c-42 0 -59 -48 -61 -89h-141c0 107 63 219 194 219c129 0 170 -111 231 -111
c41 0 59 50 61 95h141c0 -118 -76 -225 -202 -225z" />
    <glyph glyph-name="Umacron" unicode="&#x16a;" horiz-adv-x="1367" 
d="M414 1365v-862c0 -184 109 -284 270 -284c160 0 269 101 269 284v862h289v-902c0 -291 -211 -489 -558 -489c-348 0 -558 198 -558 489v902h288zM976 1509h-586v136h586v-136z" />
    <glyph glyph-name="Umacrondieresis" unicode="&#x1e7a;" horiz-adv-x="1367" 
d="M504 1709c-60 0 -106 48 -106 110c0 63 46 112 106 112c63 0 112 -49 112 -112c0 -62 -49 -110 -112 -110zM858 1709c-61 0 -108 48 -108 110c0 63 47 112 108 112c62 0 110 -49 110 -112c0 -62 -48 -110 -110 -110zM976 1489h-586v136h586v-136zM414 1365v-862
c0 -184 109 -284 270 -284c160 0 269 101 269 284v862h289v-902c0 -291 -211 -489 -558 -489c-348 0 -558 198 -558 489v902h288z" />
    <glyph glyph-name="Uring" unicode="&#x16e;" horiz-adv-x="1367" 
d="M683 1462c-124 0 -219 88 -219 212c0 123 95 210 219 210s218 -87 218 -210c0 -124 -95 -212 -218 -212zM590 1673c0 -53 39 -93 92 -93s93 40 93 93s-40 93 -93 93s-92 -40 -92 -93zM414 1365v-862c0 -184 109 -284 270 -284c160 0 269 101 269 284v862h289v-902
c0 -291 -211 -489 -558 -489c-348 0 -558 198 -558 489v902h288z" />
    <glyph glyph-name="Uogonek" unicode="&#x172;" horiz-adv-x="1367" 
d="M988 -390c-150 0 -246 78 -246 203c0 63 19 128 77 183l-2 5c-35 -13 -74 -27 -141 -27c-328 0 -550 200 -550 501v890h289v-862c0 -184 107 -284 269 -284c160 0 269 101 269 284v862h289v-892c0 -173 -64 -289 -150 -374c-71 -75 -155 -129 -155 -220
c0 -71 53 -100 118 -100c22 0 50 3 76 11v-157c-25 -9 -80 -23 -143 -23z" />
    <glyph glyph-name="Uhorn" unicode="&#x1af;" horiz-adv-x="1470" 
d="M684 -25c-339 0 -558 200 -558 502v888h289v-861c0 -184 107 -284 269 -284c160 0 269 102 269 284v861h290c84 0 109 46 109 123v127h222v-159c0 -161 -89 -289 -265 -289h-67v-692c0 -302 -219 -500 -558 -500z" />
    <glyph glyph-name="Uhorngrave" unicode="&#x1eea;" horiz-adv-x="1470" 
d="M793 1504h-196l-255 294h243zM684 -25c-339 0 -558 200 -558 502v888h289v-861c0 -184 107 -284 269 -284c160 0 269 102 269 284v861h290c84 0 109 46 109 123v127h222v-159c0 -161 -89 -289 -265 -289h-67v-692c0 -302 -219 -500 -558 -500z" />
    <glyph glyph-name="Uhornacute" unicode="&#x1ee8;" horiz-adv-x="1470" 
d="M769 1504h-196l208 294h243zM684 -25c-339 0 -558 200 -558 502v888h289v-861c0 -184 107 -284 269 -284c160 0 269 102 269 284v861h290c84 0 109 46 109 123v127h222v-159c0 -161 -89 -289 -265 -289h-67v-692c0 -302 -219 -500 -558 -500z" />
    <glyph glyph-name="Uhorndotbelow" unicode="&#x1ef0;" horiz-adv-x="1470" 
d="M565 -259c0 69 53 122 119 122c67 0 120 -53 120 -122c0 -67 -53 -120 -120 -120c-66 0 -119 53 -119 120zM684 -25c-339 0 -558 200 -558 502v888h289v-861c0 -184 107 -284 269 -284c160 0 269 102 269 284v861h290c84 0 109 46 109 123v127h222v-159
c0 -161 -89 -289 -265 -289h-67v-692c0 -302 -219 -500 -558 -500z" />
    <glyph glyph-name="Uhornhookabove" unicode="&#x1eec;" horiz-adv-x="1470" 
d="M530 1661v116c19 8 62 19 112 19c133 0 221 -63 221 -175c0 -105 -87 -153 -147 -180l-84 95c38 12 81 37 81 75c0 46 -47 61 -95 61c-34 0 -66 -5 -88 -11zM684 -25c-339 0 -558 200 -558 502v888h289v-861c0 -184 107 -284 269 -284c160 0 269 102 269 284v861h290
c84 0 109 46 109 123v127h222v-159c0 -161 -89 -289 -265 -289h-67v-692c0 -302 -219 -500 -558 -500z" />
    <glyph glyph-name="Uhorntilde" unicode="&#x1eee;" horiz-adv-x="1470" 
d="M796 1475c-130 0 -161 111 -223 111c-42 0 -59 -48 -61 -89h-141c0 107 63 219 194 219c129 0 170 -111 231 -111c41 0 59 50 61 95h141c0 -118 -76 -225 -202 -225zM684 -25c-339 0 -558 200 -558 502v888h289v-861c0 -184 107 -284 269 -284c160 0 269 102 269 284v861
h290c84 0 109 46 109 123v127h222v-159c0 -161 -89 -289 -265 -289h-67v-692c0 -302 -219 -500 -558 -500z" />
    <glyph glyph-name="V" unicode="V" horiz-adv-x="1261" 
d="M809 0h-353l-449 1365h335l292 -1044h12l288 1044h321z" />
    <glyph glyph-name="Vtilde" unicode="&#x1e7c;" horiz-adv-x="1261" 
d="M743 1475c-130 0 -161 111 -223 111c-42 0 -59 -48 -61 -89h-141c0 107 63 219 194 219c129 0 170 -111 231 -111c41 0 59 50 61 95h141c0 -118 -76 -225 -202 -225zM809 0h-353l-449 1365h335l292 -1044h12l288 1044h321z" />
    <glyph glyph-name="Vdotbelow" unicode="&#x1e7e;" horiz-adv-x="1261" 
d="M510 -259c0 69 53 122 119 122c67 0 120 -53 120 -122c0 -67 -53 -120 -120 -120c-66 0 -119 53 -119 120zM809 0h-353l-449 1365h335l292 -1044h12l288 1044h321z" />
    <glyph glyph-name="W" unicode="W" horiz-adv-x="1762" 
d="M630 0h-268l-357 1365h306l201 -955h11l236 955h246l235 -955h12l200 955h305l-357 -1365h-267l-246 921h-10z" />
    <glyph glyph-name="Wgrave" unicode="&#x1e80;" horiz-adv-x="1762" 
d="M991 1504h-196l-255 294h243zM630 0h-268l-357 1365h306l201 -955h11l236 955h246l235 -955h12l200 955h305l-357 -1365h-267l-246 921h-10z" />
    <glyph glyph-name="Wacute" unicode="&#x1e82;" horiz-adv-x="1762" 
d="M967 1504h-196l208 294h243zM630 0h-268l-357 1365h306l201 -955h11l236 955h246l235 -955h12l200 955h305l-357 -1365h-267l-246 921h-10z" />
    <glyph glyph-name="Wdotaccent" unicode="&#x1e86;" horiz-adv-x="1762" 
d="M741 1650c0 77 63 137 140 137s140 -60 140 -137s-63 -136 -140 -136s-140 59 -140 136zM630 0h-268l-357 1365h306l201 -955h11l236 955h246l235 -955h12l200 955h305l-357 -1365h-267l-246 921h-10z" />
    <glyph glyph-name="Wdotbelow" unicode="&#x1e88;" horiz-adv-x="1762" 
d="M760 -259c0 69 53 122 119 122c67 0 120 -53 120 -122c0 -67 -53 -120 -120 -120c-66 0 -119 53 -119 120zM630 0h-268l-357 1365h306l201 -955h11l236 955h246l235 -955h12l200 955h305l-357 -1365h-267l-246 921h-10z" />
    <glyph glyph-name="Wdieresis" unicode="&#x1e84;" horiz-adv-x="1762" 
d="M702 1473c-60 0 -106 48 -106 110c0 63 46 112 106 112c63 0 112 -49 112 -112c0 -62 -49 -110 -112 -110zM1056 1473c-61 0 -108 48 -108 110c0 63 47 112 108 112c62 0 110 -49 110 -112c0 -62 -48 -110 -110 -110zM630 0h-268l-357 1365h306l201 -955h11l236 955h246
l235 -955h12l200 955h305l-357 -1365h-267l-246 921h-10z" />
    <glyph glyph-name="Wcircumflex" unicode="&#x174;" horiz-adv-x="1762" 
d="M556 1504l232 276h188l232 -276h-208l-113 147h-10l-113 -147h-208zM630 0h-268l-357 1365h306l201 -955h11l236 955h246l235 -955h12l200 955h305l-357 -1365h-267l-246 921h-10z" />
    <glyph glyph-name="X" unicode="X" horiz-adv-x="1197" 
d="M1210 1365l-431 -684l425 -681h-330l-280 472h-13l-280 -472h-313l418 688l-416 677h341l271 -481h13l269 481h326z" />
    <glyph glyph-name="Xdotaccent" unicode="&#x1e8a;" horiz-adv-x="1197" 
d="M1210 1365l-431 -684l425 -681h-330l-280 472h-13l-280 -472h-313l418 688l-416 677h341l271 -481h13l269 481h326zM454 1650c0 77 63 137 140 137s140 -60 140 -137s-63 -136 -140 -136s-140 59 -140 136z" />
    <glyph glyph-name="Xdieresis" unicode="&#x1e8c;" horiz-adv-x="1198" 
d="M1210 1365l-431 -684l425 -681h-330l-280 472h-13l-280 -472h-313l418 688l-416 677h341l271 -481h13l269 481h326zM425 1473c-60 0 -106 48 -106 110c0 63 46 112 106 112c63 0 112 -49 112 -112c0 -62 -49 -110 -112 -110zM779 1473c-61 0 -108 48 -108 110
c0 63 47 112 108 112c62 0 110 -49 110 -112c0 -62 -48 -110 -110 -110z" />
    <glyph glyph-name="Y" unicode="Y" horiz-adv-x="1165" 
d="M727 0h-289v505l-457 860h319l281 -573h10l282 573h311l-457 -853v-512z" />
    <glyph glyph-name="Ygrave" unicode="&#x1ef2;" horiz-adv-x="1164" 
d="M727 0h-289v505l-457 860h319l281 -573h10l282 573h311l-457 -853v-512zM692 1504h-196l-255 294h243z" />
    <glyph glyph-name="Yacute" unicode="&#xdd;" horiz-adv-x="1164" 
d="M727 0h-289v505l-457 860h319l281 -573h10l282 573h311l-457 -853v-512zM668 1504h-196l208 294h243z" />
    <glyph glyph-name="Ydotaccent" unicode="&#x1e8e;" horiz-adv-x="1165" 
d="M727 0h-289v505l-457 860h319l281 -573h10l282 573h311l-457 -853v-512zM442 1650c0 77 63 137 140 137s140 -60 140 -137s-63 -136 -140 -136s-140 59 -140 136z" />
    <glyph glyph-name="Ydotbelow" unicode="&#x1ef4;" horiz-adv-x="1165" 
d="M727 0h-289v505l-457 860h319l281 -573h10l282 573h311l-457 -853v-512zM462 -259c0 69 53 122 119 122c67 0 120 -53 120 -122c0 -67 -53 -120 -120 -120c-66 0 -119 53 -119 120z" />
    <glyph glyph-name="Ydieresis" unicode="&#x178;" horiz-adv-x="1165" 
d="M727 0h-289v505l-457 860h319l281 -573h10l282 573h311l-457 -853v-512zM404 1473c-60 0 -106 48 -106 110c0 63 46 112 106 112c63 0 112 -49 112 -112c0 -62 -49 -110 -112 -110zM758 1473c-61 0 -108 48 -108 110c0 63 47 112 108 112c62 0 110 -49 110 -112
c0 -62 -48 -110 -110 -110z" />
    <glyph glyph-name="Ytilde" unicode="&#x1ef8;" horiz-adv-x="1164" 
d="M727 0h-289v505l-457 860h319l281 -573h10l282 573h311l-457 -853v-512zM695 1475c-130 0 -161 111 -223 111c-42 0 -59 -48 -61 -89h-141c0 107 63 219 194 219c129 0 170 -111 231 -111c41 0 59 50 61 95h141c0 -118 -76 -225 -202 -225z" />
    <glyph glyph-name="Ycircumflex" unicode="&#x176;" horiz-adv-x="1164" 
d="M727 0h-289v505l-457 860h319l281 -573h10l282 573h311l-457 -853v-512zM256 1504l232 276h188l232 -276h-208l-113 147h-10l-113 -147h-208z" />
    <glyph glyph-name="Ymacron" unicode="&#x232;" horiz-adv-x="1165" 
d="M727 0h-289v505l-457 860h319l281 -573h10l282 573h311l-457 -853v-512zM875 1509h-586v136h586v-136z" />
    <glyph glyph-name="Yhookabove" unicode="&#x1ef6;" horiz-adv-x="1164" 
d="M727 0h-289v505l-457 860h319l281 -573h10l282 573h311l-457 -853v-512zM429 1661v116c19 8 62 19 112 19c133 0 221 -63 221 -175c0 -105 -87 -153 -147 -180l-84 95c38 12 81 37 81 75c0 46 -47 61 -95 61c-34 0 -66 -5 -88 -11z" />
    <glyph glyph-name="Z" unicode="Z" horiz-adv-x="1183" 
d="M84 0v188l646 931v11h-630v235h980v-187l-644 -931v-12h664v-235h-1016z" />
    <glyph glyph-name="Zacute" unicode="&#x179;" horiz-adv-x="1183" 
d="M677 1504h-196l208 294h243zM84 0v188l646 931v11h-630v235h980v-187l-644 -931v-12h664v-235h-1016z" />
    <glyph glyph-name="Zcaron" unicode="&#x17d;" horiz-adv-x="1183" 
d="M84 0v188l646 931v11h-630v235h980v-187l-644 -931v-12h664v-235h-1016zM265 1779h208l113 -147h10l113 147h208l-232 -276h-188z" />
    <glyph glyph-name="Zcircumflex" unicode="&#x1e90;" horiz-adv-x="1183" 
d="M84 0v188l646 931v11h-630v235h980v-187l-644 -931v-12h664v-235h-1016zM265 1504l232 276h188l232 -276h-208l-113 147h-10l-113 -147h-208z" />
    <glyph glyph-name="Zlinebelow" unicode="&#x1e94;" horiz-adv-x="1183" 
d="M84 0v188l646 931v11h-630v235h980v-187l-644 -931v-12h664v-235h-1016zM886 -359h-590v157h590v-157z" />
    <glyph glyph-name="Zdotbelow" unicode="&#x1e92;" horiz-adv-x="1183" 
d="M473 -259c0 69 53 122 119 122c67 0 120 -53 120 -122c0 -67 -53 -120 -120 -120c-66 0 -119 53 -119 120zM84 0v188l646 931v11h-630v235h980v-187l-644 -931v-12h664v-235h-1016z" />
    <glyph glyph-name="Zdotaccent" unicode="&#x17b;" horiz-adv-x="1183" 
d="M451 1650c0 77 63 137 140 137s140 -60 140 -137s-63 -136 -140 -136s-140 59 -140 136zM84 0v188l646 931v11h-630v235h980v-187l-644 -931v-12h664v-235h-1016z" />
    <glyph glyph-name="AE" unicode="&#xc6;" horiz-adv-x="1900" 
d="M845 1132l-261 -572l328 1v571h-67zM912 338h-423l-164 -338h-318l657 1365h1135v-233h-601v-333h565v-218h-565v-347h601v-234h-887v338z" />
    <glyph glyph-name="AEmacron" unicode="&#x1e2;" horiz-adv-x="1900" 
d="M845 1132l-261 -572l328 1v571h-67zM912 338h-423l-164 -338h-318l657 1365h1135v-233h-601v-333h565v-218h-565v-347h601v-234h-887v338zM1642 1509h-586v136h586v-136z" />
    <glyph glyph-name="AEacute" unicode="&#x1fc;" horiz-adv-x="1900" 
d="M1435 1504h-196l208 294h243zM845 1132l-261 -572l328 1v571h-67zM912 338h-423l-164 -338h-318l657 1365h1135v-233h-601v-333h565v-218h-565v-347h601v-234h-887v338z" />
    <glyph glyph-name="OE" unicode="&#x152;" horiz-adv-x="1966" 
d="M390 766v-175c0 -255 125 -379 299 -379c175 0 300 117 300 372v193c0 254 -125 375 -300 375c-174 0 -299 -132 -299 -386zM635 -26c-340 0 -549 240 -549 621v167c0 406 227 629 551 629c160 0 296 -57 365 -167h17v141h846v-234h-599v-332h563v-218h-563v-347h599
v-234h-846v145h-17c-68 -104 -198 -171 -367 -171z" />
    <glyph glyph-name="Eth" unicode="&#xd0;" horiz-adv-x="1426" 
d="M704 0h-511v567h-127v250h127v548h511c418 0 612 -250 612 -678c0 -431 -197 -687 -612 -687zM482 240h179c216 0 356 104 356 447c0 268 -91 450 -356 450h-179v-320h273v-250h-273v-327z" />
    <glyph glyph-name="Thorn" unicode="&#xde;" horiz-adv-x="1205" 
d="M141 1365h288v-224h258c300 0 467 -184 467 -441c0 -260 -169 -437 -470 -437h-254v-263h-289v1365zM429 914v-428h176c146 0 255 44 255 214c0 146 -88 214 -233 214h-198z" />
    <glyph glyph-name="Alphagreek" unicode="&#x391;" horiz-adv-x="1273" 
d="M305 0h-291l452 1365h344l450 -1365h-308l-101 339h-444zM637 1093h-13l-160 -541h331z" />
    <glyph glyph-name="Betagreek" unicode="&#x392;" horiz-adv-x="1266" 
d="M141 0v1365h581c246 0 409 -126 409 -335c0 -169 -103 -268 -237 -299v-13c160 -15 305 -124 305 -332c0 -245 -201 -386 -475 -386h-583zM428 1153v-351h172c172 0 247 66 247 178c0 106 -71 173 -194 173h-225zM428 606v-393h193c202 0 284 68 284 193
c0 123 -82 200 -236 200h-241z" />
    <glyph glyph-name="Gammagreek" unicode="&#x393;" horiz-adv-x="1057" 
d="M431 0h-290v1365h863v-236h-573v-1129z" />
    <glyph glyph-name="Deltagreek" unicode="&#x394;" horiz-adv-x="1286" 
d="M49 0v150l424 1215h343l422 -1215v-150h-1189zM631 1083l-284 -870h578l-281 870h-13z" />
    <glyph glyph-name="Epsilongreek" unicode="&#x395;" horiz-adv-x="1133" 
d="M1032 233v-234h-891v1365h891v-234h-604v-332h568v-218h-568v-347h604z" />
    <glyph glyph-name="Zetagreek" unicode="&#x396;" horiz-adv-x="1183" 
d="M84 0v188l646 931v11h-630v235h980v-187l-644 -931v-12h664v-235h-1016z" />
    <glyph glyph-name="Etagreek" unicode="&#x397;" horiz-adv-x="1412" 
d="M1271 0h-290v577h-550v-577h-290v1365h290v-550h550v550h290v-1365z" />
    <glyph glyph-name="Thetagreek" unicode="&#x398;" horiz-adv-x="1418" 
d="M931 570h-445v228h445v-228zM376 771v-184c0 -242 138 -369 332 -369c195 0 334 123 334 369v184c0 249 -138 376 -334 376c-199 0 -332 -133 -332 -376zM86 593v170c0 393 242 628 623 628c382 0 623 -233 623 -628v-170c0 -391 -243 -619 -625 -619
c-381 0 -621 229 -621 619z" />
    <glyph glyph-name="Iotagreek" unicode="&#x399;" horiz-adv-x="572" 
d="M431 0h-290v1365h290v-1365z" />
    <glyph glyph-name="Kappagreek" unicode="&#x39a;" horiz-adv-x="1273" 
d="M1260 1365l-483 -589l503 -776h-346l-369 584l-134 -154v-430h-290v1365h290v-601h13l501 601h315z" />
    <glyph glyph-name="Lambdagreek" unicode="&#x39b;" horiz-adv-x="1248" 
d="M612 1058l-303 -1058h-293l437 1365h344l435 -1365h-309l-299 1058h-12z" />
    <glyph glyph-name="Mugreek" unicode="&#x39c;" horiz-adv-x="1640" 
d="M402 0h-258v1365h296l377 -846h9l377 846h294v-1365h-261v884h-12l-314 -702h-181l-315 702h-12v-884z" />
    <glyph glyph-name="Nugreek" unicode="&#x39d;" horiz-adv-x="1385" 
d="M410 0h-269v1365h237l587 -876h10v876h269v-1365h-236l-588 882h-10v-882z" />
    <glyph glyph-name="Xigreek" unicode="&#x39e;" horiz-adv-x="1174" 
d="M101 1124v241h972v-241h-972zM188 576v225h799v-225h-799zM101 0v241h972v-241h-972z" />
    <glyph glyph-name="Omicrongreek" unicode="&#x39f;" horiz-adv-x="1358" 
d="M381 766v-174c0 -255 124 -379 298 -379c175 0 298 124 298 379v174c0 254 -123 386 -298 386c-174 0 -298 -132 -298 -386zM86 593v170c0 388 223 628 594 628c372 0 592 -242 592 -628v-170c0 -385 -222 -619 -594 -619c-371 0 -592 234 -592 619z" />
    <glyph glyph-name="Pigreek" unicode="&#x3a0;" horiz-adv-x="1392" 
d="M1251 0h-290v1127h-530v-1127h-290v1365h1110v-1365z" />
    <glyph glyph-name="Rhogreek" unicode="&#x3a1;" horiz-adv-x="1207" 
d="M141 1365h556c300 0 467 -204 467 -461c0 -260 -169 -457 -470 -457h-264v-447h-289v1365zM429 1138v-467h153c179 0 288 56 288 233c0 150 -88 234 -233 234h-208z" />
    <glyph glyph-name="Sigmagreek" unicode="&#x3a3;" horiz-adv-x="1163" 
d="M84 168l363 519l-357 491v187h980v-235h-609v-11l295 -410v-31l-304 -431v-12h628v-235h-996v168z" />
    <glyph glyph-name="Taugreek" unicode="&#x3a4;" horiz-adv-x="1083" 
d="M686 0h-289v1125h-383v240h1055v-240h-383v-1125z" />
    <glyph glyph-name="Upsilongreek" unicode="&#x3a5;" horiz-adv-x="1165" 
d="M727 0h-289v505l-457 860h319l281 -573h10l282 573h311l-457 -853v-512z" />
    <glyph glyph-name="Phigreek" unicode="&#x3a6;" horiz-adv-x="1632" 
d="M947 -69h-262v109c-391 10 -599 255 -599 614v48c0 361 208 603 599 613v115h262v-115c392 -10 599 -253 599 -614v-46c0 -359 -208 -605 -599 -615v-109zM690 260v835c-202 -8 -317 -149 -317 -385v-67c0 -243 122 -374 317 -383zM942 260c195 9 317 140 317 383v67
c0 236 -114 377 -317 385v-835z" />
    <glyph glyph-name="Chigreek" unicode="&#x3a7;" horiz-adv-x="1197" 
d="M1210 1365l-431 -684l425 -681h-330l-280 472h-13l-280 -472h-313l418 688l-416 677h341l271 -481h13l269 481h326z" />
    <glyph glyph-name="Psigreek" unicode="&#x3a8;" horiz-adv-x="1545" 
d="M636 0v287c-325 12 -515 160 -515 495v583h274v-586c0 -183 76 -253 241 -261v847h274v-847c164 8 241 77 241 261v586h274v-583c0 -336 -191 -482 -515 -495v-287h-274z" />
    <glyph glyph-name="Omegagreek" unicode="&#x3a9;" horiz-adv-x="1426" 
d="M804 0v292c115 38 210 207 210 414v75c0 247 -127 371 -301 371c-176 0 -301 -127 -301 -371v-75c0 -203 92 -374 210 -414v-292h-533v245h240v16c-118 69 -211 241 -211 447v80c0 386 229 603 595 603c367 0 595 -217 595 -603v-80c0 -206 -94 -380 -211 -447v-16h240
v-245h-533z" />
    <glyph glyph-name="Alphatonosgreek" unicode="&#x386;" horiz-adv-x="1375" 
d="M407 0h-291l452 1365h344l450 -1365h-308l-101 339h-444zM739 1093h-13l-160 -541h331zM41 1026l79 339h250l-139 -339h-190z" />
    <glyph glyph-name="Epsilontonosgreek" unicode="&#x388;" horiz-adv-x="1481" 
d="M28 1026l79 339h250l-139 -339h-190zM1380 233v-234h-891v1365h891v-234h-604v-332h568v-218h-568v-347h604z" />
    <glyph glyph-name="Etatonosgreek" unicode="&#x389;" horiz-adv-x="1759" 
d="M28 1026l79 339h250l-139 -339h-190zM1619 0h-290v577h-550v-577h-290v1365h290v-550h550v550h290v-1365z" />
    <glyph glyph-name="Iotatonosgreek" unicode="&#x38a;" horiz-adv-x="919" 
d="M779 0h-290v1365h290v-1365zM28 1026l79 339h250l-139 -339h-190z" />
    <glyph glyph-name="Iotadieresisgreek" unicode="&#x3aa;" horiz-adv-x="572" 
d="M431 0h-290v1365h290v-1365zM107 1473c-60 0 -106 48 -106 110c0 63 46 112 106 112c63 0 112 -49 112 -112c0 -62 -49 -110 -112 -110zM461 1473c-61 0 -108 48 -108 110c0 63 47 112 108 112c62 0 110 -49 110 -112c0 -62 -48 -110 -110 -110z" />
    <glyph glyph-name="Omicrontonosgreek" unicode="&#x38c;" horiz-adv-x="1598" 
d="M622 766v-174c0 -255 124 -379 298 -379c175 0 298 124 298 379v174c0 254 -123 386 -298 386c-174 0 -298 -132 -298 -386zM327 593v170c0 388 223 628 594 628c372 0 592 -242 592 -628v-170c0 -385 -222 -619 -594 -619c-371 0 -592 234 -592 619zM28 1026l79 339h250
l-139 -339h-190z" />
    <glyph glyph-name="Upsilontonosgreek" unicode="&#x38e;" horiz-adv-x="1628" 
d="M28 1026l79 339h250l-139 -339h-190zM1191 0h-289v505l-457 860h319l281 -573h10l282 573h311l-457 -853v-512z" />
    <glyph glyph-name="Upsilondieresisgreek" unicode="&#x3ab;" horiz-adv-x="1165" 
d="M727 0h-289v505l-457 860h319l281 -573h10l282 573h311l-457 -853v-512zM404 1473c-60 0 -106 48 -106 110c0 63 46 112 106 112c63 0 112 -49 112 -112c0 -62 -49 -110 -112 -110zM758 1473c-61 0 -108 48 -108 110c0 63 47 112 108 112c62 0 110 -49 110 -112
c0 -62 -48 -110 -110 -110z" />
    <glyph glyph-name="Omegatonosgreek" unicode="&#x38f;" horiz-adv-x="1631" 
d="M1010 0v292c115 38 210 207 210 414v75c0 247 -127 371 -301 371c-176 0 -301 -127 -301 -371v-75c0 -203 92 -374 210 -414v-292h-533v245h240v16c-118 69 -211 241 -211 447v80c0 386 229 603 595 603c367 0 595 -217 595 -603v-80c0 -206 -94 -380 -211 -447v-16h240
v-245h-533zM28 1026l79 339h250l-139 -339h-190z" />
    <glyph glyph-name="Acyrillic" unicode="&#x410;" horiz-adv-x="1293" 
d="M315 0h-291l452 1365h344l450 -1365h-308l-101 339h-444zM647 1093h-13l-160 -541h331z" />
    <glyph glyph-name="Becyrillic" unicode="&#x411;" horiz-adv-x="1240" 
d="M440 1129v-276h259c301 0 470 -181 470 -421c0 -242 -167 -432 -467 -432h-551v1365h893v-236h-604zM439 228h213c139 0 223 73 223 203c0 129 -84 203 -223 203h-213v-406z" />
    <glyph glyph-name="Vecyrillic" unicode="&#x412;" horiz-adv-x="1286" 
d="M151 0v1365h581c246 0 409 -126 409 -335c0 -169 -103 -268 -237 -299v-13c160 -15 305 -124 305 -332c0 -245 -201 -386 -475 -386h-583zM438 1153v-351h172c172 0 247 66 247 178c0 106 -71 173 -194 173h-225zM438 606v-393h193c202 0 284 68 284 193
c0 123 -82 200 -236 200h-241z" />
    <glyph glyph-name="Gecyrillic" unicode="&#x413;" horiz-adv-x="1094" 
d="M441 0h-290v1365h878v-236h-588v-1129z" />
    <glyph glyph-name="Decyrillic" unicode="&#x414;" horiz-adv-x="1467" 
d="M968 239v888h-417l-12 -309c-10 -287 -23 -463 -99 -567v-12h528zM285 -286h-257v525h111c109 76 127 227 138 619l17 507h958v-1126h170v-525h-257v286h-880v-286z" />
    <glyph glyph-name="Iecyrillic" unicode="&#x415;" horiz-adv-x="1153" 
d="M1042 234v-234h-891v1365h891v-234h-604v-332h568v-218h-568v-347h604z" />
    <glyph glyph-name="Iocyrillic" unicode="&#x401;" horiz-adv-x="1153" 
d="M408 1473c-60 0 -106 48 -106 110c0 63 46 112 106 112c63 0 112 -49 112 -112c0 -62 -49 -110 -112 -110zM762 1473c-61 0 -108 48 -108 110c0 63 47 112 108 112c62 0 110 -49 110 -112c0 -62 -48 -110 -110 -110zM1042 234v-234h-891v1365h891v-234h-604v-332h568
v-218h-568v-347h604z" />
    <glyph glyph-name="Zhecyrillic" unicode="&#x416;" horiz-adv-x="1919" 
d="M1364 717l539 -717h-341l-449 587h-12v-587h-279v587h-12l-449 -587h-335l533 707l-544 658h335l460 -560h12v560h279v-560h12l460 560h328z" />
    <glyph glyph-name="Zecyrillic" unicode="&#x417;" horiz-adv-x="1208" 
d="M427 592v220h169c127 0 213 69 213 178c0 108 -89 180 -214 180c-138 0 -227 -86 -232 -197h-268c8 238 186 418 505 418c302 0 491 -159 491 -370c0 -159 -111 -272 -269 -297v-15c179 -17 309 -146 309 -318c0 -254 -209 -418 -534 -418c-315 0 -517 179 -523 427h264
c7 -117 107 -202 262 -202c149 0 245 77 245 200c0 125 -98 194 -251 194h-167z" />
    <glyph glyph-name="Iicyrillic" unicode="&#x418;" horiz-adv-x="1432" 
d="M1001 0v919h-12l-573 -919h-265v1365h280v-917h12l573 917h265v-1365h-280z" />
    <glyph glyph-name="Iishortcyrillic" unicode="&#x419;" horiz-adv-x="1432" 
d="M389 1782h164c0 -94 56 -156 174 -156s174 62 174 156h164c0 -176 -120 -299 -338 -299c-216 0 -338 123 -338 299zM1001 0v919h-12l-573 -919h-265v1365h280v-917h12l573 917h265v-1365h-280z" />
    <glyph glyph-name="Kacyrillic" unicode="&#x41a;" horiz-adv-x="1297" 
d="M934 0l-481 587h-12v-587h-290v1365h290v-560h12l492 560h334l-573 -648l577 -717h-349z" />
    <glyph glyph-name="Elcyrillic" unicode="&#x41b;" horiz-adv-x="1358" 
d="M264 858l8 507h935v-1365h-290v1127h-381l-9 -312c-16 -601 -89 -831 -386 -831c-50 0 -88 9 -101 16v249c7 -3 28 -9 51 -9c137 0 165 175 173 618z" />
    <glyph glyph-name="Emcyrillic" unicode="&#x41c;" horiz-adv-x="1655" 
d="M410 0h-258v1365h296l377 -846h9l377 846h294v-1365h-261v884h-12l-314 -702h-181l-315 702h-12v-884z" />
    <glyph glyph-name="Encyrillic" unicode="&#x41d;" horiz-adv-x="1432" 
d="M1281 0h-290v577h-550v-577h-290v1365h290v-550h550v550h290v-1365z" />
    <glyph glyph-name="Ocyrillic" unicode="&#x41e;" horiz-adv-x="1378" 
d="M391 766v-174c0 -255 124 -379 298 -379c175 0 298 124 298 379v174c0 254 -123 386 -298 386c-174 0 -298 -132 -298 -386zM96 593v170c0 388 223 628 594 628c372 0 592 -242 592 -628v-170c0 -385 -222 -619 -594 -619c-371 0 -592 234 -592 619z" />
    <glyph glyph-name="Pecyrillic" unicode="&#x41f;" horiz-adv-x="1412" 
d="M1261 0h-290v1127h-530v-1127h-290v1365h1110v-1365z" />
    <glyph glyph-name="Ercyrillic" unicode="&#x420;" horiz-adv-x="1232" 
d="M151 1365h556c300 0 467 -204 467 -461c0 -260 -169 -457 -470 -457h-264v-447h-289v1365zM439 1138v-467h153c179 0 288 56 288 233c0 150 -88 234 -233 234h-208z" />
    <glyph glyph-name="Escyrillic" unicode="&#x421;" horiz-adv-x="1306" 
d="M390 757v-154c0 -249 104 -386 286 -386c161 0 261 108 263 258h278v-30c0 -279 -228 -471 -543 -471c-369 0 -578 241 -578 630v153c0 392 209 634 578 634c316 0 543 -196 543 -484v-29h-278c-2 157 -102 270 -263 270c-182 0 -286 -139 -286 -391z" />
    <glyph glyph-name="Tecyrillic" unicode="&#x422;" horiz-adv-x="1103" 
d="M696 0h-289v1125h-383v240h1055v-240h-383v-1125z" />
    <glyph glyph-name="Ucyrillic" unicode="&#x423;" horiz-adv-x="1183" 
d="M893 1365h299l-435 -984c-120 -270 -236 -397 -458 -397c-74 0 -128 13 -136 16v236c9 -3 50 -11 100 -11c81 0 144 32 202 129l-474 1011h316l296 -702h12z" />
    <glyph glyph-name="Efcyrillic" unicode="&#x424;" horiz-adv-x="1668" 
d="M971 -10h-279v155c-384 13 -603 206 -603 537v12c0 333 221 529 603 544v137h279v-138c387 -11 608 -204 608 -537v-12c0 -335 -222 -530 -608 -544v-154zM371 682c0 -202 117 -303 326 -311v641c-208 -10 -326 -115 -326 -318v-12zM1297 700c0 203 -119 305 -331 311
v-641c211 8 331 114 331 318v12z" />
    <glyph glyph-name="Xacyrillic" unicode="&#x425;" horiz-adv-x="1217" 
d="M1220 1365l-431 -684l425 -681h-330l-280 472h-13l-280 -472h-313l418 688l-416 677h341l271 -481h13l269 481h326z" />
    <glyph glyph-name="Tsecyrillic" unicode="&#x426;" horiz-adv-x="1481" 
d="M1266 239h170v-525h-258v286h-202h-825v1365h290v-1126h535v1126h290v-1126z" />
    <glyph glyph-name="Checyrillic" unicode="&#x427;" horiz-adv-x="1367" 
d="M1216 0h-290v581h-11c-31 -17 -153 -82 -309 -82c-307 0 -482 171 -482 476v390h289v-375c0 -169 85 -253 253 -253c137 0 241 70 260 83v545h290v-1365z" />
    <glyph glyph-name="Shacyrillic" unicode="&#x428;" horiz-adv-x="1962" 
d="M151 0v1365h290v-1126h395v1126h290v-1126h395v1126h290v-1365h-1660z" />
    <glyph glyph-name="Shchacyrillic" unicode="&#x429;" horiz-adv-x="2026" 
d="M1981 -286h-258v286h-1572v1365h290v-1126h395v1126h290v-1126h395v1126h290v-1126h170v-525z" />
    <glyph glyph-name="Hardsigncyrillic" unicode="&#x42a;" horiz-adv-x="1419" 
d="M889 0h-556v1126h-296v239h585v-447h264c300 0 469 -197 469 -456c0 -258 -166 -462 -466 -462zM829 228c144 0 232 84 232 233s-88 233 -232 233h-211v-466h211z" />
    <glyph glyph-name="Yericyrillic" unicode="&#x42b;" horiz-adv-x="1728" 
d="M1171 462c0 -258 -166 -462 -466 -462h-554v1365h289v-447h262c300 0 469 -197 469 -456zM645 694h-208v-466h208c144 0 232 84 232 233s-88 233 -232 233zM1578 0h-290v1365h290v-1365z" />
    <glyph glyph-name="Softsigncyrillic" unicode="&#x42c;" horiz-adv-x="1237" 
d="M707 0h-556v1365h289v-447h264c301 0 470 -197 470 -456c0 -258 -167 -462 -467 -462zM647 228c145 0 233 84 233 233s-88 233 -233 233h-210v-466h210z" />
    <glyph glyph-name="Ereversedcyrillic" unicode="&#x42d;" horiz-adv-x="1311" 
d="M636 -26c-349 0 -547 223 -547 471v10h279c6 -124 89 -238 262 -238c170 0 281 110 290 341v25h-479v216h479v5c-10 228 -122 344 -287 344c-173 0 -258 -125 -265 -245h-279v4c0 264 206 484 546 484c363 0 580 -237 580 -628v-164c0 -395 -215 -625 -579 -625z" />
    <glyph glyph-name="IUcyrillic" unicode="&#x42e;" horiz-adv-x="1874" 
d="M1484 592v174c0 254 -120 386 -288 386c-169 0 -288 -132 -288 -386v-174c0 -255 119 -379 288 -379c168 0 288 124 288 379zM441 815h179c19 357 231 576 577 576c366 0 581 -242 581 -628v-170c0 -385 -217 -619 -583 -619c-358 0 -570 228 -576 603h-178v-577h-290
v1365h290v-550z" />
    <glyph glyph-name="IAcyrillic" unicode="&#x42f;" horiz-adv-x="1293" 
d="M635 709h222v431h-222c-149 0 -237 -75 -237 -215c0 -141 88 -216 237 -216zM853 488h-195l-276 -488h-317l312 537c-173 58 -272 203 -272 386c0 250 168 442 481 442h556v-1365h-289v488z" />
    <glyph glyph-name="Djecyrillic" unicode="&#x402;" horiz-adv-x="1541" 
d="M707 760c65 46 195 82 298 82c286 0 455 -160 455 -430c0 -259 -170 -429 -430 -429c-61 0 -123 7 -146 17v223c19 -5 60 -8 98 -8c111 0 188 78 188 190c0 134 -79 206 -226 206c-91 0 -195 -35 -248 -84v-527h-289v1125h-383v240h1055v-240h-383v-365h11z" />
    <glyph glyph-name="Gjecyrillic" unicode="&#x403;" horiz-adv-x="1094" 
d="M679 1504h-196l208 294h243zM441 0h-290v1365h878v-236h-588v-1129z" />
    <glyph glyph-name="Ecyrillic" unicode="&#x404;" horiz-adv-x="1311" 
d="M1222 903h-279c-7 120 -92 245 -265 245c-166 0 -278 -118 -289 -349h481v-216h-482c5 -247 118 -366 293 -366c173 0 256 114 262 238h279v-10c0 -248 -198 -471 -547 -471c-364 0 -579 230 -579 625v164c0 391 217 628 580 628c340 0 546 -220 546 -484v-4z" />
    <glyph glyph-name="Dzecyrillic" unicode="&#x405;" horiz-adv-x="1238" 
d="M69 392h278c8 -101 99 -191 272 -191c161 0 247 72 247 178c0 93 -70 138 -208 169l-205 47c-192 41 -352 149 -352 381c0 268 228 417 517 417c305 0 510 -168 513 -409h-270c-7 96 -86 185 -244 185c-140 0 -227 -66 -227 -171c0 -79 64 -132 186 -157l207 -46
c200 -43 369 -140 369 -388c0 -268 -209 -433 -547 -433c-402 0 -532 225 -536 418z" />
    <glyph glyph-name="Icyrillic" unicode="&#x406;" horiz-adv-x="592" 
d="M441 0h-290v1365h290v-1365z" />
    <glyph glyph-name="Yicyrillic" unicode="&#x407;" horiz-adv-x="582" 
d="M436 0h-290v1365h290v-1365zM112 1473c-60 0 -106 48 -106 110c0 63 46 112 106 112c63 0 112 -49 112 -112c0 -62 -49 -110 -112 -110zM466 1473c-61 0 -108 48 -108 110c0 63 47 112 108 112c62 0 110 -49 110 -112c0 -62 -48 -110 -110 -110z" />
    <glyph glyph-name="Jecyrillic" unicode="&#x408;" horiz-adv-x="1103" 
d="M36 405h278c3 -105 64 -175 178 -175c126 0 180 76 180 222v913h290v-917c0 -311 -175 -474 -468 -474c-307 0 -458 202 -458 431z" />
    <glyph glyph-name="Ljecyrillic" unicode="&#x409;" horiz-adv-x="1986" 
d="M527 815c-17 -601 -90 -831 -386 -831c-52 0 -89 9 -101 16v249c9 -4 29 -9 51 -9c135 0 167 174 173 618l7 507h918v-447h264c301 0 470 -197 470 -456c0 -258 -167 -462 -467 -462h-556v1127h-364zM1396 694h-210v-466h210c145 0 233 84 233 233s-88 233 -233 233z" />
    <glyph glyph-name="Njecyrillic" unicode="&#x40a;" horiz-adv-x="2077" 
d="M991 858v507h289v-507h262c302 0 472 -177 472 -425s-168 -433 -469 -433h-554v620h-550v-620h-290v1365h290v-507h550zM1492 635h-215v-407h215c142 0 228 68 228 203c0 137 -86 204 -228 204z" />
    <glyph glyph-name="Tshecyrillic" unicode="&#x40b;" horiz-adv-x="1595" 
d="M707 760c61 45 190 82 293 82c291 0 455 -170 455 -467v-375h-290v360c0 166 -76 248 -228 248c-87 0 -188 -35 -241 -83v-525h-289v1125h-383v240h1055v-240h-383v-365h11z" />
    <glyph glyph-name="Kjecyrillic" unicode="&#x40c;" horiz-adv-x="1297" 
d="M779 1504h-196l208 294h243zM934 0l-481 587h-12v-587h-290v1365h290v-560h12l492 560h334l-573 -648l577 -717h-349z" />
    <glyph glyph-name="Ushortcyrillic" unicode="&#x40e;" horiz-adv-x="1183" 
d="M779 1773h164c0 -176 -120 -299 -338 -299c-216 0 -338 123 -338 299h164c0 -94 56 -156 174 -156s174 62 174 156zM893 1365h299l-435 -984c-120 -270 -236 -397 -458 -397c-74 0 -128 13 -136 16v236c9 -3 50 -11 100 -11c81 0 144 32 202 129l-474 1011h316l296 -702
h12z" />
    <glyph glyph-name="Dzhecyrillic" unicode="&#x40f;" horiz-adv-x="1422" 
d="M981 1365h290v-1365h-431v-286h-257v286h-432v1365h290v-1126h540v1126z" />
    <glyph glyph-name="Geupturncyrillic" unicode="&#x490;" horiz-adv-x="1094" 
d="M772 1651h257v-286v-236h-588v-1129h-290v1365h621v286z" />
    <glyph glyph-name="A.sc" horiz-adv-x="1147" 
d="M313 0h-284l370 1096h351l368 -1096h-306l-72 246h-353zM572 852h-14l-119 -408h250z" />
    <glyph glyph-name="Agrave.sc" horiz-adv-x="1146" 
d="M684 1221h-196l-254 294h243zM313 0h-284l370 1096h351l368 -1096h-306l-72 246h-353zM572 852h-14l-119 -408h250z" />
    <glyph glyph-name="Aacute.sc" horiz-adv-x="1146" 
d="M657 1221h-195l207 294h243zM313 0h-284l370 1096h351l368 -1096h-306l-72 246h-353zM572 852h-14l-119 -408h250z" />
    <glyph glyph-name="Adieresis.sc" horiz-adv-x="1147" 
d="M313 0h-284l370 1096h351l368 -1096h-306l-72 246h-353zM572 852h-14l-119 -408h250zM380 1226c-66 0 -116 49 -116 116c0 69 50 119 116 119c68 0 118 -50 118 -119c0 -67 -50 -116 -118 -116zM768 1226c-66 0 -114 49 -114 116c0 69 48 119 114 119
c69 0 120 -50 120 -119c0 -67 -51 -116 -120 -116z" />
    <glyph glyph-name="Adieresismacron.sc" horiz-adv-x="1147" 
d="M313 0h-284l370 1096h351l368 -1096h-306l-72 246h-353zM572 852h-14l-119 -408h250zM383 1226c-66 0 -116 49 -116 116c0 69 50 119 116 119c68 0 118 -50 118 -119c0 -67 -50 -116 -118 -116zM771 1226c-66 0 -114 49 -114 116c0 69 48 119 114 119
c69 0 120 -50 120 -119c0 -67 -51 -116 -120 -116zM868 1583h-590v157h590v-157z" />
    <glyph glyph-name="Aring.sc" horiz-adv-x="1147" 
d="M313 0h-284l370 1096h351l368 -1096h-306l-72 246h-353zM572 852h-14l-119 -408h250zM573 1215c-124 0 -219 88 -219 212c0 123 95 210 219 210s218 -87 218 -210c0 -124 -95 -212 -218 -212zM480 1426c0 -53 39 -93 92 -93s93 40 93 93s-40 93 -93 93s-92 -40 -92 -93z
" />
    <glyph glyph-name="Aringacute.sc" horiz-adv-x="1147" 
d="M693 1706h-207l134 186h251zM569 1215c-124 0 -219 88 -219 212c0 123 95 210 219 210s218 -87 218 -210c0 -124 -95 -212 -218 -212zM476 1426c0 -53 39 -93 92 -93s93 40 93 93s-40 93 -93 93s-92 -40 -92 -93zM313 0h-284l370 1096h351l368 -1096h-306l-72 246h-353z
M572 852h-14l-119 -408h250z" />
    <glyph glyph-name="Atilde.sc" horiz-adv-x="1146" 
d="M313 0h-284l370 1096h351l368 -1096h-306l-72 246h-353zM572 852h-14l-119 -408h250zM693 1208c-137 0 -176 121 -247 121c-53 0 -64 -65 -65 -98h-157c0 128 74 244 208 244c137 0 179 -121 254 -121c47 0 69 49 71 104h157c0 -130 -84 -250 -221 -250z" />
    <glyph glyph-name="Abrevegrave.sc" horiz-adv-x="1147" 
d="M313 0h-284l370 1096h351l368 -1096h-306l-72 246h-353zM572 852h-14l-119 -408h250zM679 1535h-196l-254 294h243zM257 1518h159c0 -82 48 -160 157 -160s156 78 156 160h157c-1 -157 -106 -305 -313 -305s-316 147 -316 305z" />
    <glyph glyph-name="Adotmacron.sc" horiz-adv-x="1147" 
d="M313 0h-284l370 1096h351l368 -1096h-306l-72 246h-353zM572 852h-14l-119 -408h250zM438 1342c0 75 59 134 132 134c75 0 134 -59 134 -134c0 -74 -59 -132 -134 -132c-73 0 -132 58 -132 132zM868 1583h-590v157h590v-157z" />
    <glyph glyph-name="Aringbelow.sc" horiz-adv-x="1147" 
d="M313 0h-284l370 1096h351l368 -1096h-306l-72 246h-353zM572 852h-14l-119 -408h250zM573 -531c-124 0 -219 88 -219 212c0 123 95 210 219 210s218 -87 218 -210c0 -124 -95 -212 -218 -212zM480 -320c0 -53 39 -93 92 -93s93 40 93 93s-40 93 -93 93s-92 -40 -92 -93z
" />
    <glyph glyph-name="Acircumflex.sc" horiz-adv-x="1147" 
d="M247 1221l232 311h191l233 -311h-212l-113 172h-6l-114 -172h-211zM313 0h-284l370 1096h351l368 -1096h-306l-72 246h-353zM572 852h-14l-119 -408h250z" />
    <glyph glyph-name="Acircumflexdotbelow.sc" horiz-adv-x="1147" 
d="M247 1221l232 311h191l233 -311h-212l-113 172h-6l-114 -172h-211zM313 0h-284l370 1096h351l368 -1096h-306l-72 246h-353zM572 852h-14l-119 -408h250zM454 -259c0 69 53 122 119 122c67 0 120 -53 120 -122c0 -67 -53 -120 -120 -120c-66 0 -119 53 -119 120z" />
    <glyph glyph-name="Acircumflexacute.sc" horiz-adv-x="1147" 
d="M1000 1444h-196l207 294h243zM245 1221l232 311h191l233 -311h-212l-113 172h-6l-114 -172h-211zM313 0h-284l370 1096h351l368 -1096h-306l-72 246h-353zM572 852h-14l-119 -408h250z" />
    <glyph glyph-name="Acircumflextilde.sc" horiz-adv-x="1147" 
d="M313 0h-284l370 1096h351l368 -1096h-306l-72 246h-353zM572 852h-14l-119 -408h250zM413 1642h-146c0 118 66 225 191 225c128 0 153 -112 221 -112c41 0 62 44 64 96h146c0 -119 -76 -231 -203 -231c-129 0 -151 113 -216 113c-46 0 -57 -59 -57 -91zM245 1221l232 311
h191l233 -311h-212l-113 172h-6l-114 -172h-211z" />
    <glyph glyph-name="Acircumflexgrave.sc" horiz-adv-x="1147" 
d="M1110 1444h-196l-254 294h243zM245 1221l232 311h191l233 -311h-212l-113 172h-6l-114 -172h-211zM313 0h-284l370 1096h351l368 -1096h-306l-72 246h-353zM572 852h-14l-119 -408h250z" />
    <glyph glyph-name="Acircumflexhookabove.sc" horiz-adv-x="1147" 
d="M718 1678v119c20 10 59 18 107 18c134 0 216 -74 216 -183c0 -103 -67 -161 -157 -200l-74 92c60 28 86 54 86 94c0 43 -37 77 -97 77c-33 0 -64 -9 -81 -17zM245 1221l232 311h191l233 -311h-212l-113 172h-6l-114 -172h-211zM313 0h-284l370 1096h351l368 -1096h-306
l-72 246h-353zM572 852h-14l-119 -408h250z" />
    <glyph glyph-name="Abreve.sc" horiz-adv-x="1147" 
d="M313 0h-284l370 1096h351l368 -1096h-306l-72 246h-353zM572 852h-14l-119 -408h250zM257 1518h159c0 -82 48 -160 157 -160s156 78 156 160h157c-1 -157 -106 -305 -313 -305s-316 147 -316 305z" />
    <glyph glyph-name="Abreveacute.sc" horiz-adv-x="1147" 
d="M313 0h-284l370 1096h351l368 -1096h-306l-72 246h-353zM572 852h-14l-119 -408h250zM658 1535h-196l207 294h243zM257 1518h159c0 -82 48 -160 157 -160s156 78 156 160h157c-1 -157 -106 -305 -313 -305s-316 147 -316 305z" />
    <glyph glyph-name="Abrevetilde.sc" horiz-adv-x="1147" 
d="M313 0h-284l370 1096h351l368 -1096h-306l-72 246h-353zM572 852h-14l-119 -408h250zM413 1642h-146c0 118 66 225 191 225c128 0 153 -112 221 -112c41 0 62 44 64 96h146c0 -119 -76 -231 -203 -231c-129 0 -151 113 -216 113c-46 0 -57 -59 -57 -91zM257 1518h159
c0 -82 48 -160 157 -160s156 78 156 160h157c-1 -157 -106 -305 -313 -305s-316 147 -316 305z" />
    <glyph glyph-name="Abrevehookabove.sc" horiz-adv-x="1147" 
d="M313 0h-284l370 1096h351l368 -1096h-306l-72 246h-353zM572 852h-14l-119 -408h250zM388 1739v119c21 10 60 18 107 18c135 0 217 -74 217 -183c0 -103 -67 -161 -158 -200l-73 92c60 28 86 54 86 94c0 43 -38 77 -98 77c-32 0 -63 -9 -81 -17zM257 1518h159
c0 -82 48 -160 157 -160s156 78 156 160h157c-1 -157 -106 -305 -313 -305s-316 147 -316 305z" />
    <glyph glyph-name="Abrevedotbelow.sc" horiz-adv-x="1147" 
d="M455 -259c0 69 53 122 119 122c67 0 120 -53 120 -122c0 -67 -53 -120 -120 -120c-66 0 -119 53 -119 120zM313 0h-284l370 1096h351l368 -1096h-306l-72 246h-353zM572 852h-14l-119 -408h250zM257 1518h159c0 -82 48 -160 157 -160s156 78 156 160h157
c-1 -157 -106 -305 -313 -305s-316 147 -316 305z" />
    <glyph glyph-name="Ainvertedbreve.sc" horiz-adv-x="1147" 
d="M313 0h-284l370 1096h351l368 -1096h-306l-72 246h-353zM572 852h-14l-119 -408h250zM250 1245c0 163 112 314 323 314s320 -151 320 -314h-160c0 84 -49 164 -160 164s-160 -80 -160 -164h-163z" />
    <glyph glyph-name="Acaron.sc" horiz-adv-x="1147" 
d="M242 1532h211l114 -172h6l113 172h212l-233 -311h-191zM313 0h-284l370 1096h351l368 -1096h-306l-72 246h-353zM572 852h-14l-119 -408h250z" />
    <glyph glyph-name="Adotaccent.sc" horiz-adv-x="1147" 
d="M440 1357c0 75 59 134 132 134c75 0 134 -59 134 -134c0 -74 -59 -132 -134 -132c-73 0 -132 58 -132 132zM313 0h-284l370 1096h351l368 -1096h-306l-72 246h-353zM572 852h-14l-119 -408h250z" />
    <glyph glyph-name="Adotbelow.sc" horiz-adv-x="1147" 
d="M453 -259c0 69 53 122 119 122c67 0 120 -53 120 -122c0 -67 -53 -120 -120 -120c-66 0 -119 53 -119 120zM313 0h-284l370 1096h351l368 -1096h-306l-72 246h-353zM572 852h-14l-119 -408h250z" />
    <glyph glyph-name="Ahookabove.sc" horiz-adv-x="1146" 
d="M313 0h-284l370 1096h351l368 -1096h-306l-72 246h-353zM572 852h-14l-119 -408h250zM424 1445v120c21 10 60 18 109 18c136 0 220 -76 220 -186c0 -104 -68 -162 -160 -203l-76 93c62 29 88 56 88 96c0 43 -38 78 -99 78c-33 0 -64 -8 -82 -16z" />
    <glyph glyph-name="Adblgrave.sc" horiz-adv-x="1146" 
d="M313 0h-284l370 1096h351l368 -1096h-306l-72 246h-353zM572 852h-14l-119 -408h250zM328 1221l-247 294h211l205 -294h-169zM671 1221l-247 294h211l204 -294h-168z" />
    <glyph glyph-name="Amacron.sc" horiz-adv-x="1147" 
d="M313 0h-284l370 1096h351l368 -1096h-306l-72 246h-353zM572 852h-14l-119 -408h250zM866 1257h-590v157h590v-157z" />
    <glyph glyph-name="Aogonek.sc" horiz-adv-x="1146" 
d="M1143 -374c-23 -10 -84 -21 -146 -21c-129 0 -249 62 -249 199c0 105 69 166 120 203v10h-62l-66 229h-353l-74 -246h-284l370 1096h351l356 -1056c-89 -43 -154 -98 -157 -168c-3 -61 43 -100 118 -100c23 0 60 3 76 7v-153zM572 852h-14l-119 -408h250z" />
    <glyph glyph-name="B.sc" horiz-adv-x="1131" 
d="M133 0v1096h517c211 0 357 -99 357 -270c0 -143 -99 -219 -208 -238v-12c130 -9 262 -93 262 -265c0 -202 -182 -311 -401 -311h-527zM417 901v-247h132c122 0 178 49 178 125c0 79 -59 122 -151 122h-159zM417 477v-283h147c131 0 206 47 206 141c0 89 -64 142 -181 142
h-172z" />
    <glyph glyph-name="Blinebelow.sc" horiz-adv-x="1131" 
d="M840 -359h-590v157h590v-157zM133 0v1096h517c211 0 357 -99 357 -270c0 -143 -99 -219 -208 -238v-12c130 -9 262 -93 262 -265c0 -202 -182 -311 -401 -311h-527zM417 901v-247h132c122 0 178 49 178 125c0 79 -59 122 -151 122h-159zM417 477v-283h147
c131 0 206 47 206 141c0 89 -64 142 -181 142h-172z" />
    <glyph glyph-name="Bdotbelow.sc" horiz-adv-x="1131" 
d="M427 -259c0 69 53 122 119 122c67 0 120 -53 120 -122c0 -67 -53 -120 -120 -120c-66 0 -119 53 -119 120zM133 0v1096h517c211 0 357 -99 357 -270c0 -143 -99 -219 -208 -238v-12c130 -9 262 -93 262 -265c0 -202 -182 -311 -401 -311h-527zM417 901v-247h132
c122 0 178 49 178 125c0 79 -59 122 -151 122h-159zM417 477v-283h147c131 0 206 47 206 141c0 89 -64 142 -181 142h-172z" />
    <glyph glyph-name="Bdotaccent.sc" horiz-adv-x="1131" 
d="M412 1357c0 75 59 134 132 134c75 0 134 -59 134 -134c0 -74 -59 -132 -134 -132c-73 0 -132 58 -132 132zM133 0v1096h517c211 0 357 -99 357 -270c0 -143 -99 -219 -208 -238v-12c130 -9 262 -93 262 -265c0 -202 -182 -311 -401 -311h-527zM417 901v-247h132
c122 0 178 49 178 125c0 79 -59 122 -151 122h-159zM417 477v-283h147c131 0 206 47 206 141c0 89 -64 142 -181 142h-172z" />
    <glyph glyph-name="C.sc" horiz-adv-x="1146" 
d="M378 606v-119c0 -186 83 -280 216 -280c130 0 197 88 197 198h274v-34c0 -219 -183 -391 -475 -391c-321 0 -504 193 -504 508v118c0 314 184 509 504 509c289 0 475 -170 475 -397v-34h-274c0 109 -68 204 -198 204c-132 0 -215 -97 -215 -282z" />
    <glyph glyph-name="Cacute.sc" horiz-adv-x="1146" 
d="M665 1221h-195l207 294h243zM378 606v-119c0 -186 83 -280 216 -280c130 0 197 88 197 198h274v-34c0 -219 -183 -391 -475 -391c-321 0 -504 193 -504 508v118c0 314 184 509 504 509c289 0 475 -170 475 -397v-34h-274c0 109 -68 204 -198 204
c-132 0 -215 -97 -215 -282z" />
    <glyph glyph-name="Ccaron.sc" horiz-adv-x="1146" 
d="M253 1532h211l114 -172h6l113 172h212l-233 -311h-191zM378 606v-119c0 -186 83 -280 216 -280c130 0 197 88 197 198h274v-34c0 -219 -183 -391 -475 -391c-321 0 -504 193 -504 508v118c0 314 184 509 504 509c289 0 475 -170 475 -397v-34h-274
c0 109 -68 204 -198 204c-132 0 -215 -97 -215 -282z" />
    <glyph glyph-name="Ccircumflex.sc" horiz-adv-x="1146" 
d="M253 1221l232 311h191l233 -311h-212l-113 172h-6l-114 -172h-211zM378 606v-119c0 -186 83 -280 216 -280c130 0 197 88 197 198h274v-34c0 -219 -183 -391 -475 -391c-321 0 -504 193 -504 508v118c0 314 184 509 504 509c289 0 475 -170 475 -397v-34h-274
c0 109 -68 204 -198 204c-132 0 -215 -97 -215 -282z" />
    <glyph glyph-name="Cdotaccent.sc" horiz-adv-x="1146" 
d="M448 1357c0 75 59 134 132 134c75 0 134 -59 134 -134c0 -74 -59 -132 -134 -132c-73 0 -132 58 -132 132zM378 606v-119c0 -186 83 -280 216 -280c130 0 197 88 197 198h274v-34c0 -219 -183 -391 -475 -391c-321 0 -504 193 -504 508v118c0 314 184 509 504 509
c289 0 475 -170 475 -397v-34h-274c0 109 -68 204 -198 204c-132 0 -215 -97 -215 -282z" />
    <glyph glyph-name="Ccedilla.sc" horiz-adv-x="1146" 
d="M578 -472c-68 -1 -122 8 -146 16v125c27 -8 75 -13 111 -13c52 0 109 11 109 60s-39 59 -124 59h-55v104l41 105c-273 29 -428 215 -428 504v118c0 314 184 509 504 509c289 0 475 -170 475 -397v-34h-274c0 109 -68 204 -198 204c-132 0 -215 -97 -215 -282v-119
c0 -186 83 -280 216 -280c130 0 197 88 197 198h274v-34c0 -195 -145 -356 -390 -386l-36 -92c117 0 187 -62 187 -168c0 -136 -103 -194 -248 -197z" />
    <glyph glyph-name="Ccedillaacute.sc" horiz-adv-x="1146" 
d="M578 -472c-68 -1 -122 8 -146 16v125c27 -8 75 -13 111 -13c52 0 109 11 109 60s-39 59 -124 59h-55v104l41 105c-273 29 -428 215 -428 504v118c0 314 184 509 504 509c289 0 475 -170 475 -397v-34h-274c0 109 -68 204 -198 204c-132 0 -215 -97 -215 -282v-119
c0 -186 83 -280 216 -280c130 0 197 88 197 198h274v-34c0 -195 -145 -356 -390 -386l-36 -92c117 0 187 -62 187 -168c0 -136 -103 -194 -248 -197zM665 1221h-195l207 294h243z" />
    <glyph glyph-name="D.sc" horiz-adv-x="1191" 
d="M133 1096h459c373 0 523 -220 523 -544c0 -325 -151 -552 -523 -552h-459v1096zM420 879v-662h125c162 0 276 64 276 329c0 179 -55 333 -276 333h-125z" />
    <glyph glyph-name="Ddotaccent.sc" horiz-adv-x="1191" 
d="M133 1096h459c373 0 523 -220 523 -544c0 -325 -151 -552 -523 -552h-459v1096zM420 879v-662h125c162 0 276 64 276 329c0 179 -55 333 -276 333h-125zM427 1357c0 75 59 134 132 134c75 0 134 -59 134 -134c0 -74 -59 -132 -134 -132c-73 0 -132 58 -132 132z" />
    <glyph glyph-name="Dcircumflexbelow.sc" horiz-adv-x="1191" 
d="M133 1096h459c373 0 523 -220 523 -544c0 -325 -151 -552 -523 -552h-459v1096zM420 879v-662h125c162 0 276 64 276 329c0 179 -55 333 -276 333h-125zM235 -390l230 274h190l230 -274h-208l-112 151h-10l-112 -151h-208z" />
    <glyph glyph-name="Dcommaaccent.sc" horiz-adv-x="1191" 
d="M133 1096h459c373 0 523 -220 523 -544c0 -325 -151 -552 -523 -552h-459v1096zM420 879v-662h125c162 0 276 64 276 329c0 179 -55 333 -276 333h-125zM563 -489h-189l85 335h218z" />
    <glyph glyph-name="Dlinebelow.sc" horiz-adv-x="1191" 
d="M133 1096h459c373 0 523 -220 523 -544c0 -325 -151 -552 -523 -552h-459v1096zM420 879v-662h125c162 0 276 64 276 329c0 179 -55 333 -276 333h-125zM855 -359h-590v157h590v-157z" />
    <glyph glyph-name="Dcaron.sc" horiz-adv-x="1191" 
d="M133 1096h459c373 0 523 -220 523 -544c0 -325 -151 -552 -523 -552h-459v1096zM420 879v-662h125c162 0 276 64 276 329c0 179 -55 333 -276 333h-125zM232 1532h211l114 -172h6l113 172h212l-233 -311h-191z" />
    <glyph glyph-name="Ddotbelow.sc" horiz-adv-x="1191" 
d="M133 1096h459c373 0 523 -220 523 -544c0 -325 -151 -552 -523 -552h-459v1096zM420 879v-662h125c162 0 276 64 276 329c0 179 -55 333 -276 333h-125zM442 -259c0 69 53 122 119 122c67 0 120 -53 120 -122c0 -67 -53 -120 -120 -120c-66 0 -119 53 -119 120z" />
    <glyph glyph-name="Dcroat.sc" horiz-adv-x="1271" 
d="M672 0h-458v450h-142v206h142v440h458c374 0 524 -220 524 -544c0 -325 -152 -552 -524 -552zM500 223h124c161 0 275 64 275 329c0 179 -54 333 -275 333h-124v-244h177v-176h-177v-242z" />
    <glyph glyph-name="E.sc" horiz-adv-x="1016" 
d="M914 217v-217h-781v1096h781v-217h-497v-228h465v-200h-465v-234h497z" />
    <glyph glyph-name="Egrave.sc" horiz-adv-x="1016" 
d="M628 1221h-196l-254 294h243zM914 217v-217h-781v1096h781v-217h-497v-228h465v-200h-465v-234h497z" />
    <glyph glyph-name="Edblgrave.sc" horiz-adv-x="1016" 
d="M272 1221l-247 294h211l205 -294h-169zM615 1221l-247 294h211l204 -294h-168zM914 217v-217h-781v1096h781v-217h-497v-228h465v-200h-465v-234h497z" />
    <glyph glyph-name="Eacute.sc" horiz-adv-x="1016" 
d="M601 1221h-195l207 294h243zM914 217v-217h-781v1096h781v-217h-497v-228h465v-200h-465v-234h497z" />
    <glyph glyph-name="Ecircumflex.sc" horiz-adv-x="1016" 
d="M189 1221l232 311h191l233 -311h-212l-113 172h-6l-114 -172h-211zM914 217v-217h-781v1096h781v-217h-497v-228h465v-200h-465v-234h497z" />
    <glyph glyph-name="Ecircumflexhookabove.sc" horiz-adv-x="1016" 
d="M662 1678v119c20 10 59 18 107 18c134 0 216 -74 216 -183c0 -103 -67 -161 -157 -200l-74 92c60 28 86 54 86 94c0 43 -37 77 -97 77c-33 0 -64 -9 -81 -17zM189 1221l232 311h191l233 -311h-212l-113 172h-6l-114 -172h-211zM914 217v-217h-781v1096h781v-217h-497
v-228h465v-200h-465v-234h497z" />
    <glyph glyph-name="Ecircumflexgrave.sc" horiz-adv-x="1016" 
d="M1054 1444h-196l-254 294h243zM189 1221l232 311h191l233 -311h-212l-113 172h-6l-114 -172h-211zM914 217v-217h-781v1096h781v-217h-497v-228h465v-200h-465v-234h497z" />
    <glyph glyph-name="Ecircumflextilde.sc" horiz-adv-x="1016" 
d="M357 1642h-146c0 118 66 225 191 225c128 0 153 -112 221 -112c41 0 62 44 64 96h146c0 -119 -76 -231 -203 -231c-129 0 -151 113 -216 113c-46 0 -57 -59 -57 -91zM189 1221l232 311h191l233 -311h-212l-113 172h-6l-114 -172h-211zM914 217v-217h-781v1096h781v-217
h-497v-228h465v-200h-465v-234h497z" />
    <glyph glyph-name="Ecircumflexdotbelow.sc" horiz-adv-x="1016" 
d="M189 1221l232 311h191l233 -311h-212l-113 172h-6l-114 -172h-211zM914 217v-217h-781v1096h781v-217h-497v-228h465v-200h-465v-234h497zM399 -259c0 69 53 122 119 122c67 0 120 -53 120 -122c0 -67 -53 -120 -120 -120c-66 0 -119 53 -119 120z" />
    <glyph glyph-name="Ecircumflexacute.sc" horiz-adv-x="1016" 
d="M944 1444h-196l207 294h243zM189 1221l232 311h191l233 -311h-212l-113 172h-6l-114 -172h-211zM914 217v-217h-781v1096h781v-217h-497v-228h465v-200h-465v-234h497z" />
    <glyph glyph-name="Edieresis.sc" horiz-adv-x="1016" 
d="M327 1226c-66 0 -116 49 -116 116c0 69 50 119 116 119c68 0 118 -50 118 -119c0 -67 -50 -116 -118 -116zM715 1226c-66 0 -114 49 -114 116c0 69 48 119 114 119c69 0 120 -50 120 -119c0 -67 -51 -116 -120 -116zM914 217v-217h-781v1096h781v-217h-497v-228h465v-200
h-465v-234h497z" />
    <glyph glyph-name="Edotbelow.sc" horiz-adv-x="1016" 
d="M399 -259c0 69 53 122 119 122c67 0 120 -53 120 -122c0 -67 -53 -120 -120 -120c-66 0 -119 53 -119 120zM914 217v-217h-781v1096h781v-217h-497v-228h465v-200h-465v-234h497z" />
    <glyph glyph-name="Einvertedbreve.sc" horiz-adv-x="1016" 
d="M914 217v-217h-781v1096h781v-217h-497v-228h465v-200h-465v-234h497zM194 1245c0 163 112 314 323 314s320 -151 320 -314h-160c0 84 -49 164 -160 164s-160 -80 -160 -164h-163z" />
    <glyph glyph-name="Ehookabove.sc" horiz-adv-x="1016" 
d="M368 1445v120c21 10 60 18 109 18c136 0 220 -76 220 -186c0 -104 -68 -162 -160 -203l-76 93c62 29 88 56 88 96c0 43 -38 78 -99 78c-33 0 -64 -8 -82 -16zM914 217v-217h-781v1096h781v-217h-497v-228h465v-200h-465v-234h497z" />
    <glyph glyph-name="Ecaron.sc" horiz-adv-x="1016" 
d="M189 1532h211l114 -172h6l113 172h212l-233 -311h-191zM914 217v-217h-781v1096h781v-217h-497v-228h465v-200h-465v-234h497z" />
    <glyph glyph-name="Emacron.sc" horiz-adv-x="1016" 
d="M812 1257h-590v157h590v-157zM914 217v-217h-781v1096h781v-217h-497v-228h465v-200h-465v-234h497z" />
    <glyph glyph-name="Emacrongrave.sc" horiz-adv-x="1016" 
d="M914 217v-217h-781v1096h781v-217h-497v-228h465v-200h-465v-234h497zM628 1551h-196l-254 294h243zM812 1257h-590v157h590v-157z" />
    <glyph glyph-name="Emacronacute.sc" horiz-adv-x="1016" 
d="M608 1556h-195l207 294h243zM812 1257h-590v157h590v-157zM914 217v-217h-781v1096h781v-217h-497v-228h465v-200h-465v-234h497z" />
    <glyph glyph-name="Etilde.sc" horiz-adv-x="1016" 
d="M637 1208c-137 0 -176 121 -247 121c-53 0 -64 -65 -65 -98h-157c0 128 74 244 208 244c137 0 179 -121 254 -121c47 0 69 49 71 104h157c0 -130 -84 -250 -221 -250zM914 217v-217h-781v1096h781v-217h-497v-228h465v-200h-465v-234h497z" />
    <glyph glyph-name="Ecircumflexbelow.sc" horiz-adv-x="1016" 
d="M914 217v-217h-781v1096h781v-217h-497v-228h465v-200h-465v-234h497zM192 -390l230 274h190l230 -274h-208l-112 151h-10l-112 -151h-208z" />
    <glyph glyph-name="Ebreve.sc" horiz-adv-x="1016" 
d="M201 1518h159c0 -82 48 -160 157 -160s156 78 156 160h157c-1 -157 -106 -305 -313 -305s-316 147 -316 305zM914 217v-217h-781v1096h781v-217h-497v-228h465v-200h-465v-234h497z" />
    <glyph glyph-name="Etildebelow.sc" horiz-adv-x="1016" 
d="M641 -382c-134 0 -173 118 -241 118c-49 0 -60 -62 -61 -95h-153c0 124 70 237 201 237c134 0 175 -118 247 -118c43 0 66 46 68 101h153c0 -126 -80 -243 -214 -243zM914 217v-217h-781v1096h781v-217h-497v-228h465v-200h-465v-234h497z" />
    <glyph glyph-name="Edotaccent.sc" horiz-adv-x="1016" 
d="M384 1357c0 75 59 134 132 134c75 0 134 -59 134 -134c0 -74 -59 -132 -134 -132c-73 0 -132 58 -132 132zM914 217v-217h-781v1096h781v-217h-497v-228h465v-200h-465v-234h497z" />
    <glyph glyph-name="Ecedilla.sc" horiz-adv-x="1016" 
d="M504 -482c-68 -2 -121 8 -146 15v126c27 -8 76 -14 111 -14c52 0 109 11 109 60c0 50 -44 59 -128 59h-55v105l49 131h-311v1096h781v-218h-497v-228h465v-199h-465v-234h497v-217h-308l-46 -117c117 0 192 -63 192 -169c0 -135 -102 -193 -248 -196z" />
    <glyph glyph-name="Ecedillabreve.sc" horiz-adv-x="1016" 
d="M504 -482c-68 -2 -121 8 -146 15v126c27 -8 76 -14 111 -14c52 0 109 11 109 60c0 50 -44 59 -128 59h-55v105l49 131h-311v1096h781v-218h-497v-228h465v-199h-465v-234h497v-217h-308l-46 -117c117 0 192 -63 192 -169c0 -135 -102 -193 -248 -196zM201 1518h159
c0 -82 48 -160 157 -160s156 78 156 160h157c-1 -157 -106 -305 -313 -305s-316 147 -316 305z" />
    <glyph glyph-name="Eogonek.sc" horiz-adv-x="1016" 
d="M772 -390c-131 0 -247 62 -247 200c0 78 46 139 106 180v10h-498v1096h781v-218h-497v-228h465v-199h-465v-234h497v-168c-109 -28 -194 -95 -194 -176c0 -62 49 -96 119 -96c23 0 58 4 75 8v-154c-31 -10 -90 -21 -142 -21z" />
    <glyph glyph-name="F.sc" horiz-adv-x="972" 
d="M420 0h-287v1096h776v-221h-489v-254h444v-213h-444v-408z" />
    <glyph glyph-name="Fdotaccent.sc" horiz-adv-x="972" 
d="M420 0h-287v1096h776v-221h-489v-254h444v-213h-444v-408zM368 1357c0 75 59 134 132 134c75 0 134 -59 134 -134c0 -74 -59 -132 -134 -132c-73 0 -132 58 -132 132z" />
    <glyph glyph-name="G.sc" horiz-adv-x="1167" 
d="M1080 731h-278c-11 94 -89 159 -203 159c-135 0 -223 -91 -223 -276v-127c0 -156 57 -282 228 -282c131 0 207 78 207 166v41h-196v193h466v-212c0 -193 -128 -413 -483 -413c-361 0 -512 227 -512 506v131c0 295 186 498 516 498c320 0 473 -193 478 -384z" />
    <glyph glyph-name="Gacute.sc" horiz-adv-x="1167" 
d="M1080 731h-278c-11 94 -89 159 -203 159c-135 0 -223 -91 -223 -276v-127c0 -156 57 -282 228 -282c131 0 207 78 207 166v41h-196v193h466v-212c0 -193 -128 -413 -483 -413c-361 0 -512 227 -512 506v131c0 295 186 498 516 498c320 0 473 -193 478 -384zM675 1221
h-195l207 294h243z" />
    <glyph glyph-name="Gcaron.sc" horiz-adv-x="1167" 
d="M1080 731h-278c-11 94 -89 159 -203 159c-135 0 -223 -91 -223 -276v-127c0 -156 57 -282 228 -282c131 0 207 78 207 166v41h-196v193h466v-212c0 -193 -128 -413 -483 -413c-361 0 -512 227 -512 506v131c0 295 186 498 516 498c320 0 473 -193 478 -384zM263 1532h211
l114 -172h6l113 172h212l-233 -311h-191z" />
    <glyph glyph-name="Gcircumflex.sc" horiz-adv-x="1167" 
d="M1080 731h-278c-11 94 -89 159 -203 159c-135 0 -223 -91 -223 -276v-127c0 -156 57 -282 228 -282c131 0 207 78 207 166v41h-196v193h466v-212c0 -193 -128 -413 -483 -413c-361 0 -512 227 -512 506v131c0 295 186 498 516 498c320 0 473 -193 478 -384zM263 1221
l232 311h191l233 -311h-212l-113 172h-6l-114 -172h-211z" />
    <glyph glyph-name="Gbreve.sc" horiz-adv-x="1167" 
d="M1080 731h-278c-11 94 -89 159 -203 159c-135 0 -223 -91 -223 -276v-127c0 -156 57 -282 228 -282c131 0 207 78 207 166v41h-196v193h466v-212c0 -193 -128 -413 -483 -413c-361 0 -512 227 -512 506v131c0 295 186 498 516 498c320 0 473 -193 478 -384zM275 1518h159
c0 -82 48 -160 157 -160s156 78 156 160h157c-1 -157 -106 -305 -313 -305s-316 147 -316 305z" />
    <glyph glyph-name="Gmacron.sc" horiz-adv-x="1167" 
d="M1080 731h-278c-11 94 -89 159 -203 159c-135 0 -223 -91 -223 -276v-127c0 -156 57 -282 228 -282c131 0 207 78 207 166v41h-196v193h466v-212c0 -193 -128 -413 -483 -413c-361 0 -512 227 -512 506v131c0 295 186 498 516 498c320 0 473 -193 478 -384zM886 1257
h-590v157h590v-157z" />
    <glyph glyph-name="Gdotaccent.sc" horiz-adv-x="1167" 
d="M1080 731h-278c-11 94 -89 159 -203 159c-135 0 -223 -91 -223 -276v-127c0 -156 57 -282 228 -282c131 0 207 78 207 166v41h-196v193h466v-212c0 -193 -128 -413 -483 -413c-361 0 -512 227 -512 506v131c0 295 186 498 516 498c320 0 473 -193 478 -384zM458 1357
c0 75 59 134 132 134c75 0 134 -59 134 -134c0 -74 -59 -132 -134 -132c-73 0 -132 58 -132 132z" />
    <glyph glyph-name="Gcommaaccent.sc" horiz-adv-x="1167" 
d="M1080 731h-278c-11 94 -89 159 -203 159c-135 0 -223 -91 -223 -276v-127c0 -156 57 -282 228 -282c131 0 207 78 207 166v41h-196v193h466v-212c0 -193 -128 -413 -483 -413c-361 0 -512 227 -512 506v131c0 295 186 498 516 498c320 0 473 -193 478 -384zM592 -489
h-189l85 335h218z" />
    <glyph glyph-name="H.sc" horiz-adv-x="1256" 
d="M1123 0h-287v443h-416v-443h-287v1096h287v-431h416v431h287v-1096z" />
    <glyph glyph-name="Hdieresis.sc" horiz-adv-x="1256" 
d="M1123 0h-287v443h-416v-443h-287v1096h287v-431h416v431h287v-1096zM435 1226c-66 0 -116 49 -116 116c0 69 50 119 116 119c68 0 118 -50 118 -119c0 -67 -50 -116 -118 -116zM823 1226c-66 0 -114 49 -114 116c0 69 48 119 114 119c69 0 120 -50 120 -119
c0 -67 -51 -116 -120 -116z" />
    <glyph glyph-name="Hcaron.sc" horiz-adv-x="1256" 
d="M296 1532h211l114 -172h6l113 172h212l-233 -311h-191zM1123 0h-287v443h-416v-443h-287v1096h287v-431h416v431h287v-1096z" />
    <glyph glyph-name="Hcircumflex.sc" horiz-adv-x="1256" 
d="M302 1221l232 311h191l233 -311h-212l-113 172h-6l-114 -172h-211zM1123 0h-287v443h-416v-443h-287v1096h287v-431h416v431h287v-1096z" />
    <glyph glyph-name="Hdotbelow.sc" horiz-adv-x="1256" 
d="M507 -259c0 69 53 122 119 122c67 0 120 -53 120 -122c0 -67 -53 -120 -120 -120c-66 0 -119 53 -119 120zM1123 0h-287v443h-416v-443h-287v1096h287v-431h416v431h287v-1096z" />
    <glyph glyph-name="Hdotaccent.sc" horiz-adv-x="1256" 
d="M495 1357c0 75 59 134 132 134c75 0 134 -59 134 -134c0 -74 -59 -132 -134 -132c-73 0 -132 58 -132 132zM1123 0h-287v443h-416v-443h-287v1096h287v-431h416v431h287v-1096z" />
    <glyph glyph-name="Hbrevebelow.sc" horiz-adv-x="1256" 
d="M1123 0h-287v443h-416v-443h-287v1096h287v-431h416v431h287v-1096zM792 -127h161c0 -163 -107 -313 -325 -313s-332 147 -332 313h168c0 -84 51 -164 164 -164s164 80 164 164z" />
    <glyph glyph-name="Hcedilla.sc" horiz-adv-x="1256" 
d="M318 -482c-68 -2 -121 8 -146 15v126c27 -8 76 -14 111 -14c52 0 109 11 109 60c0 50 -44 59 -128 59h-55v105l49 131h-125v1096h287v-431h416v431h287v-1096h-287v443h-416v-443l-46 -117c117 0 192 -63 192 -169c0 -135 -102 -193 -248 -196z" />
    <glyph glyph-name="Hbar.sc" horiz-adv-x="1254" 
d="M420 655h416v141h-416v-141zM420 433v-433h-287v796h-69v159h69v141h287v-141h416v141h287v-141h68v-159h-68v-796h-287v433h-416z" />
    <glyph glyph-name="I.sc" horiz-adv-x="553" 
d="M420 0h-287v1096h287v-1096z" />
    <glyph glyph-name="Idotaccent.sc" horiz-adv-x="553" 
d="M143 1357c0 75 59 134 132 134c75 0 134 -59 134 -134c0 -74 -59 -132 -134 -132c-73 0 -132 58 -132 132zM420 0h-287v1096h287v-1096z" />
    <glyph glyph-name="Igrave.sc" horiz-adv-x="553" 
d="M387 1221h-196l-254 294h243zM420 0h-287v1096h287v-1096z" />
    <glyph glyph-name="Idblgrave.sc" horiz-adv-x="553" 
d="M420 0h-287v1096h287v-1096zM31 1221l-247 294h211l205 -294h-169zM374 1221l-247 294h211l204 -294h-168z" />
    <glyph glyph-name="Iacute.sc" horiz-adv-x="553" 
d="M360 1221h-195l207 294h243zM420 0h-287v1096h287v-1096z" />
    <glyph glyph-name="Icircumflex.sc" horiz-adv-x="553" 
d="M-52 1221l232 311h191l233 -311h-212l-113 172h-6l-114 -172h-211zM420 0h-287v1096h287v-1096z" />
    <glyph glyph-name="Icaron.sc" horiz-adv-x="553" 
d="M-52 1532h211l114 -172h6l113 172h212l-233 -311h-191zM420 0h-287v1096h287v-1096z" />
    <glyph glyph-name="Idieresis.sc" horiz-adv-x="553" 
d="M419 0h-287v1096h287v-1096zM86 1226c-66 0 -116 49 -116 116c0 69 50 119 116 119c68 0 118 -50 118 -119c0 -67 -50 -116 -118 -116zM474 1226c-66 0 -114 49 -114 116c0 69 48 119 114 119c69 0 120 -50 120 -119c0 -67 -51 -116 -120 -116z" />
    <glyph glyph-name="Idieresisacute.sc" horiz-adv-x="553" 
d="M367 1556h-195l207 294h243zM86 1226c-66 0 -116 49 -116 116c0 69 50 119 116 119c68 0 118 -50 118 -119c0 -67 -50 -116 -118 -116zM474 1226c-66 0 -114 49 -114 116c0 69 48 119 114 119c69 0 120 -50 120 -119c0 -67 -51 -116 -120 -116zM420 0h-287v1096h287
v-1096z" />
    <glyph glyph-name="Ibreve.sc" horiz-adv-x="553" 
d="M420 0h-287v1096h287v-1096zM-40 1518h159c0 -82 48 -160 157 -160s156 78 156 160h157c-1 -157 -106 -305 -313 -305s-316 147 -316 305z" />
    <glyph glyph-name="Idotbelow.sc" horiz-adv-x="553" 
d="M158 -259c0 69 53 122 119 122c67 0 120 -53 120 -122c0 -67 -53 -120 -120 -120c-66 0 -119 53 -119 120zM421 0h-287v1096h287v-1096z" />
    <glyph glyph-name="Iinvertedbreve.sc" horiz-adv-x="553" 
d="M420 0h-287v1096h287v-1096zM-47 1245c0 163 112 314 323 314s320 -151 320 -314h-160c0 84 -49 164 -160 164s-160 -80 -160 -164h-163z" />
    <glyph glyph-name="Imacron.sc" horiz-adv-x="553" 
d="M419 0h-287v1096h287v-1096zM571 1257h-590v157h590v-157z" />
    <glyph glyph-name="Itildebelow.sc" horiz-adv-x="553" 
d="M400 -382c-134 0 -173 118 -241 118c-49 0 -60 -62 -61 -95h-153c0 124 70 237 201 237c134 0 175 -118 247 -118c43 0 66 46 68 101h153c0 -126 -80 -243 -214 -243zM420 0h-287v1096h287v-1096z" />
    <glyph glyph-name="Ihookabove.sc" horiz-adv-x="553" 
d="M420 0h-287v1096h287v-1096zM127 1445v120c21 10 60 18 109 18c136 0 220 -76 220 -186c0 -104 -68 -162 -160 -203l-76 93c62 29 88 56 88 96c0 43 -38 78 -99 78c-33 0 -64 -8 -82 -16z" />
    <glyph glyph-name="Itilde.sc" horiz-adv-x="553" 
d="M420 0h-287v1096h287v-1096zM396 1208c-137 0 -176 121 -247 121c-53 0 -64 -65 -65 -98h-157c0 128 74 244 208 244c137 0 179 -121 254 -121c47 0 69 49 71 104h157c0 -130 -84 -250 -221 -250z" />
    <glyph glyph-name="Iogonek.sc" horiz-adv-x="553" 
d="M450 -366c-20 -10 -77 -24 -141 -24c-156 0 -246 85 -246 204c0 101 58 155 110 196v8h-40v1078h287v-1054c-113 -45 -154 -105 -154 -171c0 -61 50 -95 114 -95c22 0 54 4 70 9v-151z" />
    <glyph glyph-name="J.sc" horiz-adv-x="1003" 
d="M44 359h275c1 -85 56 -137 136 -137c93 0 138 51 138 151v723h287v-723c0 -264 -164 -393 -422 -393c-287 0 -414 184 -414 379z" />
    <glyph glyph-name="Jcircumflex.sc" horiz-adv-x="1003" 
d="M412 1221l232 311h191l233 -311h-212l-113 172h-6l-114 -172h-211zM44 359h275c1 -85 56 -137 136 -137c93 0 138 51 138 151v723h287v-723c0 -264 -164 -393 -422 -393c-287 0 -414 184 -414 379z" />
    <glyph glyph-name="K.sc" horiz-adv-x="1153" 
d="M1130 1096l-399 -476l413 -620h-337l-286 438l-101 -112v-326h-287v1096h287v-461h13l391 461h306z" />
    <glyph glyph-name="Kacute.sc" horiz-adv-x="1153" 
d="M659 1221h-195l207 294h243zM1130 1096l-399 -476l413 -620h-337l-286 438l-101 -112v-326h-287v1096h287v-461h13l391 461h306z" />
    <glyph glyph-name="Kcaron.sc" horiz-adv-x="1153" 
d="M247 1532h211l114 -172h6l113 172h212l-233 -311h-191zM1130 1096l-399 -476l413 -620h-337l-286 438l-101 -112v-326h-287v1096h287v-461h13l391 461h306z" />
    <glyph glyph-name="Kdotbelow.sc" horiz-adv-x="1153" 
d="M458 -259c0 69 53 122 119 122c67 0 120 -53 120 -122c0 -67 -53 -120 -120 -120c-66 0 -119 53 -119 120zM1130 1096l-399 -476l413 -620h-337l-286 438l-101 -112v-326h-287v1096h287v-461h13l391 461h306z" />
    <glyph glyph-name="Klinebelow.sc" horiz-adv-x="1153" 
d="M871 -359h-590v157h590v-157zM1130 1096l-399 -476l413 -620h-337l-286 438l-101 -112v-326h-287v1096h287v-461h13l391 461h306z" />
    <glyph glyph-name="Kcommaaccent.sc" horiz-adv-x="1153" 
d="M579 -489h-189l85 335h218zM1130 1096l-399 -476l413 -620h-337l-286 438l-101 -112v-326h-287v1096h287v-461h13l391 461h306z" />
    <glyph glyph-name="L.sc" horiz-adv-x="924" 
d="M880 228v-228h-747v1096h287v-868h460z" />
    <glyph glyph-name="Lacute.sc" horiz-adv-x="924" 
d="M880 228v-228h-747v1096h287v-868h460zM363 1221h-195l207 294h243z" />
    <glyph glyph-name="Lcircumflexbelow.sc" horiz-adv-x="924" 
d="M880 228v-228h-747v1096h287v-868h460zM152 -390l230 274h190l230 -274h-208l-112 151h-10l-112 -151h-208z" />
    <glyph glyph-name="Ldotbelow.sc" horiz-adv-x="924" 
d="M880 228v-228h-747v1096h287v-868h460zM359 -259c0 69 53 122 119 122c67 0 120 -53 120 -122c0 -67 -53 -120 -120 -120c-66 0 -119 53 -119 120z" />
    <glyph glyph-name="Ldotbelowmacron.sc" horiz-adv-x="924" 
d="M880 228v-228h-747v1096h287v-868h460zM359 -259c0 69 53 122 119 122c67 0 120 -53 120 -122c0 -67 -53 -120 -120 -120c-66 0 -119 53 -119 120zM574 1257h-590v157h590v-157z" />
    <glyph glyph-name="Llinebelow.sc" horiz-adv-x="924" 
d="M880 228v-228h-747v1096h287v-868h460zM772 -359h-590v157h590v-157z" />
    <glyph glyph-name="Lcommaaccent.sc" horiz-adv-x="924" 
d="M880 228v-228h-747v1096h287v-868h460zM480 -489h-189l85 335h218z" />
    <glyph glyph-name="Lcaron.sc" horiz-adv-x="924" 
d="M570 1180h230l-50 -488h-180v488zM880 228v-228h-747v1096h287v-868h460z" />
    <glyph glyph-name="Lslash.sc" horiz-adv-x="953" 
d="M908 0h-746v400l-97 -51v217l97 52v478h286v-325l237 126v-219l-237 -125v-325h460v-228z" />
    <glyph glyph-name="M.sc" horiz-adv-x="1453" 
d="M389 0h-254v1096h296l291 -603h10l292 603h294v-1096h-258v671h-13l-238 -499h-166l-240 499h-14v-671z" />
    <glyph glyph-name="Macute.sc" horiz-adv-x="1453" 
d="M810 1221h-195l207 294h243zM389 0h-254v1096h296l291 -603h10l292 603h294v-1096h-258v671h-13l-238 -499h-166l-240 499h-14v-671z" />
    <glyph glyph-name="Mdotaccent.sc" horiz-adv-x="1453" 
d="M593 1357c0 75 59 134 132 134c75 0 134 -59 134 -134c0 -74 -59 -132 -134 -132c-73 0 -132 58 -132 132zM389 0h-254v1096h296l291 -603h10l292 603h294v-1096h-258v671h-13l-238 -499h-166l-240 499h-14v-671z" />
    <glyph glyph-name="Mdotbelow.sc" horiz-adv-x="1453" 
d="M607 -259c0 69 53 122 119 122c67 0 120 -53 120 -122c0 -67 -53 -120 -120 -120c-66 0 -119 53 -119 120zM389 0h-254v1096h296l291 -603h10l292 603h294v-1096h-258v671h-13l-238 -499h-166l-240 499h-14v-671z" />
    <glyph glyph-name="N.sc" horiz-adv-x="1225" 
d="M399 0h-266v1096h226l455 -632h11v632h267v-1096h-224l-458 638h-11v-638z" />
    <glyph glyph-name="Ngrave.sc" horiz-adv-x="1225" 
d="M399 0h-266v1096h226l455 -632h11v632h267v-1096h-224l-458 638h-11v-638zM723 1221h-196l-254 294h243z" />
    <glyph glyph-name="Nacute.sc" horiz-adv-x="1225" 
d="M399 0h-266v1096h226l455 -632h11v632h267v-1096h-224l-458 638h-11v-638zM696 1221h-195l207 294h243z" />
    <glyph glyph-name="Ntilde.sc" horiz-adv-x="1225" 
d="M399 0h-266v1096h226l455 -632h11v632h267v-1096h-224l-458 638h-11v-638zM732 1208c-137 0 -176 121 -247 121c-53 0 -64 -65 -65 -98h-157c0 128 74 244 208 244c137 0 179 -121 254 -121c47 0 69 49 71 104h157c0 -130 -84 -250 -221 -250z" />
    <glyph glyph-name="Ndotbelow.sc" horiz-adv-x="1225" 
d="M493 -259c0 69 53 122 119 122c67 0 120 -53 120 -122c0 -67 -53 -120 -120 -120c-66 0 -119 53 -119 120zM399 0h-266v1096h226l455 -632h11v632h267v-1096h-224l-458 638h-11v-638z" />
    <glyph glyph-name="Ndotaccent.sc" horiz-adv-x="1225" 
d="M399 0h-266v1096h226l455 -632h11v632h267v-1096h-224l-458 638h-11v-638zM479 1357c0 75 59 134 132 134c75 0 134 -59 134 -134c0 -74 -59 -132 -134 -132c-73 0 -132 58 -132 132z" />
    <glyph glyph-name="Ncaron.sc" horiz-adv-x="1225" 
d="M285 1532h211l114 -172h6l113 172h212l-233 -311h-191zM399 0h-266v1096h226l455 -632h11v632h267v-1096h-224l-458 638h-11v-638z" />
    <glyph glyph-name="Ncircumflexbelow.sc" horiz-adv-x="1225" 
d="M399 0h-266v1096h226l455 -632h11v632h267v-1096h-224l-458 638h-11v-638zM287 -390l230 274h190l230 -274h-208l-112 151h-10l-112 -151h-208z" />
    <glyph glyph-name="Nlinebelow.sc" horiz-adv-x="1225" 
d="M399 0h-266v1096h226l455 -632h11v632h267v-1096h-224l-458 638h-11v-638zM908 -359h-590v157h590v-157z" />
    <glyph glyph-name="Ncommaaccent.sc" horiz-adv-x="1225" 
d="M399 0h-266v1096h226l455 -632h11v632h267v-1096h-224l-458 638h-11v-638zM615 -489h-189l85 335h218z" />
    <glyph glyph-name="O.sc" horiz-adv-x="1208" 
d="M378 610v-129c0 -185 91 -278 226 -278s226 93 226 278v129c0 185 -91 282 -226 282s-226 -97 -226 -282zM86 482v125c0 311 190 508 519 508s517 -199 517 -508v-125c0 -308 -189 -502 -518 -502s-518 194 -518 502z" />
    <glyph glyph-name="Odieresis.sc" horiz-adv-x="1208" 
d="M378 610v-129c0 -185 91 -278 226 -278s226 93 226 278v129c0 185 -91 282 -226 282s-226 -97 -226 -282zM86 482v125c0 311 190 508 519 508s517 -199 517 -508v-125c0 -308 -189 -502 -518 -502s-518 194 -518 502zM415 1226c-66 0 -116 49 -116 116
c0 69 50 119 116 119c68 0 118 -50 118 -119c0 -67 -50 -116 -118 -116zM803 1226c-66 0 -114 49 -114 116c0 69 48 119 114 119c69 0 120 -50 120 -119c0 -67 -51 -116 -120 -116z" />
    <glyph glyph-name="Oslash.sc" horiz-adv-x="1208" 
d="M604 -20c-128 0 -235 30 -317 87l-83 -97l-117 91l91 106c-60 82 -92 189 -92 315v125c0 311 190 508 519 508c126 0 233 -30 315 -85l70 82l121 -85l-84 -97c62 -84 95 -194 95 -323v-125c0 -308 -189 -502 -518 -502zM363 465c0 -36 3 -55 9 -73l390 460
c-41 39 -96 59 -159 59c-144 0 -240 -103 -240 -297v-149zM603 182c149 0 242 98 242 293v149c0 40 -5 60 -12 81l-392 -464c40 -40 97 -59 162 -59z" />
    <glyph glyph-name="Otilde.sc" horiz-adv-x="1208" 
d="M378 610v-129c0 -185 91 -278 226 -278s226 93 226 278v129c0 185 -91 282 -226 282s-226 -97 -226 -282zM86 482v125c0 311 190 508 519 508s517 -199 517 -508v-125c0 -308 -189 -502 -518 -502s-518 194 -518 502zM724 1208c-137 0 -176 121 -247 121
c-53 0 -64 -65 -65 -98h-157c0 128 74 244 208 244c137 0 179 -121 254 -121c47 0 69 49 71 104h157c0 -130 -84 -250 -221 -250z" />
    <glyph glyph-name="Oacute.sc" horiz-adv-x="1208" 
d="M378 610v-129c0 -185 91 -278 226 -278s226 93 226 278v129c0 185 -91 282 -226 282s-226 -97 -226 -282zM86 482v125c0 311 190 508 519 508s517 -199 517 -508v-125c0 -308 -189 -502 -518 -502s-518 194 -518 502zM688 1221h-195l207 294h243z" />
    <glyph glyph-name="Ocircumflex.sc" horiz-adv-x="1208" 
d="M378 610v-129c0 -185 91 -278 226 -278s226 93 226 278v129c0 185 -91 282 -226 282s-226 -97 -226 -282zM86 482v125c0 311 190 508 519 508s517 -199 517 -508v-125c0 -308 -189 -502 -518 -502s-518 194 -518 502zM276 1221l232 311h191l233 -311h-212l-113 172h-6
l-114 -172h-211z" />
    <glyph glyph-name="Ograve.sc" horiz-adv-x="1208" 
d="M378 610v-129c0 -185 91 -278 226 -278s226 93 226 278v129c0 185 -91 282 -226 282s-226 -97 -226 -282zM86 482v125c0 311 190 508 519 508s517 -199 517 -508v-125c0 -308 -189 -502 -518 -502s-518 194 -518 502zM715 1221h-196l-254 294h243z" />
    <glyph glyph-name="Ocircumflexhookabove.sc" horiz-adv-x="1208" 
d="M378 610v-129c0 -185 91 -278 226 -278s226 93 226 278v129c0 185 -91 282 -226 282s-226 -97 -226 -282zM86 482v125c0 311 190 508 519 508s517 -199 517 -508v-125c0 -308 -189 -502 -518 -502s-518 194 -518 502zM749 1678v119c20 10 59 18 107 18
c134 0 216 -74 216 -183c0 -103 -67 -161 -157 -200l-74 92c60 28 86 54 86 94c0 43 -37 77 -97 77c-33 0 -64 -9 -81 -17zM276 1221l232 311h191l233 -311h-212l-113 172h-6l-114 -172h-211z" />
    <glyph glyph-name="Ocircumflexgrave.sc" horiz-adv-x="1208" 
d="M378 610v-129c0 -185 91 -278 226 -278s226 93 226 278v129c0 185 -91 282 -226 282s-226 -97 -226 -282zM86 482v125c0 311 190 508 519 508s517 -199 517 -508v-125c0 -308 -189 -502 -518 -502s-518 194 -518 502zM1141 1444h-196l-254 294h243zM276 1221l232 311h191
l233 -311h-212l-113 172h-6l-114 -172h-211z" />
    <glyph glyph-name="Odotbelow.sc" horiz-adv-x="1208" 
d="M378 610v-129c0 -185 91 -278 226 -278s226 93 226 278v129c0 185 -91 282 -226 282s-226 -97 -226 -282zM86 482v125c0 311 190 508 519 508s517 -199 517 -508v-125c0 -308 -189 -502 -518 -502s-518 194 -518 502zM485 -259c0 69 53 122 119 122
c67 0 120 -53 120 -122c0 -67 -53 -120 -120 -120c-66 0 -119 53 -119 120z" />
    <glyph glyph-name="Odblgrave.sc" horiz-adv-x="1208" 
d="M378 610v-129c0 -185 91 -278 226 -278s226 93 226 278v129c0 185 -91 282 -226 282s-226 -97 -226 -282zM86 482v125c0 311 190 508 519 508s517 -199 517 -508v-125c0 -308 -189 -502 -518 -502s-518 194 -518 502zM359 1221l-247 294h211l205 -294h-169zM702 1221
l-247 294h211l204 -294h-168z" />
    <glyph glyph-name="Otildeacute.sc" horiz-adv-x="1208" 
d="M378 610v-129c0 -185 91 -278 226 -278s226 93 226 278v129c0 185 -91 282 -226 282s-226 -97 -226 -282zM86 482v125c0 311 190 508 519 508s517 -199 517 -508v-125c0 -308 -189 -502 -518 -502s-518 194 -518 502zM693 1556h-195l207 294h243zM719 1208
c-137 0 -176 121 -247 121c-53 0 -64 -65 -65 -98h-157c0 128 74 244 208 244c137 0 179 -121 254 -121c47 0 69 49 71 104h157c0 -130 -84 -250 -221 -250z" />
    <glyph glyph-name="Omacronacute.sc" horiz-adv-x="1208" 
d="M378 610v-129c0 -185 91 -278 226 -278s226 93 226 278v129c0 185 -91 282 -226 282s-226 -97 -226 -282zM86 482v125c0 311 190 508 519 508s517 -199 517 -508v-125c0 -308 -189 -502 -518 -502s-518 194 -518 502zM695 1556h-195l207 294h243zM899 1257h-590v157h590
v-157z" />
    <glyph glyph-name="Ocircumflextilde.sc" horiz-adv-x="1208" 
d="M378 610v-129c0 -185 91 -278 226 -278s226 93 226 278v129c0 185 -91 282 -226 282s-226 -97 -226 -282zM86 482v125c0 311 190 508 519 508s517 -199 517 -508v-125c0 -308 -189 -502 -518 -502s-518 194 -518 502zM444 1642h-146c0 118 66 225 191 225
c128 0 153 -112 221 -112c41 0 62 44 64 96h146c0 -119 -76 -231 -203 -231c-129 0 -151 113 -216 113c-46 0 -57 -59 -57 -91zM276 1221l232 311h191l233 -311h-212l-113 172h-6l-114 -172h-211z" />
    <glyph glyph-name="Odotaccentmacron.sc" horiz-adv-x="1208" 
d="M378 610v-129c0 -185 91 -278 226 -278s226 93 226 278v129c0 185 -91 282 -226 282s-226 -97 -226 -282zM86 482v125c0 311 190 508 519 508s517 -199 517 -508v-125c0 -308 -189 -502 -518 -502s-518 194 -518 502zM469 1342c0 75 59 134 132 134
c75 0 134 -59 134 -134c0 -74 -59 -132 -134 -132c-73 0 -132 58 -132 132zM899 1583h-590v157h590v-157z" />
    <glyph glyph-name="Omacrongrave.sc" horiz-adv-x="1208" 
d="M378 610v-129c0 -185 91 -278 226 -278s226 93 226 278v129c0 185 -91 282 -226 282s-226 -97 -226 -282zM86 482v125c0 311 190 508 519 508s517 -199 517 -508v-125c0 -308 -189 -502 -518 -502s-518 194 -518 502zM715 1551h-196l-254 294h243zM899 1257h-590v157h590
v-157z" />
    <glyph glyph-name="Ocaron.sc" horiz-adv-x="1208" 
d="M378 610v-129c0 -185 91 -278 226 -278s226 93 226 278v129c0 185 -91 282 -226 282s-226 -97 -226 -282zM86 482v125c0 311 190 508 519 508s517 -199 517 -508v-125c0 -308 -189 -502 -518 -502s-518 194 -518 502zM273 1532h211l114 -172h6l113 172h212l-233 -311
h-191z" />
    <glyph glyph-name="Oslashacute.sc" horiz-adv-x="1208" 
d="M688 1221h-195l207 294h243zM604 -20c-128 0 -235 30 -317 87l-83 -97l-117 91l91 106c-60 82 -92 189 -92 315v125c0 311 190 508 519 508c126 0 233 -30 315 -85l70 82l121 -85l-84 -97c62 -84 95 -194 95 -323v-125c0 -308 -189 -502 -518 -502zM363 465
c0 -36 3 -55 9 -73l390 460c-41 39 -96 59 -159 59c-144 0 -240 -103 -240 -297v-149zM603 182c149 0 242 98 242 293v149c0 40 -5 60 -12 81l-392 -464c40 -40 97 -59 162 -59z" />
    <glyph glyph-name="Ohungarumlaut.sc" horiz-adv-x="1208" 
d="M378 610v-129c0 -185 91 -278 226 -278s226 93 226 278v129c0 185 -91 282 -226 282s-226 -97 -226 -282zM86 482v125c0 311 190 508 519 508s517 -199 517 -508v-125c0 -308 -189 -502 -518 -502s-518 194 -518 502zM482 1221h-168l206 294h210zM826 1221h-169l206 294
h210z" />
    <glyph glyph-name="Obreve.sc" horiz-adv-x="1208" 
d="M378 610v-129c0 -185 91 -278 226 -278s226 93 226 278v129c0 185 -91 282 -226 282s-226 -97 -226 -282zM86 482v125c0 311 190 508 519 508s517 -199 517 -508v-125c0 -308 -189 -502 -518 -502s-518 194 -518 502zM288 1518h159c0 -82 48 -160 157 -160
s156 78 156 160h157c-1 -157 -106 -305 -313 -305s-316 147 -316 305z" />
    <glyph glyph-name="Oinvertedbreve.sc" horiz-adv-x="1208" 
d="M378 610v-129c0 -185 91 -278 226 -278s226 93 226 278v129c0 185 -91 282 -226 282s-226 -97 -226 -282zM86 482v125c0 311 190 508 519 508s517 -199 517 -508v-125c0 -308 -189 -502 -518 -502s-518 194 -518 502zM281 1245c0 163 112 314 323 314s320 -151 320 -314
h-160c0 84 -49 164 -160 164s-160 -80 -160 -164h-163z" />
    <glyph glyph-name="Ohookabove.sc" horiz-adv-x="1208" 
d="M378 610v-129c0 -185 91 -278 226 -278s226 93 226 278v129c0 185 -91 282 -226 282s-226 -97 -226 -282zM86 482v125c0 311 190 508 519 508s517 -199 517 -508v-125c0 -308 -189 -502 -518 -502s-518 194 -518 502zM455 1445v120c21 10 60 18 109 18
c136 0 220 -76 220 -186c0 -104 -68 -162 -160 -203l-76 93c62 29 88 56 88 96c0 43 -38 78 -99 78c-33 0 -64 -8 -82 -16z" />
    <glyph glyph-name="Odieresismacron.sc" horiz-adv-x="1208" 
d="M378 610v-129c0 -185 91 -278 226 -278s226 93 226 278v129c0 185 -91 282 -226 282s-226 -97 -226 -282zM86 482v125c0 311 190 508 519 508s517 -199 517 -508v-125c0 -308 -189 -502 -518 -502s-518 194 -518 502zM414 1226c-66 0 -116 49 -116 116
c0 69 50 119 116 119c68 0 118 -50 118 -119c0 -67 -50 -116 -118 -116zM802 1226c-66 0 -114 49 -114 116c0 69 48 119 114 119c69 0 120 -50 120 -119c0 -67 -51 -116 -120 -116zM899 1583h-590v157h590v-157z" />
    <glyph glyph-name="Otildemacron.sc" horiz-adv-x="1208" 
d="M378 610v-129c0 -185 91 -278 226 -278s226 93 226 278v129c0 185 -91 282 -226 282s-226 -97 -226 -282zM86 482v125c0 311 190 508 519 508s517 -199 517 -508v-125c0 -308 -189 -502 -518 -502s-518 194 -518 502zM724 1208c-137 0 -176 121 -247 121
c-53 0 -64 -65 -65 -98h-157c0 128 74 244 208 244c137 0 179 -121 254 -121c47 0 69 49 71 104h157c0 -130 -84 -250 -221 -250zM899 1583h-590v157h590v-157z" />
    <glyph glyph-name="Odotaccent.sc" horiz-adv-x="1208" 
d="M378 610v-129c0 -185 91 -278 226 -278s226 93 226 278v129c0 185 -91 282 -226 282s-226 -97 -226 -282zM86 482v125c0 311 190 508 519 508s517 -199 517 -508v-125c0 -308 -189 -502 -518 -502s-518 194 -518 502zM471 1357c0 75 59 134 132 134
c75 0 134 -59 134 -134c0 -74 -59 -132 -134 -132c-73 0 -132 58 -132 132z" />
    <glyph glyph-name="Ocircumflexdotbelow.sc" horiz-adv-x="1208" 
d="M278 1221l232 311h191l233 -311h-212l-113 172h-6l-114 -172h-211zM378 610v-129c0 -185 91 -278 226 -278s226 93 226 278v129c0 185 -91 282 -226 282s-226 -97 -226 -282zM86 482v125c0 311 190 508 519 508s517 -199 517 -508v-125c0 -308 -189 -502 -518 -502
s-518 194 -518 502zM484 -259c0 69 53 122 119 122c67 0 120 -53 120 -122c0 -67 -53 -120 -120 -120c-66 0 -119 53 -119 120z" />
    <glyph glyph-name="Ocircumflexacute.sc" horiz-adv-x="1208" 
d="M378 610v-129c0 -185 91 -278 226 -278s226 93 226 278v129c0 185 -91 282 -226 282s-226 -97 -226 -282zM86 482v125c0 311 190 508 519 508s517 -199 517 -508v-125c0 -308 -189 -502 -518 -502s-518 194 -518 502zM1031 1444h-196l207 294h243zM276 1221l232 311h191
l233 -311h-212l-113 172h-6l-114 -172h-211z" />
    <glyph glyph-name="Otildedieresis.sc" horiz-adv-x="1208" 
d="M724 1208c-137 0 -176 121 -247 121c-53 0 -64 -65 -65 -98h-157c0 128 74 244 208 244c137 0 179 -121 254 -121c47 0 69 49 71 104h157c0 -130 -84 -250 -221 -250zM414 1552c-66 0 -116 49 -116 116c0 69 50 119 116 119c68 0 118 -50 118 -119
c0 -67 -50 -116 -118 -116zM802 1552c-66 0 -114 49 -114 116c0 69 48 119 114 119c69 0 120 -50 120 -119c0 -67 -51 -116 -120 -116zM378 610v-129c0 -185 91 -278 226 -278s226 93 226 278v129c0 185 -91 282 -226 282s-226 -97 -226 -282zM86 482v125
c0 311 190 508 519 508s517 -199 517 -508v-125c0 -308 -189 -502 -518 -502s-518 194 -518 502z" />
    <glyph glyph-name="Omacron.sc" horiz-adv-x="1208" 
d="M378 610v-129c0 -185 91 -278 226 -278s226 93 226 278v129c0 185 -91 282 -226 282s-226 -97 -226 -282zM86 482v125c0 311 190 508 519 508s517 -199 517 -508v-125c0 -308 -189 -502 -518 -502s-518 194 -518 502zM897 1257h-590v157h590v-157z" />
    <glyph glyph-name="Oogonek.sc" horiz-adv-x="1208" 
d="M702 -10c-30 -8 -66 -10 -95 -10c-333 0 -521 194 -521 502v125c0 311 190 508 519 508s517 -199 517 -508v-125c0 -186 -72 -294 -143 -371c-57 -58 -152 -124 -152 -231c0 -73 52 -101 113 -101c23 0 55 4 81 11v-156c-25 -10 -81 -24 -147 -24
c-158 0 -241 86 -241 200c0 70 28 131 70 178zM378 610v-129c0 -185 91 -278 226 -278s226 93 226 278v129c0 185 -91 282 -226 282s-226 -97 -226 -282z" />
    <glyph glyph-name="Oogonekmacron.sc" horiz-adv-x="1208" 
d="M702 -10c-30 -8 -66 -10 -95 -10c-333 0 -521 194 -521 502v125c0 311 190 508 519 508s517 -199 517 -508v-125c0 -186 -72 -294 -143 -371c-57 -58 -152 -124 -152 -231c0 -73 52 -101 113 -101c23 0 55 4 81 11v-156c-25 -10 -81 -24 -147 -24
c-158 0 -241 86 -241 200c0 70 28 131 70 178zM378 610v-129c0 -185 91 -278 226 -278s226 93 226 278v129c0 185 -91 282 -226 282s-226 -97 -226 -282zM899 1257h-590v157h590v-157z" />
    <glyph glyph-name="Ohorn.sc" horiz-adv-x="1243" 
d="M1122 482c0 -308 -189 -502 -518 -502s-518 194 -518 502v125c0 311 190 508 519 508c151 0 242 -50 352 -50c99 0 112 46 112 102v110h215v-146c0 -137 -86 -236 -233 -236l-2 -2c43 -71 73 -174 73 -286v-125zM378 610v-130c0 -186 91 -278 226 -278s227 92 227 278
v130c0 185 -92 282 -227 282s-226 -97 -226 -282z" />
    <glyph glyph-name="Ohorndotbelow.sc" horiz-adv-x="1243" 
d="M1122 482c0 -308 -189 -502 -518 -502s-518 194 -518 502v125c0 311 190 508 519 508c151 0 242 -50 352 -50c99 0 112 46 112 102v110h215v-146c0 -137 -86 -236 -233 -236l-2 -2c43 -71 73 -174 73 -286v-125zM378 610v-130c0 -186 91 -278 226 -278s227 92 227 278
v130c0 185 -92 282 -227 282s-226 -97 -226 -282zM486 -259c0 69 53 122 119 122c67 0 120 -53 120 -122c0 -67 -53 -120 -120 -120c-66 0 -119 53 -119 120z" />
    <glyph glyph-name="Ohornhookabove.sc" horiz-adv-x="1243" 
d="M1122 482c0 -308 -189 -502 -518 -502s-518 194 -518 502v125c0 311 190 508 519 508c151 0 242 -50 352 -50c99 0 112 46 112 102v110h215v-146c0 -137 -86 -236 -233 -236l-2 -2c43 -71 73 -174 73 -286v-125zM378 610v-130c0 -186 91 -278 226 -278s227 92 227 278
v130c0 185 -92 282 -227 282s-226 -97 -226 -282zM455 1445v120c21 10 60 18 109 18c136 0 220 -76 220 -186c0 -104 -68 -162 -160 -203l-76 93c62 29 88 56 88 96c0 43 -38 78 -99 78c-33 0 -64 -8 -82 -16z" />
    <glyph glyph-name="Ohorntilde.sc" horiz-adv-x="1243" 
d="M1122 482c0 -308 -189 -502 -518 -502s-518 194 -518 502v125c0 311 190 508 519 508c151 0 242 -50 352 -50c99 0 112 46 112 102v110h215v-146c0 -137 -86 -236 -233 -236l-2 -2c43 -71 73 -174 73 -286v-125zM378 610v-130c0 -186 91 -278 226 -278s227 92 227 278
v130c0 185 -92 282 -227 282s-226 -97 -226 -282zM724 1208c-137 0 -176 121 -247 121c-53 0 -64 -65 -65 -98h-157c0 128 74 244 208 244c137 0 179 -121 254 -121c47 0 69 49 71 104h157c0 -130 -84 -250 -221 -250z" />
    <glyph glyph-name="Ohorngrave.sc" horiz-adv-x="1243" 
d="M1122 482c0 -308 -189 -502 -518 -502s-518 194 -518 502v125c0 311 190 508 519 508c151 0 242 -50 352 -50c99 0 112 46 112 102v110h215v-146c0 -137 -86 -236 -233 -236l-2 -2c43 -71 73 -174 73 -286v-125zM378 610v-130c0 -186 91 -278 226 -278s227 92 227 278
v130c0 185 -92 282 -227 282s-226 -97 -226 -282zM715 1221h-196l-254 294h243z" />
    <glyph glyph-name="Ohornacute.sc" horiz-adv-x="1243" 
d="M1122 482c0 -308 -189 -502 -518 -502s-518 194 -518 502v125c0 311 190 508 519 508c151 0 242 -50 352 -50c99 0 112 46 112 102v110h215v-146c0 -137 -86 -236 -233 -236l-2 -2c43 -71 73 -174 73 -286v-125zM378 610v-130c0 -186 91 -278 226 -278s227 92 227 278
v130c0 185 -92 282 -227 282s-226 -97 -226 -282zM688 1221h-195l207 294h243z" />
    <glyph glyph-name="P.sc" horiz-adv-x="1087" 
d="M133 1096h492c268 0 407 -177 407 -384c0 -211 -141 -379 -410 -379h-203v-333h-286v1096zM418 886v-348h110c131 0 213 50 213 174c0 112 -71 174 -184 174h-139z" />
    <glyph glyph-name="Pdotaccent.sc" horiz-adv-x="1087" 
d="M410 1357c0 75 59 134 132 134c75 0 134 -59 134 -134c0 -74 -59 -132 -134 -132c-73 0 -132 58 -132 132zM133 1096h492c268 0 407 -177 407 -384c0 -211 -141 -379 -410 -379h-203v-333h-286v1096zM418 886v-348h110c131 0 213 50 213 174c0 112 -71 174 -184 174h-139
z" />
    <glyph glyph-name="Pacute.sc" horiz-adv-x="1087" 
d="M627 1221h-195l207 294h243zM133 1096h492c268 0 407 -177 407 -384c0 -211 -141 -379 -410 -379h-203v-333h-286v1096zM418 886v-348h110c131 0 213 50 213 174c0 112 -71 174 -184 174h-139z" />
    <glyph glyph-name="Q.sc" horiz-adv-x="1213" 
d="M90 487v119c0 309 200 509 518 509s518 -202 518 -509v-119c0 -166 -58 -298 -161 -387l138 -198h-272l-69 99c-47 -13 -99 -21 -154 -21c-318 0 -518 200 -518 507zM370 609v-128c0 -184 86 -278 206 -292c21 0 40 2 57 8l-102 145h236l37 -25c26 29 42 107 42 164v128
c0 188 -100 285 -238 285c-139 0 -238 -97 -238 -285z" />
    <glyph glyph-name="R.sc" horiz-adv-x="1139" 
d="M626 1096c287 0 429 -153 429 -362c0 -181 -129 -279 -206 -309l229 -425h-317l-194 387h-152v-387h-282v1096h493zM415 581h166c106 0 178 50 178 152c0 105 -78 157 -176 157h-168v-309z" />
    <glyph glyph-name="Rcaron.sc" horiz-adv-x="1139" 
d="M221 1532h211l114 -172h6l113 172h212l-233 -311h-191zM626 1096c287 0 429 -153 429 -362c0 -181 -129 -279 -206 -309l229 -425h-317l-194 387h-152v-387h-282v1096h493zM415 581h166c106 0 178 50 178 152c0 105 -78 157 -176 157h-168v-309z" />
    <glyph glyph-name="Rlinebelow.sc" horiz-adv-x="1139" 
d="M844 -359h-590v157h590v-157zM626 1096c287 0 429 -153 429 -362c0 -181 -129 -279 -206 -309l229 -425h-317l-194 387h-152v-387h-282v1096h493zM415 581h166c106 0 178 50 178 152c0 105 -78 157 -176 157h-168v-309z" />
    <glyph glyph-name="Rdotbelowmacron.sc" horiz-adv-x="1139" 
d="M431 -259c0 69 53 122 119 122c67 0 120 -53 120 -122c0 -67 -53 -120 -120 -120c-66 0 -119 53 -119 120zM844 1257h-590v157h590v-157zM626 1096c287 0 429 -153 429 -362c0 -181 -129 -279 -206 -309l229 -425h-317l-194 387h-152v-387h-282v1096h493zM415 581h166
c106 0 178 50 178 152c0 105 -78 157 -176 157h-168v-309z" />
    <glyph glyph-name="Rdblgrave.sc" horiz-adv-x="1139" 
d="M626 1096c287 0 429 -153 429 -362c0 -181 -129 -279 -206 -309l229 -425h-317l-194 387h-152v-387h-282v1096h493zM415 581h166c106 0 178 50 178 152c0 105 -78 157 -176 157h-168v-309zM304 1221l-247 294h211l205 -294h-169zM647 1221l-247 294h211l204 -294h-168z
" />
    <glyph glyph-name="Rinvertedbreve.sc" horiz-adv-x="1139" 
d="M626 1096c287 0 429 -153 429 -362c0 -181 -129 -279 -206 -309l229 -425h-317l-194 387h-152v-387h-282v1096h493zM415 581h166c106 0 178 50 178 152c0 105 -78 157 -176 157h-168v-309zM226 1245c0 163 112 314 323 314s320 -151 320 -314h-160c0 84 -49 164 -160 164
s-160 -80 -160 -164h-163z" />
    <glyph glyph-name="Racute.sc" horiz-adv-x="1139" 
d="M633 1221h-195l207 294h243zM626 1096c287 0 429 -153 429 -362c0 -181 -129 -279 -206 -309l229 -425h-317l-194 387h-152v-387h-282v1096h493zM415 581h166c106 0 178 50 178 152c0 105 -78 157 -176 157h-168v-309z" />
    <glyph glyph-name="Rdotbelow.sc" horiz-adv-x="1139" 
d="M431 -259c0 69 53 122 119 122c67 0 120 -53 120 -122c0 -67 -53 -120 -120 -120c-66 0 -119 53 -119 120zM626 1096c287 0 429 -153 429 -362c0 -181 -129 -279 -206 -309l229 -425h-317l-194 387h-152v-387h-282v1096h493zM415 581h166c106 0 178 50 178 152
c0 105 -78 157 -176 157h-168v-309z" />
    <glyph glyph-name="Rdotaccent.sc" horiz-adv-x="1139" 
d="M416 1357c0 75 59 134 132 134c75 0 134 -59 134 -134c0 -74 -59 -132 -134 -132c-73 0 -132 58 -132 132zM626 1096c287 0 429 -153 429 -362c0 -181 -129 -279 -206 -309l229 -425h-317l-194 387h-152v-387h-282v1096h493zM415 581h166c106 0 178 50 178 152
c0 105 -78 157 -176 157h-168v-309z" />
    <glyph glyph-name="Rcommaaccent.sc" horiz-adv-x="1139" 
d="M552 -489h-189l85 335h218zM626 1096c287 0 429 -153 429 -362c0 -181 -129 -279 -206 -309l229 -425h-317l-194 387h-152v-387h-282v1096h493zM415 581h166c106 0 178 50 178 152c0 105 -78 157 -176 157h-168v-309z" />
    <glyph glyph-name="S.sc" horiz-adv-x="1097" 
d="M71 323h273c4 -68 74 -133 207 -133c126 0 185 50 185 118c0 67 -59 97 -171 119l-161 32c-172 32 -309 120 -309 313c0 220 193 344 454 344c284 0 447 -152 449 -336h-264c-4 64 -63 129 -186 129c-108 0 -168 -46 -168 -115c0 -57 55 -92 155 -109l165 -31
c166 -29 318 -107 318 -318c0 -213 -171 -356 -477 -356c-356 0 -468 183 -470 343z" />
    <glyph glyph-name="Scaron.sc" horiz-adv-x="1097" 
d="M219 1532h211l114 -172h6l113 172h212l-233 -311h-191zM71 323h273c4 -68 74 -133 207 -133c126 0 185 50 185 118c0 67 -59 97 -171 119l-161 32c-172 32 -309 120 -309 313c0 220 193 344 454 344c284 0 447 -152 449 -336h-264c-4 64 -63 129 -186 129
c-108 0 -168 -46 -168 -115c0 -57 55 -92 155 -109l165 -31c166 -29 318 -107 318 -318c0 -213 -171 -356 -477 -356c-356 0 -468 183 -470 343z" />
    <glyph glyph-name="Scedilla.sc" horiz-adv-x="1097" 
d="M554 -472c-68 -1 -122 8 -146 16v125c27 -8 75 -13 111 -13c52 0 109 11 109 60s-44 59 -129 59h-55v104l37 103c-308 20 -408 191 -410 341h273c4 -68 74 -133 207 -133c126 0 185 50 185 118c0 67 -59 97 -171 119l-161 32c-172 32 -309 120 -309 313
c0 220 193 344 454 344c284 0 447 -152 449 -336h-264c-4 64 -63 129 -186 129c-108 0 -168 -46 -168 -115c0 -57 55 -92 155 -109l165 -31c166 -29 318 -107 318 -318c0 -188 -134 -321 -374 -350l-34 -93c117 0 192 -62 192 -168c0 -136 -103 -194 -248 -197z" />
    <glyph glyph-name="Sdotaccent.sc" horiz-adv-x="1097" 
d="M414 1357c0 75 59 134 132 134c75 0 134 -59 134 -134c0 -74 -59 -132 -134 -132c-73 0 -132 58 -132 132zM71 323h273c4 -68 74 -133 207 -133c126 0 185 50 185 118c0 67 -59 97 -171 119l-161 32c-172 32 -309 120 -309 313c0 220 193 344 454 344
c284 0 447 -152 449 -336h-264c-4 64 -63 129 -186 129c-108 0 -168 -46 -168 -115c0 -57 55 -92 155 -109l165 -31c166 -29 318 -107 318 -318c0 -213 -171 -356 -477 -356c-356 0 -468 183 -470 343z" />
    <glyph glyph-name="Sdotbelow.sc" horiz-adv-x="1097" 
d="M421 -259c0 69 53 122 119 122c67 0 120 -53 120 -122c0 -67 -53 -120 -120 -120c-66 0 -119 53 -119 120zM71 323h273c4 -68 74 -133 207 -133c126 0 185 50 185 118c0 67 -59 97 -171 119l-161 32c-172 32 -309 120 -309 313c0 220 193 344 454 344
c284 0 447 -152 449 -336h-264c-4 64 -63 129 -186 129c-108 0 -168 -46 -168 -115c0 -57 55 -92 155 -109l165 -31c166 -29 318 -107 318 -318c0 -213 -171 -356 -477 -356c-356 0 -468 183 -470 343z" />
    <glyph glyph-name="Scommaaccent.sc" horiz-adv-x="1097" 
d="M542 -489h-189l85 335h218zM71 323h273c4 -68 74 -133 207 -133c126 0 185 50 185 118c0 67 -59 97 -171 119l-161 32c-172 32 -309 120 -309 313c0 220 193 344 454 344c284 0 447 -152 449 -336h-264c-4 64 -63 129 -186 129c-108 0 -168 -46 -168 -115
c0 -57 55 -92 155 -109l165 -31c166 -29 318 -107 318 -318c0 -213 -171 -356 -477 -356c-356 0 -468 183 -470 343z" />
    <glyph glyph-name="Sdotbelowdotaccent.sc" horiz-adv-x="1097" 
d="M421 -259c0 69 53 122 119 122c67 0 120 -53 120 -122c0 -67 -53 -120 -120 -120c-66 0 -119 53 -119 120zM414 1357c0 75 59 134 132 134c75 0 134 -59 134 -134c0 -74 -59 -132 -134 -132c-73 0 -132 58 -132 132zM71 323h273c4 -68 74 -133 207 -133
c126 0 185 50 185 118c0 67 -59 97 -171 119l-161 32c-172 32 -309 120 -309 313c0 220 193 344 454 344c284 0 447 -152 449 -336h-264c-4 64 -63 129 -186 129c-108 0 -168 -46 -168 -115c0 -57 55 -92 155 -109l165 -31c166 -29 318 -107 318 -318
c0 -213 -171 -356 -477 -356c-356 0 -468 183 -470 343z" />
    <glyph glyph-name="Scarondotaccent.sc" horiz-adv-x="1097" 
d="M219 1532h211l114 -172h6l113 172h212l-233 -311h-191zM414 1721c0 75 59 134 132 134c75 0 134 -59 134 -134c0 -74 -59 -132 -134 -132c-73 0 -132 58 -132 132zM71 323h273c4 -68 74 -133 207 -133c126 0 185 50 185 118c0 67 -59 97 -171 119l-161 32
c-172 32 -309 120 -309 313c0 220 193 344 454 344c284 0 447 -152 449 -336h-264c-4 64 -63 129 -186 129c-108 0 -168 -46 -168 -115c0 -57 55 -92 155 -109l165 -31c166 -29 318 -107 318 -318c0 -213 -171 -356 -477 -356c-356 0 -468 183 -470 343z" />
    <glyph glyph-name="Scircumflex.sc" horiz-adv-x="1097" 
d="M219 1221l232 311h191l233 -311h-212l-113 172h-6l-114 -172h-211zM71 323h273c4 -68 74 -133 207 -133c126 0 185 50 185 118c0 67 -59 97 -171 119l-161 32c-172 32 -309 120 -309 313c0 220 193 344 454 344c284 0 447 -152 449 -336h-264c-4 64 -63 129 -186 129
c-108 0 -168 -46 -168 -115c0 -57 55 -92 155 -109l165 -31c166 -29 318 -107 318 -318c0 -213 -171 -356 -477 -356c-356 0 -468 183 -470 343z" />
    <glyph glyph-name="Sacutedotaccent.sc" horiz-adv-x="1097" 
d="M739 1221h-195l207 294h243zM215 1388c0 75 59 134 132 134c75 0 134 -59 134 -134c0 -74 -59 -132 -134 -132c-73 0 -132 58 -132 132zM71 323h273c4 -68 74 -133 207 -133c126 0 185 50 185 118c0 67 -59 97 -171 119l-161 32c-172 32 -309 120 -309 313
c0 220 193 344 454 344c284 0 447 -152 449 -336h-264c-4 64 -63 129 -186 129c-108 0 -168 -46 -168 -115c0 -57 55 -92 155 -109l165 -31c166 -29 318 -107 318 -318c0 -213 -171 -356 -477 -356c-356 0 -468 183 -470 343z" />
    <glyph glyph-name="Sacute.sc" horiz-adv-x="1097" 
d="M631 1221h-195l207 294h243zM71 323h273c4 -68 74 -133 207 -133c126 0 185 50 185 118c0 67 -59 97 -171 119l-161 32c-172 32 -309 120 -309 313c0 220 193 344 454 344c284 0 447 -152 449 -336h-264c-4 64 -63 129 -186 129c-108 0 -168 -46 -168 -115
c0 -57 55 -92 155 -109l165 -31c166 -29 318 -107 318 -318c0 -213 -171 -356 -477 -356c-356 0 -468 183 -470 343z" />
    <glyph glyph-name="T.sc" horiz-adv-x="975" 
d="M631 0h-287v872h-312v224h912v-224h-313v-872z" />
    <glyph glyph-name="Tcircumflexbelow.sc" horiz-adv-x="975" 
d="M631 0h-287v872h-312v224h912v-224h-313v-872zM165 -390l230 274h190l230 -274h-208l-112 151h-10l-112 -151h-208z" />
    <glyph glyph-name="Tdotbelow.sc" horiz-adv-x="975" 
d="M631 0h-287v872h-312v224h912v-224h-313v-872zM367 -259c0 69 53 122 119 122c67 0 120 -53 120 -122c0 -67 -53 -120 -120 -120c-66 0 -119 53 -119 120z" />
    <glyph glyph-name="Tcommaaccent.sc" horiz-adv-x="975" 
d="M631 0h-287v872h-312v224h912v-224h-313v-872zM490 -489h-189l85 335h218z" />
    <glyph glyph-name="Tdotaccent.sc" horiz-adv-x="975" 
d="M631 0h-287v872h-312v224h912v-224h-313v-872zM354 1357c0 75 59 134 132 134c75 0 134 -59 134 -134c0 -74 -59 -132 -134 -132c-73 0 -132 58 -132 132z" />
    <glyph glyph-name="Tcedilla.sc" horiz-adv-x="975" 
d="M481 -482c-68 -2 -121 8 -146 15v126c27 -8 76 -14 111 -14c52 0 109 11 109 60c0 50 -44 59 -128 59h-55v105l49 131h-77v872h-312v224h912v-224h-313v-872h-48l-46 -117c117 0 192 -63 192 -169c0 -135 -102 -193 -248 -196z" />
    <glyph glyph-name="Tlinebelow.sc" horiz-adv-x="975" 
d="M631 0h-287v872h-312v224h912v-224h-313v-872zM780 -359h-590v157h590v-157z" />
    <glyph glyph-name="Tcaron.sc" horiz-adv-x="975" 
d="M631 0h-287v872h-312v224h912v-224h-313v-872zM156 1532h211l114 -172h6l113 172h212l-233 -311h-191z" />
    <glyph glyph-name="Tbar.sc" horiz-adv-x="975" 
d="M827 451h-196v-451h-287v451h-195v151h196v270h-313v224h912v-224h-313v-270h196v-151z" />
    <glyph glyph-name="U.sc" horiz-adv-x="1214" 
d="M406 1096v-683c0 -137 82 -203 201 -203c118 0 201 68 201 203v683h286v-717c0 -241 -189 -399 -487 -399s-487 159 -487 400v716h286z" />
    <glyph glyph-name="Ugrave.sc" horiz-adv-x="1214" 
d="M718 1221h-196l-254 294h243zM406 1096v-683c0 -137 82 -203 201 -203c118 0 201 68 201 203v683h286v-717c0 -241 -189 -399 -487 -399s-487 159 -487 400v716h286z" />
    <glyph glyph-name="Udblgrave.sc" horiz-adv-x="1214" 
d="M362 1221l-247 294h211l205 -294h-169zM705 1221l-247 294h211l204 -294h-168zM406 1096v-683c0 -137 82 -203 201 -203c118 0 201 68 201 203v683h286v-717c0 -241 -189 -399 -487 -399s-487 159 -487 400v716h286z" />
    <glyph glyph-name="Uacute.sc" horiz-adv-x="1214" 
d="M691 1221h-195l207 294h243zM406 1096v-683c0 -137 82 -203 201 -203c118 0 201 68 201 203v683h286v-717c0 -241 -189 -399 -487 -399s-487 159 -487 400v716h286z" />
    <glyph glyph-name="Uhungarumlaut.sc" horiz-adv-x="1214" 
d="M485 1221h-168l206 294h210zM829 1221h-169l206 294h210zM406 1096v-683c0 -137 82 -203 201 -203c118 0 201 68 201 203v683h286v-717c0 -241 -189 -399 -487 -399s-487 159 -487 400v716h286z" />
    <glyph glyph-name="Ucircumflex.sc" horiz-adv-x="1214" 
d="M279 1221l232 311h191l233 -311h-212l-113 172h-6l-114 -172h-211zM406 1096v-683c0 -137 82 -203 201 -203c118 0 201 68 201 203v683h286v-717c0 -241 -189 -399 -487 -399s-487 159 -487 400v716h286z" />
    <glyph glyph-name="Ucaron.sc" horiz-adv-x="1214" 
d="M280 1532h211l114 -172h6l113 172h212l-233 -311h-191zM406 1096v-683c0 -137 82 -203 201 -203c118 0 201 68 201 203v683h286v-717c0 -241 -189 -399 -487 -399s-487 159 -487 400v716h286z" />
    <glyph glyph-name="Ucircumflexbelow.sc" horiz-adv-x="1214" 
d="M406 1096v-683c0 -137 82 -203 201 -203c118 0 201 68 201 203v683h286v-717c0 -241 -189 -399 -487 -399s-487 159 -487 400v716h286zM282 -390l230 274h190l230 -274h-208l-112 151h-10l-112 -151h-208z" />
    <glyph glyph-name="Udieresis.sc" horiz-adv-x="1214" 
d="M417 1226c-66 0 -116 49 -116 116c0 69 50 119 116 119c68 0 118 -50 118 -119c0 -67 -50 -116 -118 -116zM805 1226c-66 0 -114 49 -114 116c0 69 48 119 114 119c69 0 120 -50 120 -119c0 -67 -51 -116 -120 -116zM406 1096v-683c0 -137 82 -203 201 -203
c118 0 201 68 201 203v683h286v-717c0 -241 -189 -399 -487 -399s-487 159 -487 400v716h286z" />
    <glyph glyph-name="Udieresisgrave.sc" horiz-adv-x="1214" 
d="M718 1556h-196l-254 294h243zM417 1226c-66 0 -116 49 -116 116c0 69 50 119 116 119c68 0 118 -50 118 -119c0 -67 -50 -116 -118 -116zM805 1226c-66 0 -114 49 -114 116c0 69 48 119 114 119c69 0 120 -50 120 -119c0 -67 -51 -116 -120 -116zM406 1096v-683
c0 -137 82 -203 201 -203c118 0 201 68 201 203v683h286v-717c0 -241 -189 -399 -487 -399s-487 159 -487 400v716h286z" />
    <glyph glyph-name="Udieresisacute.sc" horiz-adv-x="1214" 
d="M698 1556h-195l207 294h243zM417 1226c-66 0 -116 49 -116 116c0 69 50 119 116 119c68 0 118 -50 118 -119c0 -67 -50 -116 -118 -116zM805 1226c-66 0 -114 49 -114 116c0 69 48 119 114 119c69 0 120 -50 120 -119c0 -67 -51 -116 -120 -116zM406 1096v-683
c0 -137 82 -203 201 -203c118 0 201 68 201 203v683h286v-717c0 -241 -189 -399 -487 -399s-487 159 -487 400v716h286z" />
    <glyph glyph-name="Udieresismacron.sc" horiz-adv-x="1214" 
d="M417 1226c-66 0 -116 49 -116 116c0 69 50 119 116 119c68 0 118 -50 118 -119c0 -67 -50 -116 -118 -116zM805 1226c-66 0 -114 49 -114 116c0 69 48 119 114 119c69 0 120 -50 120 -119c0 -67 -51 -116 -120 -116zM902 1583h-590v157h590v-157zM406 1096v-683
c0 -137 82 -203 201 -203c118 0 201 68 201 203v683h286v-717c0 -241 -189 -399 -487 -399s-487 159 -487 400v716h286z" />
    <glyph glyph-name="Udieresiscaron.sc" horiz-adv-x="1214" 
d="M279 1856h211l114 -172h6l113 172h212l-233 -311h-191zM417 1226c-66 0 -116 49 -116 116c0 69 50 119 116 119c68 0 118 -50 118 -119c0 -67 -50 -116 -118 -116zM805 1226c-66 0 -114 49 -114 116c0 69 48 119 114 119c69 0 120 -50 120 -119c0 -67 -51 -116 -120 -116
zM406 1096v-683c0 -137 82 -203 201 -203c118 0 201 68 201 203v683h286v-717c0 -241 -189 -399 -487 -399s-487 159 -487 400v716h286z" />
    <glyph glyph-name="Udieresisbelow.sc" horiz-adv-x="1214" 
d="M406 1096v-683c0 -137 82 -203 201 -203c118 0 201 68 201 203v683h286v-717c0 -241 -189 -399 -487 -399s-487 159 -487 400v716h286zM411 -379c-66 0 -116 49 -116 116c0 69 50 119 116 119c68 0 118 -50 118 -119c0 -67 -50 -116 -118 -116zM799 -379
c-66 0 -114 49 -114 116c0 69 48 119 114 119c69 0 120 -50 120 -119c0 -67 -51 -116 -120 -116z" />
    <glyph glyph-name="Utildebelow.sc" horiz-adv-x="1214" 
d="M731 -382c-134 0 -173 118 -241 118c-49 0 -60 -62 -61 -95h-153c0 124 70 237 201 237c134 0 175 -118 247 -118c43 0 66 46 68 101h153c0 -126 -80 -243 -214 -243zM406 1096v-683c0 -137 82 -203 201 -203c118 0 201 68 201 203v683h286v-717
c0 -241 -189 -399 -487 -399s-487 159 -487 400v716h286z" />
    <glyph glyph-name="Uhookabove.sc" horiz-adv-x="1214" 
d="M458 1445v120c21 10 60 18 109 18c136 0 220 -76 220 -186c0 -104 -68 -162 -160 -203l-76 93c62 29 88 56 88 96c0 43 -38 78 -99 78c-33 0 -64 -8 -82 -16zM406 1096v-683c0 -137 82 -203 201 -203c118 0 201 68 201 203v683h286v-717c0 -241 -189 -399 -487 -399
s-487 159 -487 400v716h286z" />
    <glyph glyph-name="Ubreve.sc" horiz-adv-x="1214" 
d="M291 1518h159c0 -82 48 -160 157 -160s156 78 156 160h157c-1 -157 -106 -305 -313 -305s-316 147 -316 305zM406 1096v-683c0 -137 82 -203 201 -203c118 0 201 68 201 203v683h286v-717c0 -241 -189 -399 -487 -399s-487 159 -487 400v716h286z" />
    <glyph glyph-name="Uinvertedbreve.sc" horiz-adv-x="1214" 
d="M406 1096v-683c0 -137 82 -203 201 -203c118 0 201 68 201 203v683h286v-717c0 -241 -189 -399 -487 -399s-487 159 -487 400v716h286zM284 1245c0 163 112 314 323 314s320 -151 320 -314h-160c0 84 -49 164 -160 164s-160 -80 -160 -164h-163z" />
    <glyph glyph-name="Utildeacute.sc" horiz-adv-x="1214" 
d="M696 1556h-195l207 294h243zM722 1208c-137 0 -176 121 -247 121c-53 0 -64 -65 -65 -98h-157c0 128 74 244 208 244c137 0 179 -121 254 -121c47 0 69 49 71 104h157c0 -130 -84 -250 -221 -250zM406 1096v-683c0 -137 82 -203 201 -203c118 0 201 68 201 203v683h286
v-717c0 -241 -189 -399 -487 -399s-487 159 -487 400v716h286z" />
    <glyph glyph-name="Udotbelow.sc" horiz-adv-x="1214" 
d="M486 -259c0 69 53 122 119 122c67 0 120 -53 120 -122c0 -67 -53 -120 -120 -120c-66 0 -119 53 -119 120zM406 1096v-683c0 -137 82 -203 201 -203c118 0 201 68 201 203v683h286v-717c0 -241 -189 -399 -487 -399s-487 159 -487 400v716h286z" />
    <glyph glyph-name="Utilde.sc" horiz-adv-x="1214" 
d="M727 1208c-137 0 -176 121 -247 121c-53 0 -64 -65 -65 -98h-157c0 128 74 244 208 244c137 0 179 -121 254 -121c47 0 69 49 71 104h157c0 -130 -84 -250 -221 -250zM406 1096v-683c0 -137 82 -203 201 -203c118 0 201 68 201 203v683h286v-717
c0 -241 -189 -399 -487 -399s-487 159 -487 400v716h286z" />
    <glyph glyph-name="Umacron.sc" horiz-adv-x="1214" 
d="M900 1257h-590v157h590v-157zM406 1096v-683c0 -137 82 -203 201 -203c118 0 201 68 201 203v683h286v-717c0 -241 -189 -399 -487 -399s-487 159 -487 400v716h286z" />
    <glyph glyph-name="Umacrondieresis.sc" horiz-adv-x="1214" 
d="M902 1257h-590v157h590v-157zM417 1552c-66 0 -116 49 -116 116c0 69 50 119 116 119c68 0 118 -50 118 -119c0 -67 -50 -116 -118 -116zM805 1552c-66 0 -114 49 -114 116c0 69 48 119 114 119c69 0 120 -50 120 -119c0 -67 -51 -116 -120 -116zM406 1096v-683
c0 -137 82 -203 201 -203c118 0 201 68 201 203v683h286v-717c0 -241 -189 -399 -487 -399s-487 159 -487 400v716h286z" />
    <glyph glyph-name="Uring.sc" horiz-adv-x="1214" 
d="M406 1096v-683c0 -137 82 -203 201 -203c118 0 201 68 201 203v683h286v-717c0 -241 -189 -399 -487 -399s-487 159 -487 400v716h286zM607 1215c-124 0 -219 88 -219 212c0 123 95 210 219 210s218 -87 218 -210c0 -124 -95 -212 -218 -212zM514 1426
c0 -53 39 -93 92 -93s93 40 93 93s-40 93 -93 93s-92 -40 -92 -93z" />
    <glyph glyph-name="Uogonek.sc" horiz-adv-x="1214" 
d="M877 -390c-156 0 -241 84 -241 200c0 72 30 125 70 179c-31 -5 -64 -9 -100 -9c-297 0 -486 159 -486 400v716h287v-683c0 -137 81 -203 200 -203c118 0 201 68 201 203v683h286v-717c0 -139 -55 -216 -117 -277c-64 -63 -146 -122 -146 -223c0 -72 52 -100 113 -100
c22 0 54 4 80 11v-156c-24 -10 -81 -24 -147 -24z" />
    <glyph glyph-name="Uhorn.sc" horiz-adv-x="1318" 
d="M607 -18c-298 0 -487 158 -487 400v714h286v-682c0 -136 82 -203 201 -203c118 0 201 69 201 203v682h287c63 0 84 29 84 85v113h213v-149c0 -131 -81 -237 -230 -237h-68v-527c0 -242 -189 -399 -487 -399z" />
    <glyph glyph-name="Uhorngrave.sc" horiz-adv-x="1318" 
d="M607 -18c-298 0 -487 158 -487 400v714h286v-682c0 -136 82 -203 201 -203c118 0 201 69 201 203v682h287c63 0 84 29 84 85v113h213v-149c0 -131 -81 -237 -230 -237h-68v-527c0 -242 -189 -399 -487 -399zM718 1221h-196l-254 294h243z" />
    <glyph glyph-name="Uhornacute.sc" horiz-adv-x="1318" 
d="M607 -18c-298 0 -487 158 -487 400v714h286v-682c0 -136 82 -203 201 -203c118 0 201 69 201 203v682h287c63 0 84 29 84 85v113h213v-149c0 -131 -81 -237 -230 -237h-68v-527c0 -242 -189 -399 -487 -399zM691 1221h-195l207 294h243z" />
    <glyph glyph-name="Uhorndotbelow.sc" horiz-adv-x="1318" 
d="M489 -259c0 69 53 122 119 122c67 0 120 -53 120 -122c0 -67 -53 -120 -120 -120c-66 0 -119 53 -119 120zM607 -18c-298 0 -487 158 -487 400v714h286v-682c0 -136 82 -203 201 -203c118 0 201 69 201 203v682h287c63 0 84 29 84 85v113h213v-149
c0 -131 -81 -237 -230 -237h-68v-527c0 -242 -189 -399 -487 -399z" />
    <glyph glyph-name="Uhornhookabove.sc" horiz-adv-x="1318" 
d="M607 -18c-298 0 -487 158 -487 400v714h286v-682c0 -136 82 -203 201 -203c118 0 201 69 201 203v682h287c63 0 84 29 84 85v113h213v-149c0 -131 -81 -237 -230 -237h-68v-527c0 -242 -189 -399 -487 -399zM458 1445v120c21 10 60 18 109 18c136 0 220 -76 220 -186
c0 -104 -68 -162 -160 -203l-76 93c62 29 88 56 88 96c0 43 -38 78 -99 78c-33 0 -64 -8 -82 -16z" />
    <glyph glyph-name="Uhorntilde.sc" horiz-adv-x="1318" 
d="M607 -18c-298 0 -487 158 -487 400v714h286v-682c0 -136 82 -203 201 -203c118 0 201 69 201 203v682h287c63 0 84 29 84 85v113h213v-149c0 -131 -81 -237 -230 -237h-68v-527c0 -242 -189 -399 -487 -399zM727 1208c-137 0 -176 121 -247 121c-53 0 -64 -65 -65 -98
h-157c0 128 74 244 208 244c137 0 179 -121 254 -121c47 0 69 49 71 104h157c0 -130 -84 -250 -221 -250z" />
    <glyph glyph-name="V.sc" horiz-adv-x="1135" 
d="M751 0h-362l-365 1096h333l214 -807h14l210 807h316z" />
    <glyph glyph-name="Vtilde.sc" horiz-adv-x="1135" 
d="M751 0h-362l-365 1096h333l214 -807h14l210 807h316zM687 1208c-137 0 -176 121 -247 121c-53 0 -64 -65 -65 -98h-157c0 128 74 244 208 244c137 0 179 -121 254 -121c47 0 69 49 71 104h157c0 -130 -84 -250 -221 -250z" />
    <glyph glyph-name="Vdotbelow.sc" horiz-adv-x="1135" 
d="M447 -259c0 69 53 122 119 122c67 0 120 -53 120 -122c0 -67 -53 -120 -120 -120c-66 0 -119 53 -119 120zM751 0h-362l-365 1096h333l214 -807h14l210 807h316z" />
    <glyph glyph-name="W.sc" horiz-adv-x="1568" 
d="M586 0h-268l-296 1095h302l144 -731h14l186 731h233l186 -731h15l142 731h301l-295 -1095h-267l-193 686h-11z" />
    <glyph glyph-name="Wgrave.sc" horiz-adv-x="1568" 
d="M586 0h-268l-296 1095h302l144 -731h14l186 731h233l186 -731h15l142 731h301l-295 -1095h-267l-193 686h-11zM895 1221h-196l-254 294h243z" />
    <glyph glyph-name="Wacute.sc" horiz-adv-x="1568" 
d="M586 0h-268l-296 1095h302l144 -731h14l186 731h233l186 -731h15l142 731h301l-295 -1095h-267l-193 686h-11zM868 1221h-195l207 294h243z" />
    <glyph glyph-name="Wdotaccent.sc" horiz-adv-x="1568" 
d="M586 0h-268l-296 1095h302l144 -731h14l186 731h233l186 -731h15l142 731h301l-295 -1095h-267l-193 686h-11zM651 1357c0 75 59 134 132 134c75 0 134 -59 134 -134c0 -74 -59 -132 -134 -132c-73 0 -132 58 -132 132z" />
    <glyph glyph-name="Wdotbelow.sc" horiz-adv-x="1568" 
d="M586 0h-268l-296 1095h302l144 -731h14l186 731h233l186 -731h15l142 731h301l-295 -1095h-267l-193 686h-11zM664 -259c0 69 53 122 119 122c67 0 120 -53 120 -122c0 -67 -53 -120 -120 -120c-66 0 -119 53 -119 120z" />
    <glyph glyph-name="Wdieresis.sc" horiz-adv-x="1568" 
d="M586 0h-268l-296 1095h302l144 -731h14l186 731h233l186 -731h15l142 731h301l-295 -1095h-267l-193 686h-11zM594 1226c-66 0 -116 49 -116 116c0 69 50 119 116 119c68 0 118 -50 118 -119c0 -67 -50 -116 -118 -116zM982 1226c-66 0 -114 49 -114 116
c0 69 48 119 114 119c69 0 120 -50 120 -119c0 -67 -51 -116 -120 -116z" />
    <glyph glyph-name="Wcircumflex.sc" horiz-adv-x="1568" 
d="M586 0h-268l-296 1095h302l144 -731h14l186 731h233l186 -731h15l142 731h301l-295 -1095h-267l-193 686h-11zM456 1221l232 311h191l233 -311h-212l-113 172h-6l-114 -172h-211z" />
    <glyph glyph-name="X.sc" horiz-adv-x="1117" 
d="M1097 1096l-357 -547l354 -549h-323l-215 354h-12l-215 -354h-306l343 552l-343 544h336l203 -364h12l203 364h320z" />
    <glyph glyph-name="Xdotaccent.sc" horiz-adv-x="1117" 
d="M421 1357c0 75 59 134 132 134c75 0 134 -59 134 -134c0 -74 -59 -132 -134 -132c-73 0 -132 58 -132 132zM1097 1096l-357 -547l354 -549h-323l-215 354h-12l-215 -354h-306l343 552l-343 544h336l203 -364h12l203 364h320z" />
    <glyph glyph-name="Xdieresis.sc" horiz-adv-x="1117" 
d="M1097 1096l-357 -547l354 -549h-323l-215 354h-12l-215 -354h-306l343 552l-343 544h336l203 -364h12l203 364h320zM369 1226c-66 0 -116 49 -116 116c0 69 50 119 116 119c68 0 118 -50 118 -119c0 -67 -50 -116 -118 -116zM757 1226c-66 0 -114 49 -114 116
c0 69 48 119 114 119c69 0 120 -50 120 -119c0 -67 -51 -116 -120 -116z" />
    <glyph glyph-name="Y.sc" horiz-adv-x="1057" 
d="M672 0h-287v374l-387 722h314l216 -449h11l216 449h304l-387 -714v-382z" />
    <glyph glyph-name="Ygrave.sc" horiz-adv-x="1057" 
d="M639 1221h-196l-254 294h243zM672 0h-287v374l-387 722h314l216 -449h11l216 449h304l-387 -714v-382z" />
    <glyph glyph-name="Yacute.sc" horiz-adv-x="1057" 
d="M612 1221h-195l207 294h243zM672 0h-287v374l-387 722h314l216 -449h11l216 449h304l-387 -714v-382z" />
    <glyph glyph-name="Ydotaccent.sc" horiz-adv-x="1057" 
d="M395 1357c0 75 59 134 132 134c75 0 134 -59 134 -134c0 -74 -59 -132 -134 -132c-73 0 -132 58 -132 132zM672 0h-287v374l-387 722h314l216 -449h11l216 449h304l-387 -714v-382z" />
    <glyph glyph-name="Ydotbelow.sc" horiz-adv-x="1057" 
d="M410 -259c0 69 53 122 119 122c67 0 120 -53 120 -122c0 -67 -53 -120 -120 -120c-66 0 -119 53 -119 120zM672 0h-287v374l-387 722h314l216 -449h11l216 449h304l-387 -714v-382z" />
    <glyph glyph-name="Ydieresis.sc" horiz-adv-x="1057" 
d="M672 0h-287v374l-387 722h314l216 -449h11l216 449h304l-387 -714v-382zM338 1226c-66 0 -116 49 -116 116c0 69 50 119 116 119c68 0 118 -50 118 -119c0 -67 -50 -116 -118 -116zM726 1226c-66 0 -114 49 -114 116c0 69 48 119 114 119c69 0 120 -50 120 -119
c0 -67 -51 -116 -120 -116z" />
    <glyph glyph-name="Ytilde.sc" horiz-adv-x="1057" 
d="M672 0h-287v374l-387 722h314l216 -449h11l216 449h304l-387 -714v-382zM648 1208c-137 0 -176 121 -247 121c-53 0 -64 -65 -65 -98h-157c0 128 74 244 208 244c137 0 179 -121 254 -121c47 0 69 49 71 104h157c0 -130 -84 -250 -221 -250z" />
    <glyph glyph-name="Ycircumflex.sc" horiz-adv-x="1057" 
d="M200 1221l232 311h191l233 -311h-212l-113 172h-6l-114 -172h-211zM672 0h-287v374l-387 722h314l216 -449h11l216 449h304l-387 -714v-382z" />
    <glyph glyph-name="Ymacron.sc" horiz-adv-x="1057" 
d="M672 0h-287v374l-387 722h314l216 -449h11l216 449h304l-387 -714v-382zM823 1257h-590v157h590v-157z" />
    <glyph glyph-name="Yhookabove.sc" horiz-adv-x="1057" 
d="M672 0h-287v374l-387 722h314l216 -449h11l216 449h304l-387 -714v-382zM379 1445v120c21 10 60 18 109 18c136 0 220 -76 220 -186c0 -104 -68 -162 -160 -203l-76 93c62 29 88 56 88 96c0 43 -38 78 -99 78c-33 0 -64 -8 -82 -16z" />
    <glyph glyph-name="Z.sc" horiz-adv-x="1058" 
d="M93 0v175l517 688v14h-506v219h850v-175l-515 -689v-13h533v-219h-879z" />
    <glyph glyph-name="Zacute.sc" horiz-adv-x="1058" 
d="M613 1221h-195l207 294h243zM93 0v175l517 688v14h-506v219h850v-175l-515 -689v-13h533v-219h-879z" />
    <glyph glyph-name="Zcaron.sc" horiz-adv-x="1058" 
d="M201 1532h211l114 -172h6l113 172h212l-233 -311h-191zM93 0v175l517 688v14h-506v219h850v-175l-515 -689v-13h533v-219h-879z" />
    <glyph glyph-name="Zcircumflex.sc" horiz-adv-x="1058" 
d="M201 1221l232 311h191l233 -311h-212l-113 172h-6l-114 -172h-211zM93 0v175l517 688v14h-506v219h850v-175l-515 -689v-13h533v-219h-879z" />
    <glyph glyph-name="Zlinebelow.sc" horiz-adv-x="1058" 
d="M824 -359h-590v157h590v-157zM93 0v175l517 688v14h-506v219h850v-175l-515 -689v-13h533v-219h-879z" />
    <glyph glyph-name="Zdotbelow.sc" horiz-adv-x="1058" 
d="M411 -259c0 69 53 122 119 122c67 0 120 -53 120 -122c0 -67 -53 -120 -120 -120c-66 0 -119 53 -119 120zM93 0v175l517 688v14h-506v219h850v-175l-515 -689v-13h533v-219h-879z" />
    <glyph glyph-name="Zdotaccent.sc" horiz-adv-x="1058" 
d="M396 1357c0 75 59 134 132 134c75 0 134 -59 134 -134c0 -74 -59 -132 -134 -132c-73 0 -132 58 -132 132zM93 0v175l517 688v14h-506v219h850v-175l-515 -689v-13h533v-219h-879z" />
    <glyph glyph-name="AE.sc" horiz-adv-x="1671" 
d="M734 880l-194 -436h254v436h-60zM794 238h-341l-115 -238h-313l526 1096h1018v-216h-503v-229h471v-200h-471v-234h503v-217h-775v238z" />
    <glyph glyph-name="AEmacron.sc" horiz-adv-x="1671" 
d="M734 880l-194 -436h254v436h-60zM794 238h-341l-115 -238h-313l526 1096h1018v-216h-503v-229h471v-200h-471v-234h503v-217h-775v238zM1459 1257h-590v157h590v-157z" />
    <glyph glyph-name="AEacute.sc" horiz-adv-x="1671" 
d="M1248 1221h-195l207 294h243zM734 880l-194 -436h254v436h-60zM794 238h-341l-115 -238h-313l526 1096h1018v-216h-503v-229h471v-200h-471v-234h503v-217h-775v238z" />
    <glyph glyph-name="OE.sc" horiz-adv-x="1713" 
d="M390 610v-130c0 -186 92 -278 227 -278s227 89 227 274v139c0 185 -92 277 -227 277s-227 -97 -227 -282zM554 -20c-292 0 -468 201 -468 505v121c0 332 196 509 469 509c140 0 251 -47 308 -134h16v115h731v-217h-494v-228h463v-200h-463v-234h494v-217h-731v116h-16
c-55 -80 -160 -136 -309 -136z" />
    <glyph glyph-name="Eth.sc" horiz-adv-x="1271" 
d="M672 0h-458v435h-142v237h142v424h458c374 0 524 -220 524 -544c0 -325 -152 -552 -524 -552zM500 223h124c162 0 275 64 275 329c0 179 -54 333 -275 333h-124v-213h172v-237h-172v-212z" />
    <glyph glyph-name="Thorn.sc" horiz-adv-x="1086" 
d="M133 1096h285v-166h202c268 0 407 -167 407 -374c0 -211 -142 -370 -411 -370h-197v-186h-286v1096zM418 720v-328h122c114 0 196 43 196 164c0 110 -71 164 -184 164h-134z" />
    <glyph glyph-name="Alphagreek.sc" horiz-adv-x="1149" 
d="M319 0h-289l368 1096h356l365 -1096h-307l-71 244h-350zM574 851h-13l-118 -407h247z" />
    <glyph glyph-name="Betagreek.sc" horiz-adv-x="1131" 
d="M133 0v1096h518c213 0 356 -100 356 -269c0 -141 -96 -219 -207 -239v-12c126 -8 261 -91 261 -264c0 -200 -177 -312 -400 -312h-528zM420 901v-248h130c122 0 175 52 175 126s-54 122 -149 122h-156zM420 477v-282h145c143 0 203 55 203 140c0 86 -61 142 -180 142
h-168z" />
    <glyph glyph-name="Gammagreek.sc" horiz-adv-x="956" 
d="M423 0h-290v1096h759v-222h-469v-874z" />
    <glyph glyph-name="Deltagreek.sc" horiz-adv-x="1163" 
d="M65 0v136l340 960h355l339 -960v-136h-1034zM567 843l-207 -643h427l-206 643h-14z" />
    <glyph glyph-name="Epsilongreek.sc" horiz-adv-x="1016" 
d="M914 219v-220h-781v1096h781v-219h-494v-226h463v-200h-463v-231h494z" />
    <glyph glyph-name="Zetagreek.sc" horiz-adv-x="1058" 
d="M94 0v177l512 686v12h-502v221h850v-176l-511 -687v-12h529v-221h-878z" />
    <glyph glyph-name="Etagreek.sc" horiz-adv-x="1256" 
d="M1123 0h-289v442h-411v-442h-290v1096h290v-429h411v429h289v-1096z" />
    <glyph glyph-name="Thetagreek.sc" horiz-adv-x="1273" 
d="M811 442h-349v212h349v-212zM376 616v-140c0 -173 111 -265 261 -265s261 89 261 265v140c0 178 -110 269 -261 269c-156 0 -261 -94 -261 -269zM86 483v124c0 321 217 508 551 508c335 0 550 -188 550 -508v-124c0 -318 -216 -503 -551 -503c-334 0 -550 186 -550 503z
" />
    <glyph glyph-name="Iotagreek.sc" horiz-adv-x="556" 
d="M423 0h-290v1096h290v-1096z" />
    <glyph glyph-name="Kappagreek.sc" horiz-adv-x="1154" 
d="M1131 1096l-397 -476l411 -620h-340l-283 437l-99 -112v-325h-290v1096h290v-460h13l387 460h308z" />
    <glyph glyph-name="Lambdagreek.sc" horiz-adv-x="1133" 
d="M553 814l-229 -814h-291l357 1096h356l355 -1096h-311l-224 814h-13z" />
    <glyph glyph-name="Mugreek.sc" horiz-adv-x="1452" 
d="M392 0h-257v1096h299l288 -596h10l289 596h297v-1096h-260v667h-13l-236 -494h-167l-238 494h-12v-667z" />
    <glyph glyph-name="Nugreek.sc" horiz-adv-x="1224" 
d="M400 0h-267v1096h227l453 -627h11v627h267v-1096h-225l-455 635h-11v-635z" />
    <glyph glyph-name="Xigreek.sc" horiz-adv-x="1048" 
d="M103 870v226h842v-226h-842zM176 446v207h696v-207h-696zM103 0v226h842v-226h-842z" />
    <glyph glyph-name="Omicrongreek.sc" horiz-adv-x="1209" 
d="M382 610v-128c0 -184 90 -277 223 -277s222 93 222 277v128c0 184 -89 280 -222 280s-223 -96 -223 -280zM86 483v124c0 311 190 508 519 508c330 0 518 -198 518 -508v-124c0 -308 -189 -503 -519 -503c-329 0 -518 195 -518 503z" />
    <glyph glyph-name="Pigreek.sc" horiz-adv-x="1239" 
d="M1106 0h-289v872h-394v-872h-290v1096h973v-1096z" />
    <glyph glyph-name="Rhogreek.sc" horiz-adv-x="1088" 
d="M133 1096h493c268 0 406 -177 406 -385c0 -210 -141 -379 -410 -379h-200v-332h-289v1096zM421 884v-346h108c129 0 210 50 210 173c0 112 -71 173 -183 173h-135z" />
    <glyph glyph-name="Sigmagreek.sc" horiz-adv-x="1048" 
d="M94 154l291 398l-287 367v177h855v-221h-483v-12l225 -293v-26l-232 -311v-12h499v-221h-868v154z" />
    <glyph glyph-name="Taugreek.sc" horiz-adv-x="976" 
d="M632 0h-289v870h-311v226h911v-226h-311v-870z" />
    <glyph glyph-name="Upsilongreek.sc" horiz-adv-x="1059" 
d="M674 0h-289v373l-386 723h317l213 -448h10l215 448h306l-386 -716v-380z" />
    <glyph glyph-name="Phigreek.sc" horiz-adv-x="1461" 
d="M860 -63h-259v89c-342 8 -515 209 -515 507v23c0 301 175 497 515 506v95h259v-95c340 -9 515 -206 515 -508v-20c0 -297 -173 -500 -515 -508v-89zM607 230v628c-151 -6 -232 -114 -232 -287v-56c0 -180 87 -278 232 -285zM854 230c145 7 233 105 233 285v56
c0 173 -82 281 -233 287v-628z" />
    <glyph glyph-name="Chigreek.sc" horiz-adv-x="1084" 
d="M1080 1096l-355 -547l352 -549h-326l-212 352h-12l-212 -352h-309l341 552l-340 544h338l200 -362h12l200 362h323z" />
    <glyph glyph-name="Psigreek.sc" horiz-adv-x="1390" 
d="M559 0v219c-280 11 -441 132 -441 404v473h271v-478c0 -125 52 -176 170 -184v662h271v-662c118 8 171 59 171 184v478h271v-473c0 -273 -162 -394 -442 -404v-219h-271z" />
    <glyph glyph-name="Omegagreek.sc" horiz-adv-x="1279" 
d="M712 0v283c85 27 152 145 152 295v49c0 171 -92 263 -225 263s-224 -94 -224 -263v-49c0 -149 66 -268 152 -295v-283h-477v231h202v15c-96 52 -172 182 -172 335v55c0 302 193 479 519 479c327 0 520 -177 520 -479v-55c0 -153 -76 -283 -172 -335v-15h202v-231h-477z
" />
    <glyph glyph-name="Alphatonosgreek.sc" horiz-adv-x="1269" 
d="M438 0h-288l368 1096h355l366 -1096h-308l-71 244h-350zM693 851h-13l-118 -407h247zM43 807l72 289h240l-128 -289h-184z" />
    <glyph glyph-name="Epsilontonosgreek.sc" horiz-adv-x="1334" 
d="M1232 219v-220h-780v1096h780v-219h-494v-226h463v-200h-463v-231h494zM37 807l70 289h241l-127 -289h-184z" />
    <glyph glyph-name="Etatonosgreek.sc" horiz-adv-x="1575" 
d="M1442 0h-290v442h-411v-442h-289v1096h289v-429h411v429h290v-1096zM37 807l70 289h241l-127 -289h-184z" />
    <glyph glyph-name="Iotatonosgreek.sc" horiz-adv-x="874" 
d="M741 0h-289v1096h289v-1096zM37 807l70 289h241l-127 -289h-184z" />
    <glyph glyph-name="Iotadieresisgreek.sc" horiz-adv-x="556" 
d="M423 0h-290v1096h290v-1096zM117 1174c-55 0 -97 41 -97 95c0 55 42 98 97 98c58 0 104 -43 104 -98c0 -54 -46 -95 -104 -95zM433 1174c-55 0 -98 41 -98 95c0 55 43 98 98 98c58 0 103 -43 103 -98c0 -54 -45 -95 -103 -95z" />
    <glyph glyph-name="Omicrontonosgreek.sc" horiz-adv-x="1436" 
d="M609 610v-128c0 -184 90 -277 223 -277s222 93 222 277v128c0 184 -89 280 -222 280s-223 -96 -223 -280zM314 483v124c0 311 190 508 518 508c330 0 518 -198 518 -508v-124c0 -308 -189 -503 -519 -503c-329 0 -517 195 -517 503zM37 807l70 289h241l-127 -289h-184z
" />
    <glyph glyph-name="Upsilontonosgreek.sc" horiz-adv-x="1481" 
d="M1096 0h-289v373l-385 723h316l213 -448h10l214 448h307l-386 -716v-380zM37 807l70 289h241l-127 -289h-184z" />
    <glyph glyph-name="Upsilondieresisgreek.sc" horiz-adv-x="1059" 
d="M674 0h-289v373l-386 723h317l213 -448h10l215 448h306l-386 -716v-380zM371 1174c-56 0 -98 41 -98 95c0 55 42 98 98 98c57 0 103 -43 103 -98c0 -54 -46 -95 -103 -95zM687 1174c-56 0 -99 41 -99 95c0 55 43 98 99 98c57 0 102 -43 102 -98c0 -54 -45 -95 -102 -95z
" />
    <glyph glyph-name="Omegatonosgreek.sc" horiz-adv-x="1475" 
d="M908 0v283c84 27 152 145 152 295v49c0 171 -92 263 -225 263c-134 0 -224 -94 -224 -263v-49c0 -149 66 -268 152 -295v-283h-477v231h202v15c-97 52 -173 182 -173 335v55c0 302 194 479 520 479c327 0 520 -177 520 -479v-55c0 -153 -77 -283 -173 -335v-15h203v-231
h-477zM37 807l70 289h241l-127 -289h-184z" />
    <glyph glyph-name="Acyrillic.sc" horiz-adv-x="1166" 
d="M327 0h-288l368 1096h355l366 -1096h-308l-71 244h-350zM583 851h-14l-118 -407h247z" />
    <glyph glyph-name="Becyrillic.sc" horiz-adv-x="1114" 
d="M430 874v-178h198c269 0 410 -152 410 -342c0 -192 -138 -354 -406 -354h-491v1096h784v-222h-495zM429 212h145c105 0 171 50 171 141s-66 142 -171 142h-145v-283z" />
    <glyph glyph-name="Vecyrillic.sc" horiz-adv-x="1148" 
d="M141 0v1096h518c213 0 356 -100 356 -269c0 -141 -96 -219 -207 -239v-12c127 -8 262 -91 262 -264c0 -200 -178 -312 -401 -312h-528zM428 901v-248h131c122 0 174 52 174 126s-54 122 -149 122h-156zM428 477v-282h146c143 0 202 55 202 140c0 86 -60 142 -179 142
h-169z" />
    <glyph glyph-name="Gecyrillic.sc" horiz-adv-x="984" 
d="M431 0h-290v1096h770v-222h-480v-874z" />
    <glyph glyph-name="Decyrillic.sc" horiz-adv-x="1313" 
d="M830 225v646h-310l-11 -249c-8 -195 -20 -308 -78 -385v-12h399zM303 -230h-255v455h92c84 56 103 163 112 438l16 433h846v-871h140v-455h-257v230h-694v-230z" />
    <glyph glyph-name="Iecyrillic.sc" horiz-adv-x="1033" 
d="M922 219v-219h-781v1096h781v-219h-494v-226h463v-201h-463v-231h494z" />
    <glyph glyph-name="Iocyrillic.sc" horiz-adv-x="1033" 
d="M922 219v-219h-781v1096h781v-219h-494v-226h463v-201h-463v-231h494zM362 1174c-56 0 -98 41 -98 95c0 55 42 98 98 98c57 0 103 -43 103 -98c0 -54 -46 -95 -103 -95zM678 1174c-56 0 -99 41 -99 95c0 55 43 98 99 98c57 0 102 -43 102 -98c0 -54 -45 -95 -102 -95z
" />
    <glyph glyph-name="Zhecyrillic.sc" horiz-adv-x="1717" 
d="M1689 1096l-425 -520l419 -576h-334l-337 454h-12v-454h-278v454h-12l-336 -454h-329l414 565l-432 531h329l354 -441h12v441h278v-441h12l355 441h322z" />
    <glyph glyph-name="Zecyrillic.sc" horiz-adv-x="1076" 
d="M390 460v205h141c92 0 156 47 156 119c0 76 -66 126 -160 126c-103 0 -171 -65 -173 -153h-266c8 214 168 358 445 358c262 0 433 -126 433 -299c0 -123 -94 -214 -228 -233v-14c150 -13 260 -116 260 -250c0 -207 -182 -339 -468 -339c-274 0 -453 150 -456 366h262
c3 -92 78 -156 197 -156c107 0 180 54 180 137c0 84 -73 133 -183 133h-140z" />
    <glyph glyph-name="Iicyrillic.sc" horiz-adv-x="1273" 
d="M854 0v674h-13l-436 -674h-264v1096h278v-673h13l436 673h263v-1096h-277z" />
    <glyph glyph-name="Iishortcyrillic.sc" horiz-adv-x="1273" 
d="M854 0v674h-13l-436 -674h-264v1096h278v-673h13l436 673h263v-1096h-277zM349 1429h155c0 -73 43 -119 136 -119c94 0 137 46 137 119h155c0 -152 -108 -250 -292 -250c-182 0 -291 97 -291 250z" />
    <glyph glyph-name="Kacyrillic.sc" horiz-adv-x="1180" 
d="M805 0l-361 454h-13v-454h-290v1096h290v-441h13l379 441h328l-451 -519l448 -577h-343z" />
    <glyph glyph-name="Elcyrillic.sc" horiz-adv-x="1210" 
d="M234 663l6 433h828v-1096h-289v871h-279l-7 -252c-12 -467 -90 -634 -338 -634c-48 0 -84 7 -100 15v235c8 -3 26 -7 43 -7c105 0 131 116 136 435z" />
    <glyph glyph-name="Emcyrillic.sc" horiz-adv-x="1467" 
d="M398 0h-257v1096h300l289 -596h9l289 596h297v-1096h-260v667h-13l-236 -494h-167l-238 494h-13v-667z" />
    <glyph glyph-name="Encyrillic.sc" horiz-adv-x="1273" 
d="M1131 0h-289v442h-411v-442h-290v1096h290v-429h411v429h289v-1096z" />
    <glyph glyph-name="Ocyrillic.sc" horiz-adv-x="1226" 
d="M391 610v-128c0 -184 89 -277 222 -277s223 93 223 277v128c0 184 -90 280 -223 280s-222 -96 -222 -280zM95 483v124c0 311 190 508 519 508c330 0 517 -198 517 -508v-124c0 -308 -188 -503 -518 -503c-329 0 -518 195 -518 503z" />
    <glyph glyph-name="Pecyrillic.sc" horiz-adv-x="1256" 
d="M1114 0h-289v871h-394v-871h-290v1096h973v-1096z" />
    <glyph glyph-name="Ercyrillic.sc" horiz-adv-x="1107" 
d="M141 1096h493c269 0 406 -177 406 -385c0 -210 -140 -379 -410 -379h-200v-332h-289v1096zM429 884v-346h108c130 0 210 50 210 173c0 112 -70 173 -182 173h-136z" />
    <glyph glyph-name="Escyrillic.sc" horiz-adv-x="1163" 
d="M390 604v-115c0 -181 77 -280 211 -280c123 0 195 84 196 198h276v-35c0 -235 -198 -392 -474 -392c-324 0 -504 198 -504 511v112c0 314 180 512 504 512c276 0 474 -158 474 -397v-35h-276c-1 118 -73 203 -196 203c-134 0 -211 -100 -211 -282z" />
    <glyph glyph-name="Tecyrillic.sc" horiz-adv-x="993" 
d="M641 0h-289v870h-311v226h911v-226h-311v-870z" />
    <glyph glyph-name="Ucyrillic.sc" horiz-adv-x="1076" 
d="M769 1096h299l-365 -775c-105 -224 -205 -336 -407 -336c-77 0 -130 14 -134 15v218c5 -1 42 -10 90 -10c62 0 113 20 157 81l-401 807h317l223 -517h13z" />
    <glyph glyph-name="Efcyrillic.sc" horiz-adv-x="1485" 
d="M880 -8h-278v122c-325 13 -512 169 -512 436v6c0 268 188 426 512 439v109h278v-109c327 -12 516 -168 516 -436v-6c0 -269 -190 -427 -516 -440v-121zM370 550c0 -149 87 -220 238 -226v461c-150 -7 -238 -80 -238 -229v-6zM1115 559c0 149 -88 220 -241 226v-462
c152 7 241 80 241 230v6z" />
    <glyph glyph-name="Xacyrillic.sc" horiz-adv-x="1101" 
d="M1088 1096l-354 -547l352 -549h-327l-212 352h-12l-212 -352h-309l342 552l-341 544h338l201 -362h12l199 362h323z" />
    <glyph glyph-name="Tsecyrillic.sc" horiz-adv-x="1316" 
d="M1117 225h140v-455h-256v230h-173h-687v1096h290v-871h397v871h289v-871z" />
    <glyph glyph-name="Checyrillic.sc" horiz-adv-x="1226" 
d="M1085 0h-289v442h-12c-37 -19 -141 -58 -251 -58c-263 0 -413 143 -413 397v315h289v-298c0 -127 64 -187 196 -187c89 0 168 38 191 53v432h289v-1096z" />
    <glyph glyph-name="Shacyrillic.sc" horiz-adv-x="1736" 
d="M141 0v1096h290v-871h292v871h290v-871h292v871h289v-1096h-1453z" />
    <glyph glyph-name="Shchacyrillic.sc" horiz-adv-x="1793" 
d="M1734 -230h-256v230h-1337v1096h290v-871h292v871h290v-871h292v871h289v-871h140v-455z" />
    <glyph glyph-name="Hardsigncyrillic.sc" horiz-adv-x="1266" 
d="M787 0h-492v871h-239v225h528v-339h200c269 0 410 -167 410 -375c0 -207 -138 -382 -407 -382zM718 212c112 0 183 60 183 169c0 108 -71 169 -183 169h-138v-338h138z" />
    <glyph glyph-name="Yericyrillic.sc" horiz-adv-x="1550" 
d="M1038 382c0 -207 -138 -382 -407 -382h-490v1096h289v-339h198c269 0 410 -167 410 -375zM562 550h-135v-338h135c112 0 182 60 182 169c0 108 -70 169 -182 169zM1409 0h-290v1096h290v-1096z" />
    <glyph glyph-name="Softsigncyrillic.sc" horiz-adv-x="1113" 
d="M634 0h-493v1096h289v-339h200c270 0 410 -167 410 -375c0 -207 -137 -382 -406 -382zM565 212c112 0 182 60 182 169c0 108 -70 169 -182 169h-138v-338h138z" />
    <glyph glyph-name="Ereversedcyrillic.sc" horiz-adv-x="1165" 
d="M566 -20c-293 0 -476 171 -476 392v12h277c7 -91 66 -175 195 -175c122 0 202 77 213 231v12h-370v201h370v2c-12 152 -92 231 -212 231c-128 0 -187 -87 -196 -173h-277v5c0 228 187 397 476 397c320 0 504 -196 504 -509v-118c0 -314 -183 -508 -504 -508z" />
    <glyph glyph-name="IUcyrillic.sc" horiz-adv-x="1669" 
d="M1278 482v128c0 184 -85 280 -214 280c-128 0 -214 -96 -214 -280v-128c0 -184 86 -277 214 -277c129 0 214 93 214 277zM431 667h132c23 276 203 448 502 448c325 0 509 -198 509 -508v-124c0 -308 -185 -503 -510 -503c-307 0 -486 178 -502 462h-131v-442h-290v1096
h290v-429z" />
    <glyph glyph-name="IAcyrillic.sc" horiz-adv-x="1162" 
d="M581 575h155v312h-155c-115 0 -185 -54 -185 -156c0 -101 70 -156 185 -156zM731 371h-134l-211 -371h-315l250 422c-141 55 -217 169 -217 308c0 200 139 366 419 366h497v-1096h-289v371z" />
    <glyph glyph-name="Djecyrillic.sc" horiz-adv-x="1365" 
d="M653 625c52 33 161 58 244 58c243 0 388 -130 388 -347c0 -214 -144 -352 -365 -352c-60 0 -119 7 -140 16v208c16 -4 50 -7 82 -7c79 0 134 53 134 127c0 89 -60 137 -172 137c-68 0 -145 -23 -183 -54v-411h-289v870h-311v226h910v-226h-310v-245h12z" />
    <glyph glyph-name="Gjecyrillic.sc" horiz-adv-x="984" 
d="M431 0h-290v1096h770v-222h-480v-874zM608 1203h-190l184 244h232z" />
    <glyph glyph-name="Ecyrillic.sc" horiz-adv-x="1165" 
d="M1075 713h-277c-8 86 -67 173 -196 173c-120 0 -200 -80 -213 -233h372v-201h-373c10 -162 91 -243 216 -243c128 0 188 84 195 175h276v-12c0 -221 -183 -392 -476 -392c-321 0 -504 194 -504 508v118c0 313 184 509 505 509c288 0 475 -169 475 -397v-5z" />
    <glyph glyph-name="Dzecyrillic.sc" horiz-adv-x="1116" 
d="M81 324h275c4 -68 73 -133 204 -133c125 0 182 50 182 118c0 66 -58 95 -169 117l-159 32c-174 32 -310 120 -310 314c0 220 192 344 454 344c285 0 447 -153 449 -336h-266c-5 63 -63 128 -183 128c-107 0 -166 -47 -166 -114c0 -57 55 -91 154 -108l164 -31
c165 -29 317 -107 317 -318c0 -214 -170 -357 -477 -357c-355 0 -467 183 -469 344z" />
    <glyph glyph-name="Icyrillic.sc" horiz-adv-x="573" 
d="M431 0h-290v1096h290v-1096z" />
    <glyph glyph-name="Yicyrillic.sc" horiz-adv-x="568" 
d="M429 0h-290v1096h290v-1096zM123 1174c-55 0 -97 41 -97 95c0 55 42 98 97 98c58 0 104 -43 104 -98c0 -54 -46 -95 -104 -95zM439 1174c-55 0 -98 41 -98 95c0 55 43 98 98 98c58 0 103 -43 103 -98c0 -54 -45 -95 -103 -95z" />
    <glyph glyph-name="Jecyrillic.sc" horiz-adv-x="1024" 
d="M54 361h277c2 -83 49 -136 136 -136c97 0 135 55 135 156v715h290v-719c0 -263 -159 -397 -422 -397c-289 0 -416 186 -416 381z" />
    <glyph glyph-name="Ljecyrillic.sc" horiz-adv-x="1737" 
d="M493 619c-12 -467 -91 -634 -338 -634c-50 0 -85 7 -100 15v235c10 -4 27 -7 43 -7c104 0 132 116 136 435l6 433h815v-339h200c269 0 409 -167 409 -375c0 -207 -137 -382 -406 -382h-492v871h-266zM1189 550h-139v-338h139c112 0 182 60 182 169
c0 108 -70 169 -182 169z" />
    <glyph glyph-name="Njecyrillic.sc" horiz-adv-x="1813" 
d="M842 702v394h289v-394h197c271 0 413 -151 413 -348c0 -194 -139 -354 -410 -354h-489v478h-411v-478h-290v1096h290v-394h411zM1271 495h-145v-283h145c108 0 176 48 176 142c0 93 -68 141 -176 141z" />
    <glyph glyph-name="Tshecyrillic.sc" horiz-adv-x="1413" 
d="M653 625c48 30 156 58 238 58c250 0 391 -141 391 -385v-298h-289v280c0 123 -58 183 -177 183c-63 0 -137 -24 -175 -55v-408h-289v870h-311v226h910v-226h-310v-245h12z" />
    <glyph glyph-name="Kjecyrillic.sc" horiz-adv-x="1180" 
d="M805 0l-361 454h-13v-454h-290v1096h290v-441h13l379 441h328l-451 -519l448 -577h-343zM713 1203h-190l184 244h232z" />
    <glyph glyph-name="Ushortcyrillic.sc" horiz-adv-x="1076" 
d="M687 1426h156c0 -152 -108 -250 -292 -250c-182 0 -291 97 -291 250h155c0 -73 43 -119 136 -119c94 0 136 46 136 119zM769 1096h299l-365 -775c-105 -224 -205 -336 -407 -336c-77 0 -130 14 -134 15v218c5 -1 42 -10 90 -10c62 0 113 20 157 81l-401 807h317l223 -517
h13z" />
    <glyph glyph-name="Dzhecyrillic.sc" horiz-adv-x="1264" 
d="M834 1096h289v-1096h-362v-230h-256v230h-364v1096h290v-871h403v871z" />
    <glyph glyph-name="Geupturncyrillic.sc" horiz-adv-x="984" 
d="M655 1325h256v-229v-222h-480v-874h-290v1096h514v229z" />
    <glyph glyph-name="zero.sc" horiz-adv-x="1114" 
d="M384 575v-53c0 -217 70 -322 173 -322c102 0 174 106 174 322v53c0 216 -72 321 -174 321c-103 0 -173 -103 -173 -321zM97 521v55c0 319 170 539 463 539c296 0 458 -218 458 -539v-55c0 -296 -155 -541 -464 -541c-295 0 -457 223 -457 541z" />
    <glyph glyph-name="one.sc" horiz-adv-x="859" 
d="M657 0h-284v845h-12c-39 -23 -209 -137 -261 -176v248c43 33 226 152 273 179h284v-1096z" />
    </font>
</defs>
</svg>
