<?xml version="1.0" standalone="no"?>
<!DOCTYPE svg PUBLIC "-//W3C//DTD SVG 1.1//EN" "https://www.w3.org/Graphics/SVG/1.1/DTD/svg11.dtd" >
<svg xmlns="https://www.w3.org/2000/svg" xmlns:xlink="https://www.w3.org/1999/xlink" version="1.1">
<metadata>
Created by FontForge 20190801 at Sat Aug  8 01:53:31 2015
 By Jimmy Wärting
(c) 2014 Apple Inc. All rights reserved.
</metadata>
<defs>
<font id="SFCompactDisplay-Semibold" horiz-adv-x="1800" >
  <font-face 
    font-family="SF Compact Display"
    font-weight="600"
    font-stretch="normal"
    units-per-em="2048"
    panose-1="2 11 5 4 3 2 2 6 2 4"
    ascent="1638"
    descent="-410"
    x-height="1058"
    cap-height="1365"
    bbox="-488 -516 2121 1950"
    underline-thickness="50"
    underline-position="-100"
    stemh="198"
    stemv="240"
    unicode-range="U+0020-1F189"
  />
<missing-glyph horiz-adv-x="2048" 
d="M100 -494v242h1848v-242h-1848zM100 -54v243h1848v-243h-1848zM100 387v242h1848v-242h-1848zM100 827v242h1848v-242h-1848zM100 1267v243h1848v-243h-1848zM100 1708v242h1848v-242h-1848z" />
    <glyph glyph-name=".notdef" horiz-adv-x="2048" 
d="M100 -494v242h1848v-242h-1848zM100 -54v243h1848v-243h-1848zM100 387v242h1848v-242h-1848zM100 827v242h1848v-242h-1848zM100 1267v243h1848v-243h-1848zM100 1708v242h1848v-242h-1848z" />
    <glyph glyph-name=".null" horiz-adv-x="0" 
 />
    <glyph glyph-name="nonmarkingreturn" horiz-adv-x="0" 
 />
    <glyph glyph-name="space" unicode=" " horiz-adv-x="405" 
 />
    <glyph glyph-name="A" unicode="A" horiz-adv-x="1243" 
d="M264 0h-246l466 1365h276l464 -1365h-256l-116 368h-471zM622 1120h-9l-179 -568h366z" />
    <glyph glyph-name="Agrave" unicode="&#xc0;" horiz-adv-x="1242" 
d="M264 0h-246l466 1365h276l464 -1365h-256l-116 368h-471zM622 1120h-9l-179 -568h366zM716 1507h-169l-243 286h215z" />
    <glyph glyph-name="Aacute" unicode="&#xc1;" horiz-adv-x="1242" 
d="M264 0h-246l466 1365h276l464 -1365h-256l-116 368h-471zM622 1120h-9l-179 -568h366zM695 1507h-169l197 286h215z" />
    <glyph glyph-name="Adieresis" unicode="&#xc4;" horiz-adv-x="1243" 
d="M264 0h-246l466 1365h276l464 -1365h-256l-116 368h-471zM622 1120h-9l-179 -568h366zM454 1482c-56 0 -99 44 -99 101c0 60 43 104 99 104c57 0 101 -44 101 -104c0 -57 -44 -101 -101 -101zM788 1482c-56 0 -99 44 -99 101c0 60 43 104 99 104c57 0 101 -44 101 -104
c0 -57 -44 -101 -101 -101z" />
    <glyph glyph-name="Adieresismacron" unicode="&#x1de;" horiz-adv-x="1243" 
d="M264 0h-246l466 1365h276l464 -1365h-256l-116 368h-471zM622 1120h-9l-179 -568h366zM453 1482c-56 0 -99 44 -99 101c0 60 43 104 99 104c57 0 101 -44 101 -104c0 -57 -44 -101 -101 -101zM787 1482c-56 0 -99 44 -99 101c0 60 43 104 99 104c57 0 101 -44 101 -104
c0 -57 -44 -101 -101 -101zM904 1789h-566v124h566v-124z" />
    <glyph glyph-name="Aring" unicode="&#xc5;" horiz-adv-x="1243" 
d="M264 0h-246l466 1365h276l464 -1365h-256l-116 368h-471zM622 1120h-9l-179 -568h366zM621 1474c-116 0 -207 85 -207 201s91 201 207 201c117 0 207 -85 207 -201s-91 -201 -207 -201zM525 1675c0 -55 41 -98 96 -98s96 43 96 98s-41 97 -96 97s-96 -42 -96 -97z" />
    <glyph glyph-name="Aringacute" unicode="&#x1fa;" horiz-adv-x="1243" 
d="M264 0h-246l466 1365h276l464 -1365h-256l-116 368h-471zM622 1120h-9l-179 -568h366zM525 1810l93 133h231l-133 -133h-191zM621 1420c-101 0 -180 74 -180 174s79 174 180 174s180 -74 180 -174s-79 -174 -180 -174zM540 1594c0 -46 35 -83 81 -83c47 0 81 37 81 83
c0 47 -34 82 -81 82c-46 0 -81 -35 -81 -82z" />
    <glyph glyph-name="Atilde" unicode="&#xc3;" horiz-adv-x="1242" 
d="M264 0h-246l466 1365h276l464 -1365h-256l-116 368h-471zM622 1120h-9l-179 -568h366zM731 1478c-125 0 -157 112 -220 112c-44 0 -57 -53 -58 -92h-127c0 104 58 209 180 209c125 0 164 -112 224 -112c42 0 59 52 62 96h126c0 -106 -66 -213 -187 -213z" />
    <glyph glyph-name="Abrevegrave" unicode="&#x1eb0;" horiz-adv-x="1243" 
d="M264 0h-246l466 1365h276l464 -1365h-256l-116 368h-471zM622 1120h-9l-179 -568h366zM937 1730c0 -130 -114 -244 -316 -244s-317 114 -317 244h139c0 -61 54 -121 178 -121s177 60 177 121h139zM718 1751h-160l-181 194h197z" />
    <glyph glyph-name="Adotmacron" unicode="&#x1e0;" horiz-adv-x="1243" 
d="M264 0h-246l466 1365h276l464 -1365h-256l-116 368h-471zM622 1120h-9l-179 -568h366zM504 1578c0 64 52 116 117 116s117 -52 117 -116c0 -65 -52 -115 -117 -115s-117 50 -117 115zM904 1789h-566v124h566v-124z" />
    <glyph glyph-name="Aringbelow" unicode="&#x1e00;" horiz-adv-x="1243" 
d="M264 0h-246l466 1365h276l464 -1365h-256l-116 368h-471zM622 1120h-9l-179 -568h366zM621 -516c-116 0 -207 85 -207 201s91 201 207 201c117 0 207 -85 207 -201s-91 -201 -207 -201zM525 -315c0 -55 41 -98 96 -98s96 43 96 98s-41 97 -96 97s-96 -42 -96 -97z" />
    <glyph glyph-name="Acircumflex" unicode="&#xc2;" horiz-adv-x="1243" 
d="M264 0h-246l466 1365h276l464 -1365h-256l-116 368h-471zM622 1120h-9l-179 -568h366zM322 1507l223 285h152l223 -285h-181l-115 161h-6l-115 -161h-181z" />
    <glyph glyph-name="Acircumflexdotbelow" unicode="&#x1eac;" horiz-adv-x="1243" 
d="M264 0h-246l466 1365h276l464 -1365h-256l-116 368h-471zM622 1120h-9l-179 -568h366zM514 -264c0 63 48 111 107 111c62 0 109 -48 109 -111c0 -61 -47 -110 -109 -110c-59 0 -107 49 -107 110zM322 1507l223 285h152l223 -285h-181l-115 161h-6l-115 -161h-181z" />
    <glyph glyph-name="Acircumflexacute" unicode="&#x1ea4;" horiz-adv-x="1243" 
d="M264 0h-246l466 1365h276l464 -1365h-256l-116 368h-471zM622 1120h-9l-179 -568h366zM275 1507l273 220h146l273 -220h-201l-141 112h-8l-141 -112h-201zM836 1700l204 235h195l-246 -235h-153z" />
    <glyph glyph-name="Acircumflextilde" unicode="&#x1eaa;" horiz-adv-x="1243" 
d="M264 0h-246l466 1365h276l464 -1365h-256l-116 368h-471zM622 1120h-9l-179 -568h366zM290 1507l264 200h134l264 -200h-192l-137 107h-4l-137 -107h-192zM475 1776h-119c0 92 63 167 159 167c95 0 133 -81 190 -81c36 0 56 24 59 63h120c0 -90 -73 -175 -174 -175
c-93 0 -127 82 -182 82c-34 0 -52 -26 -53 -56z" />
    <glyph glyph-name="Acircumflexgrave" unicode="&#x1ea6;" horiz-adv-x="1243" 
d="M264 0h-246l466 1365h276l464 -1365h-256l-116 368h-471zM622 1120h-9l-179 -568h366zM275 1507l273 220h146l273 -220h-201l-141 112h-8l-141 -112h-201zM1101 1700h-153l-259 235h195z" />
    <glyph glyph-name="Acircumflexhookabove" unicode="&#x1ea8;" horiz-adv-x="1243" 
d="M264 0h-246l466 1365h276l464 -1365h-256l-116 368h-471zM622 1120h-9l-179 -568h366zM275 1507l273 220h146l273 -220h-201l-141 112h-8l-141 -112h-201zM768 1841v89c23 7 51 12 83 12c96 0 171 -48 171 -141c0 -73 -54 -123 -113 -144l-65 79c39 13 59 30 59 56
c0 36 -40 57 -75 57c-27 0 -42 -3 -60 -8z" />
    <glyph glyph-name="Abreve" unicode="&#x102;" horiz-adv-x="1243" 
d="M264 0h-246l466 1365h276l464 -1365h-256l-116 368h-471zM622 1120h-9l-179 -568h366zM324 1761h137c0 -82 50 -149 160 -149s160 67 160 149h135c0 -140 -94 -275 -295 -275s-298 135 -297 275z" />
    <glyph glyph-name="Abreveacute" unicode="&#x1eae;" horiz-adv-x="1243" 
d="M264 0h-246l466 1365h276l464 -1365h-256l-116 368h-471zM622 1120h-9l-179 -568h366zM937 1730c0 -130 -114 -244 -316 -244s-317 114 -317 244h139c0 -61 54 -121 178 -121s177 60 177 121h139zM520 1751l143 194h197l-181 -194h-159z" />
    <glyph glyph-name="Abrevetilde" unicode="&#x1eb4;" horiz-adv-x="1243" 
d="M264 0h-246l466 1365h276l464 -1365h-256l-116 368h-471zM622 1120h-9l-179 -568h366zM933 1704c0 -121 -124 -225 -312 -225c-187 0 -310 104 -310 225h135c0 -54 56 -113 175 -113s176 59 176 113h136zM473 1775h-123c0 93 65 170 163 170c97 0 135 -83 194 -83
c36 0 56 24 59 65h124c0 -92 -76 -179 -179 -179c-94 0 -128 84 -185 84c-34 0 -52 -28 -53 -57z" />
    <glyph glyph-name="Abrevehookabove" unicode="&#x1eb2;" horiz-adv-x="1243" 
d="M264 0h-246l466 1365h276l464 -1365h-256l-116 368h-471zM622 1120h-9l-179 -568h366zM933 1704c0 -121 -124 -225 -312 -225c-187 0 -310 104 -310 225h135c0 -54 56 -113 175 -113s176 59 176 113h136zM483 1833v91c22 7 49 12 81 12c97 0 168 -53 168 -134
c0 -69 -51 -117 -108 -134l-67 80c33 6 55 22 55 46c0 33 -38 49 -69 49c-25 0 -42 -4 -60 -10z" />
    <glyph glyph-name="Abrevedotbelow" unicode="&#x1eb6;" horiz-adv-x="1243" 
d="M264 0h-246l466 1365h276l464 -1365h-256l-116 368h-471zM622 1120h-9l-179 -568h366zM515 -264c0 63 48 111 107 111c62 0 109 -48 109 -111c0 -61 -47 -110 -109 -110c-59 0 -107 49 -107 110zM324 1761h137c0 -82 50 -149 160 -149s160 67 160 149h135
c0 -140 -94 -275 -295 -275s-298 135 -297 275z" />
    <glyph glyph-name="Ainvertedbreve" unicode="&#x202;" horiz-adv-x="1243" 
d="M264 0h-246l466 1365h276l464 -1365h-256l-116 368h-471zM622 1120h-9l-179 -568h366zM621 1656c-110 0 -160 -67 -160 -149h-137c-1 140 96 275 297 275s295 -135 295 -275h-135c0 82 -50 149 -160 149z" />
    <glyph glyph-name="Acaron" unicode="&#x1cd;" horiz-adv-x="1243" 
d="M264 0h-246l466 1365h276l464 -1365h-256l-116 368h-471zM622 1120h-9l-179 -568h366zM322 1791h181l115 -161h6l115 161h181l-223 -284h-152z" />
    <glyph glyph-name="Adotaccent" unicode="&#x226;" horiz-adv-x="1243" 
d="M264 0h-246l466 1365h276l464 -1365h-256l-116 368h-471zM622 1120h-9l-179 -568h366zM495 1645c0 70 57 125 126 125s126 -55 126 -125c0 -69 -57 -124 -126 -124s-126 55 -126 124z" />
    <glyph glyph-name="Adotbelow" unicode="&#x1ea0;" horiz-adv-x="1243" 
d="M264 0h-246l466 1365h276l464 -1365h-256l-116 368h-471zM622 1120h-9l-179 -568h366zM514 -264c0 63 48 111 107 111c62 0 109 -48 109 -111c0 -61 -47 -110 -109 -110c-59 0 -107 49 -107 110z" />
    <glyph glyph-name="Ahookabove" unicode="&#x1ea2;" horiz-adv-x="1242" 
d="M264 0h-246l466 1365h276l464 -1365h-256l-116 368h-471zM622 1120h-9l-179 -568h366zM479 1658v106c18 7 60 17 107 17c123 0 211 -58 211 -163c0 -103 -92 -149 -146 -171l-74 89c38 11 84 35 84 73c0 46 -47 59 -92 59c-38 0 -68 -5 -90 -10z" />
    <glyph glyph-name="Adblgrave" unicode="&#x200;" horiz-adv-x="1242" 
d="M264 0h-246l466 1365h276l464 -1365h-256l-116 368h-471zM622 1120h-9l-179 -568h366zM561 1508h-166l-262 263h211zM895 1508h-166l-262 263h211z" />
    <glyph glyph-name="Amacron" unicode="&#x100;" horiz-adv-x="1243" 
d="M264 0h-246l466 1365h276l464 -1365h-256l-116 368h-471zM622 1120h-9l-179 -568h366zM904 1514h-566v124h566v-124z" />
    <glyph glyph-name="Aogonek" unicode="&#x104;" horiz-adv-x="1243" 
d="M264 0h-246l466 1365h276l455 -1336c-110 -33 -171 -99 -171 -170c0 -57 42 -97 118 -97c23 0 50 2 77 8v-138c-27 -12 -84 -20 -138 -20c-139 0 -240 77 -240 203c0 91 52 163 134 211v5h-38l-105 337h-471zM622 1120h-9l-179 -568h366z" />
    <glyph glyph-name="B" unicode="B" horiz-adv-x="1247" 
d="M150 0v1365h553c240 0 396 -127 396 -336c0 -162 -93 -264 -229 -299v-11c170 -19 302 -134 302 -334c0 -243 -194 -385 -476 -385h-546zM391 1177v-386h187c196 0 282 68 282 197c0 118 -77 189 -210 189h-259zM391 614v-426h211c230 0 323 68 323 207
c0 137 -91 219 -257 219h-277z" />
    <glyph glyph-name="Blinebelow" unicode="&#x1e06;" horiz-adv-x="1247" 
d="M150 0v1365h553c240 0 396 -127 396 -336c0 -162 -93 -264 -229 -299v-11c170 -19 302 -134 302 -334c0 -243 -194 -385 -476 -385h-546zM391 1177v-386h187c196 0 282 68 282 197c0 118 -77 189 -210 189h-259zM391 614v-426h211c230 0 323 68 323 207
c0 137 -91 219 -257 219h-277zM879 -348h-572v140h572v-140z" />
    <glyph glyph-name="Bdotbelow" unicode="&#x1e04;" horiz-adv-x="1247" 
d="M487 -264c0 63 48 111 107 111c62 0 109 -48 109 -111c0 -61 -47 -110 -109 -110c-59 0 -107 49 -107 110zM150 0v1365h553c240 0 396 -127 396 -336c0 -162 -93 -264 -229 -299v-11c170 -19 302 -134 302 -334c0 -243 -194 -385 -476 -385h-546zM391 1177v-386h187
c196 0 282 68 282 197c0 118 -77 189 -210 189h-259zM391 614v-426h211c230 0 323 68 323 207c0 137 -91 219 -257 219h-277z" />
    <glyph glyph-name="Bdotaccent" unicode="&#x1e02;" horiz-adv-x="1247" 
d="M467 1645c0 70 57 125 126 125s126 -55 126 -125c0 -69 -57 -124 -126 -124s-126 55 -126 124zM150 0v1365h553c240 0 396 -127 396 -336c0 -162 -93 -264 -229 -299v-11c170 -19 302 -134 302 -334c0 -243 -194 -385 -476 -385h-546zM391 1177v-386h187
c196 0 282 68 282 197c0 118 -77 189 -210 189h-259zM391 614v-426h211c230 0 323 68 323 207c0 137 -91 219 -257 219h-277z" />
    <glyph glyph-name="C" unicode="C" horiz-adv-x="1270" 
d="M340 761v-164c0 -268 115 -417 318 -417c174 0 287 111 290 269h234v-20c0 -267 -222 -456 -525 -456c-357 0 -561 236 -561 625v163c0 392 204 631 561 631c305 0 525 -194 525 -474v-19h-234c-3 168 -116 286 -290 286c-203 0 -318 -152 -318 -424z" />
    <glyph glyph-name="Cacute" unicode="&#x106;" horiz-adv-x="1270" 
d="M723 1507h-169l197 286h215zM340 761v-164c0 -268 115 -417 318 -417c174 0 287 111 290 269h234v-20c0 -267 -222 -456 -525 -456c-357 0 -561 236 -561 625v163c0 392 204 631 561 631c305 0 525 -194 525 -474v-19h-234c-3 168 -116 286 -290 286
c-203 0 -318 -152 -318 -424z" />
    <glyph glyph-name="Ccaron" unicode="&#x10c;" horiz-adv-x="1270" 
d="M340 761v-164c0 -268 115 -417 318 -417c174 0 287 111 290 269h234v-20c0 -267 -222 -456 -525 -456c-357 0 -561 236 -561 625v163c0 392 204 631 561 631c305 0 525 -194 525 -474v-19h-234c-3 168 -116 286 -290 286c-203 0 -318 -152 -318 -424zM350 1791h181
l115 -161h6l115 161h181l-223 -284h-152z" />
    <glyph glyph-name="Ccircumflex" unicode="&#x108;" horiz-adv-x="1270" 
d="M340 761v-164c0 -268 115 -417 318 -417c174 0 287 111 290 269h234v-20c0 -267 -222 -456 -525 -456c-357 0 -561 236 -561 625v163c0 392 204 631 561 631c305 0 525 -194 525 -474v-19h-234c-3 168 -116 286 -290 286c-203 0 -318 -152 -318 -424zM350 1507l223 285
h152l223 -285h-181l-115 161h-6l-115 -161h-181z" />
    <glyph glyph-name="Cdotaccent" unicode="&#x10a;" horiz-adv-x="1270" 
d="M523 1645c0 70 57 125 126 125s126 -55 126 -125c0 -69 -57 -124 -126 -124s-126 55 -126 124zM340 761v-164c0 -268 115 -417 318 -417c174 0 287 111 290 269h234v-20c0 -267 -222 -456 -525 -456c-357 0 -561 236 -561 625v163c0 392 204 631 561 631
c305 0 525 -194 525 -474v-19h-234c-3 168 -116 286 -290 286c-203 0 -318 -152 -318 -424z" />
    <glyph glyph-name="Ccedilla" unicode="&#xc7;" horiz-adv-x="1270" 
d="M631 -484c-57 0 -106 7 -135 15v117c28 -7 79 -13 114 -13c65 0 112 21 112 65c0 45 -30 65 -136 65h-54v94l44 118c-307 34 -480 264 -480 621v163c0 392 204 631 561 631c305 0 525 -194 525 -474v-19h-234c-3 168 -117 286 -290 286c-203 0 -318 -152 -318 -424v-164
c0 -268 115 -417 318 -417c174 0 287 111 290 269h234v-20c0 -247 -191 -429 -462 -453l-39 -101c127 0 201 -63 201 -166c0 -126 -94 -193 -251 -193z" />
    <glyph glyph-name="Ccedillaacute" unicode="&#x1e08;" horiz-adv-x="1270" 
d="M723 1507h-169l197 286h215zM631 -484c-57 0 -106 7 -135 15v117c28 -7 79 -13 114 -13c65 0 112 21 112 65c0 45 -30 65 -136 65h-54v94l44 118c-307 34 -480 264 -480 621v163c0 392 204 631 561 631c305 0 525 -194 525 -474v-19h-234c-3 168 -117 286 -290 286
c-203 0 -318 -152 -318 -424v-164c0 -268 115 -417 318 -417c174 0 287 111 290 269h234v-20c0 -247 -191 -429 -462 -453l-39 -101c127 0 201 -63 201 -166c0 -126 -94 -193 -251 -193z" />
    <glyph glyph-name="D" unicode="D" horiz-adv-x="1317" 
d="M150 1365h481c410 0 607 -243 607 -679c0 -439 -200 -686 -607 -686h-481v1365zM392 1163v-961h210c244 0 387 131 387 480c0 301 -111 481 -387 481h-210z" />
    <glyph glyph-name="Ddotaccent" unicode="&#x1e0a;" horiz-adv-x="1317" 
d="M477 1645c0 70 57 125 126 125s126 -55 126 -125c0 -69 -57 -124 -126 -124s-126 55 -126 124zM150 1365h481c410 0 607 -243 607 -679c0 -439 -200 -686 -607 -686h-481v1365zM392 1163v-961h210c244 0 387 131 387 480c0 301 -111 481 -387 481h-210z" />
    <glyph glyph-name="Dcircumflexbelow" unicode="&#x1e12;" horiz-adv-x="1317" 
d="M150 1365h481c410 0 607 -243 607 -679c0 -439 -200 -686 -607 -686h-481v1365zM392 1163v-961h210c244 0 387 131 387 480c0 301 -111 481 -387 481h-210zM306 -396l219 281h156l219 -281h-179l-115 167h-6l-115 -167h-179z" />
    <glyph glyph-name="Dcommaaccent" unicode="&#x1e10;" horiz-adv-x="1317" 
d="M596 -489h-166l85 335h195zM150 1365h481c410 0 607 -243 607 -679c0 -439 -200 -686 -607 -686h-481v1365zM392 1163v-961h210c244 0 387 131 387 480c0 301 -111 481 -387 481h-210z" />
    <glyph glyph-name="Dlinebelow" unicode="&#x1e0e;" horiz-adv-x="1317" 
d="M889 -348h-572v140h572v-140zM150 1365h481c410 0 607 -243 607 -679c0 -439 -200 -686 -607 -686h-481v1365zM392 1163v-961h210c244 0 387 131 387 480c0 301 -111 481 -387 481h-210z" />
    <glyph glyph-name="Dcaron" unicode="&#x10e;" horiz-adv-x="1317" 
d="M304 1791h181l115 -161h6l115 161h181l-223 -284h-152zM150 1365h481c410 0 607 -243 607 -679c0 -439 -200 -686 -607 -686h-481v1365zM392 1163v-961h210c244 0 387 131 387 480c0 301 -111 481 -387 481h-210z" />
    <glyph glyph-name="Ddotbelow" unicode="&#x1e0c;" horiz-adv-x="1317" 
d="M497 -264c0 63 48 111 107 111c62 0 109 -48 109 -111c0 -61 -47 -110 -109 -110c-59 0 -107 49 -107 110zM150 1365h481c410 0 607 -243 607 -679c0 -439 -200 -686 -607 -686h-481v1365zM392 1163v-961h210c244 0 387 131 387 480c0 301 -111 481 -387 481h-210z" />
    <glyph glyph-name="Dcroat" unicode="&#x110;" horiz-adv-x="1402" 
d="M664 0h-480v590h-112v210h112v565h480c410 0 607 -243 607 -679c0 -439 -200 -686 -607 -686zM425 205h209c245 0 387 131 387 480c0 302 -111 482 -387 482h-209v-367h317v-210h-317v-385z" />
    <glyph glyph-name="E" unicode="E" horiz-adv-x="1118" 
d="M1012 202v-202h-862v1365h862v-202h-621v-375h584v-191h-584v-395h621z" />
    <glyph glyph-name="Egrave" unicode="&#xc8;" horiz-adv-x="1118" 
d="M669 1507h-169l-243 286h215zM1012 202v-202h-862v1365h862v-202h-621v-375h584v-191h-584v-395h621z" />
    <glyph glyph-name="Edblgrave" unicode="&#x204;" horiz-adv-x="1118" 
d="M514 1508h-166l-262 263h211zM848 1508h-166l-262 263h211zM1012 202v-202h-862v1365h862v-202h-621v-375h584v-191h-584v-395h621z" />
    <glyph glyph-name="Eacute" unicode="&#xc9;" horiz-adv-x="1118" 
d="M648 1507h-169l197 286h215zM1012 202v-202h-862v1365h862v-202h-621v-375h584v-191h-584v-395h621z" />
    <glyph glyph-name="Ecircumflex" unicode="&#xca;" horiz-adv-x="1118" 
d="M275 1507l223 285h152l223 -285h-181l-115 161h-6l-115 -161h-181zM1012 202v-202h-862v1365h862v-202h-621v-375h584v-191h-584v-395h621z" />
    <glyph glyph-name="Ecircumflexhookabove" unicode="&#x1ec2;" horiz-adv-x="1118" 
d="M1012 202v-202h-862v1365h862v-202h-621v-375h584v-191h-584v-395h621zM228 1507l273 220h146l273 -220h-201l-141 112h-8l-141 -112h-201zM721 1841v89c23 7 51 12 83 12c96 0 171 -48 171 -141c0 -73 -54 -123 -113 -144l-65 79c39 13 59 30 59 56c0 36 -40 57 -75 57
c-27 0 -42 -3 -60 -8z" />
    <glyph glyph-name="Ecircumflexgrave" unicode="&#x1ec0;" horiz-adv-x="1118" 
d="M1012 202v-202h-862v1365h862v-202h-621v-375h584v-191h-584v-395h621zM228 1507l273 220h146l273 -220h-201l-141 112h-8l-141 -112h-201zM1054 1700h-153l-259 235h195z" />
    <glyph glyph-name="Ecircumflextilde" unicode="&#x1ec4;" horiz-adv-x="1118" 
d="M243 1507l264 200h134l264 -200h-192l-137 107h-4l-137 -107h-192zM428 1776h-119c0 92 63 167 159 167c95 0 133 -81 190 -81c36 0 56 24 59 63h120c0 -90 -73 -175 -174 -175c-93 0 -127 82 -182 82c-34 0 -52 -26 -53 -56zM1012 202v-202h-862v1365h862v-202h-621
v-375h584v-191h-584v-395h621z" />
    <glyph glyph-name="Ecircumflexdotbelow" unicode="&#x1ec6;" horiz-adv-x="1118" 
d="M468 -264c0 63 48 111 107 111c62 0 109 -48 109 -111c0 -61 -47 -110 -109 -110c-59 0 -107 49 -107 110zM275 1507l223 285h152l223 -285h-181l-115 161h-6l-115 -161h-181zM1012 202v-202h-862v1365h862v-202h-621v-375h584v-191h-584v-395h621z" />
    <glyph glyph-name="Ecircumflexacute" unicode="&#x1ebe;" horiz-adv-x="1118" 
d="M1012 202v-202h-862v1365h862v-202h-621v-375h584v-191h-584v-395h621zM228 1507l273 220h146l273 -220h-201l-141 112h-8l-141 -112h-201zM789 1700l204 235h195l-246 -235h-153z" />
    <glyph glyph-name="Edieresis" unicode="&#xcb;" horiz-adv-x="1118" 
d="M406 1482c-56 0 -99 44 -99 101c0 60 43 104 99 104c57 0 101 -44 101 -104c0 -57 -44 -101 -101 -101zM740 1482c-56 0 -99 44 -99 101c0 60 43 104 99 104c57 0 101 -44 101 -104c0 -57 -44 -101 -101 -101zM1012 202v-202h-862v1365h862v-202h-621v-375h584v-191h-584
v-395h621z" />
    <glyph glyph-name="Edotbelow" unicode="&#x1eb8;" horiz-adv-x="1118" 
d="M468 -264c0 63 48 111 107 111c62 0 109 -48 109 -111c0 -61 -47 -110 -109 -110c-59 0 -107 49 -107 110zM1012 202v-202h-862v1365h862v-202h-621v-375h584v-191h-584v-395h621z" />
    <glyph glyph-name="Einvertedbreve" unicode="&#x206;" horiz-adv-x="1118" 
d="M1012 202v-202h-862v1365h862v-202h-621v-375h584v-191h-584v-395h621zM574 1656c-110 0 -160 -67 -160 -149h-137c-1 140 96 275 297 275s295 -135 295 -275h-135c0 82 -50 149 -160 149z" />
    <glyph glyph-name="Ehookabove" unicode="&#x1eba;" horiz-adv-x="1118" 
d="M1012 202v-202h-862v1365h862v-202h-621v-375h584v-191h-584v-395h621zM432 1658v106c18 7 60 17 107 17c123 0 211 -58 211 -163c0 -103 -92 -149 -146 -171l-74 89c38 11 84 35 84 73c0 46 -47 59 -92 59c-38 0 -68 -5 -90 -10z" />
    <glyph glyph-name="Ecaron" unicode="&#x11a;" horiz-adv-x="1118" 
d="M275 1791h181l115 -161h6l115 161h181l-223 -284h-152zM1012 202v-202h-862v1365h862v-202h-621v-375h584v-191h-584v-395h621z" />
    <glyph glyph-name="Emacron" unicode="&#x112;" horiz-adv-x="1118" 
d="M1012 202v-202h-862v1365h862v-202h-621v-375h584v-191h-584v-395h621zM857 1514h-566v124h566v-124z" />
    <glyph glyph-name="Emacrongrave" unicode="&#x1e14;" horiz-adv-x="1118" 
d="M675 1741h-179l-266 194h221zM857 1514h-566v124h566v-124zM1012 202v-202h-862v1365h862v-202h-621v-375h584v-191h-584v-395h621z" />
    <glyph glyph-name="Emacronacute" unicode="&#x1e16;" horiz-adv-x="1118" 
d="M473 1741l224 194h221l-266 -194h-179zM857 1514h-566v124h566v-124zM1012 202v-202h-862v1365h862v-202h-621v-375h584v-191h-584v-395h621z" />
    <glyph glyph-name="Etilde" unicode="&#x1ebc;" horiz-adv-x="1118" 
d="M1012 202v-202h-862v1365h862v-202h-621v-375h584v-191h-584v-395h621zM684 1478c-125 0 -157 112 -220 112c-44 0 -57 -53 -58 -92h-127c0 104 58 209 180 209c125 0 164 -112 224 -112c42 0 59 52 62 96h126c0 -106 -66 -213 -187 -213z" />
    <glyph glyph-name="Ecircumflexbelow" unicode="&#x1e18;" horiz-adv-x="1118" 
d="M1012 202v-202h-862v1365h862v-202h-621v-375h584v-191h-584v-395h621zM277 -396l219 281h156l219 -281h-179l-115 167h-6l-115 -167h-179z" />
    <glyph glyph-name="Ebreve" unicode="&#x114;" horiz-adv-x="1118" 
d="M1012 202v-202h-862v1365h862v-202h-621v-375h584v-191h-584v-395h621zM277 1761h137c0 -82 50 -149 160 -149s160 67 160 149h135c0 -140 -94 -275 -295 -275s-298 135 -297 275z" />
    <glyph glyph-name="Etildebelow" unicode="&#x1e1a;" horiz-adv-x="1118" 
d="M691 -378c-130 0 -168 120 -235 120c-50 0 -60 -64 -60 -98h-136c0 117 63 225 187 225c130 0 171 -120 239 -120c44 0 64 52 67 103h136c0 -113 -70 -230 -198 -230zM1012 202v-202h-862v1365h862v-202h-621v-375h584v-191h-584v-395h621z" />
    <glyph glyph-name="Edotaccent" unicode="&#x116;" horiz-adv-x="1118" 
d="M448 1645c0 70 57 125 126 125s126 -55 126 -125c0 -69 -57 -124 -126 -124s-126 55 -126 124zM1012 202v-202h-862v1365h862v-202h-621v-375h584v-191h-584v-395h621z" />
    <glyph glyph-name="Ecedilla" unicode="&#x228;" horiz-adv-x="1118" 
d="M575 -470c-65 -2 -122 7 -148 15v117c27 -8 79 -14 113 -14c53 0 113 14 113 68c0 57 -57 63 -137 63h-54v93l48 128h-360v1365h862v-202h-621v-375h584v-191h-584v-395h621v-202h-357l-43 -112c121 0 200 -58 200 -165c0 -132 -101 -189 -237 -193z" />
    <glyph glyph-name="Ecedillabreve" unicode="&#x1e1c;" horiz-adv-x="1118" 
d="M575 -470c-65 -2 -122 7 -148 15v117c27 -8 79 -14 113 -14c53 0 113 14 113 68c0 57 -57 63 -137 63h-54v93l48 128h-360v1365h862v-202h-621v-375h584v-191h-584v-395h621v-202h-357l-43 -112c121 0 200 -58 200 -165c0 -132 -101 -189 -237 -193zM277 1761h137
c0 -82 50 -149 160 -149s160 67 160 149h135c0 -140 -94 -275 -295 -275s-298 135 -297 275z" />
    <glyph glyph-name="Eogonek" unicode="&#x118;" horiz-adv-x="1119" 
d="M1012 -368c-29 -10 -82 -20 -131 -20c-126 0 -237 60 -237 197c0 81 46 144 110 185v6h-604v1365h862v-202h-622v-375h585v-191h-584v-395h621v-168c-84 -19 -192 -75 -192 -175c0 -63 48 -97 119 -97c24 0 56 3 73 8v-138z" />
    <glyph glyph-name="F" unicode="F" horiz-adv-x="1057" 
d="M392 0h-242v1365h852v-203h-610v-406h557v-199h-557v-557z" />
    <glyph glyph-name="Fdotaccent" unicode="&#x1e1e;" horiz-adv-x="1057" 
d="M441 1645c0 70 57 125 126 125s126 -55 126 -125c0 -69 -57 -124 -126 -124s-126 55 -126 124zM392 0h-242v1365h852v-203h-610v-406h557v-199h-557v-557z" />
    <glyph glyph-name="G" unicode="G" horiz-adv-x="1295" 
d="M1196 934h-236c-18 153 -126 252 -296 252c-207 0 -325 -148 -325 -402v-186c0 -257 105 -419 332 -419c181 0 297 112 297 262v100h-302v187h533v-275c0 -262 -198 -480 -532 -480c-384 0 -571 246 -571 625v188c0 368 208 606 569 606c323 0 519 -200 531 -458z" />
    <glyph glyph-name="Gacute" unicode="&#x1f4;" horiz-adv-x="1295" 
d="M734 1507h-169l197 286h215zM1196 934h-236c-18 153 -126 252 -296 252c-207 0 -325 -148 -325 -402v-186c0 -257 105 -419 332 -419c181 0 297 112 297 262v100h-302v187h533v-275c0 -262 -198 -480 -532 -480c-384 0 -571 246 -571 625v188c0 368 208 606 569 606
c323 0 519 -200 531 -458z" />
    <glyph glyph-name="Gcaron" unicode="&#x1e6;" horiz-adv-x="1295" 
d="M361 1791h181l115 -161h6l115 161h181l-223 -284h-152zM1196 934h-236c-18 153 -126 252 -296 252c-207 0 -325 -148 -325 -402v-186c0 -257 105 -419 332 -419c181 0 297 112 297 262v100h-302v187h533v-275c0 -262 -198 -480 -532 -480c-384 0 -571 246 -571 625v188
c0 368 208 606 569 606c323 0 519 -200 531 -458z" />
    <glyph glyph-name="Gcircumflex" unicode="&#x11c;" horiz-adv-x="1295" 
d="M361 1507l223 285h152l223 -285h-181l-115 161h-6l-115 -161h-181zM1196 934h-236c-18 153 -126 252 -296 252c-207 0 -325 -148 -325 -402v-186c0 -257 105 -419 332 -419c181 0 297 112 297 262v100h-302v187h533v-275c0 -262 -198 -480 -532 -480
c-384 0 -571 246 -571 625v188c0 368 208 606 569 606c323 0 519 -200 531 -458z" />
    <glyph glyph-name="Gbreve" unicode="&#x11e;" horiz-adv-x="1295" 
d="M1196 934h-236c-18 153 -126 252 -296 252c-207 0 -325 -148 -325 -402v-186c0 -257 105 -419 332 -419c181 0 297 112 297 262v100h-302v187h533v-275c0 -262 -198 -480 -532 -480c-384 0 -571 246 -571 625v188c0 368 208 606 569 606c323 0 519 -200 531 -458z
M363 1761h137c0 -82 50 -149 160 -149s160 67 160 149h135c0 -140 -94 -275 -295 -275s-298 135 -297 275z" />
    <glyph glyph-name="Gmacron" unicode="&#x1e20;" horiz-adv-x="1295" 
d="M1196 934h-236c-18 153 -126 252 -296 252c-207 0 -325 -148 -325 -402v-186c0 -257 105 -419 332 -419c181 0 297 112 297 262v100h-302v187h533v-275c0 -262 -198 -480 -532 -480c-384 0 -571 246 -571 625v188c0 368 208 606 569 606c323 0 519 -200 531 -458z
M943 1514h-566v124h566v-124z" />
    <glyph glyph-name="Gdotaccent" unicode="&#x120;" horiz-adv-x="1295" 
d="M534 1645c0 70 57 125 126 125s126 -55 126 -125c0 -69 -57 -124 -126 -124s-126 55 -126 124zM1196 934h-236c-18 153 -126 252 -296 252c-207 0 -325 -148 -325 -402v-186c0 -257 105 -419 332 -419c181 0 297 112 297 262v100h-302v187h533v-275
c0 -262 -198 -480 -532 -480c-384 0 -571 246 -571 625v188c0 368 208 606 569 606c323 0 519 -200 531 -458z" />
    <glyph glyph-name="Gcommaaccent" unicode="&#x122;" horiz-adv-x="1295" 
d="M653 -489h-166l85 335h195zM1196 934h-236c-18 153 -126 252 -296 252c-207 0 -325 -148 -325 -402v-186c0 -257 105 -419 332 -419c181 0 297 112 297 262v100h-302v187h533v-275c0 -262 -198 -480 -532 -480c-384 0 -571 246 -571 625v188c0 368 208 606 569 606
c323 0 519 -200 531 -458z" />
    <glyph glyph-name="H" unicode="H" horiz-adv-x="1392" 
d="M1242 0h-242v598h-608v-598h-242v1365h242v-563h608v563h242v-1365z" />
    <glyph glyph-name="Hdieresis" unicode="&#x1e26;" horiz-adv-x="1392" 
d="M1242 0h-242v598h-608v-598h-242v1365h242v-563h608v563h242v-1365zM527 1482c-56 0 -99 44 -99 101c0 60 43 104 99 104c57 0 101 -44 101 -104c0 -57 -44 -101 -101 -101zM861 1482c-56 0 -99 44 -99 101c0 60 43 104 99 104c57 0 101 -44 101 -104
c0 -57 -44 -101 -101 -101z" />
    <glyph glyph-name="Hcaron" unicode="&#x21e;" horiz-adv-x="1392" 
d="M1242 0h-242v598h-608v-598h-242v1365h242v-563h608v563h242v-1365zM396 1791h181l115 -161h6l115 161h181l-223 -284h-152z" />
    <glyph glyph-name="Hcircumflex" unicode="&#x124;" horiz-adv-x="1392" 
d="M1242 0h-242v598h-608v-598h-242v1365h242v-563h608v563h242v-1365zM396 1507l223 285h152l223 -285h-181l-115 161h-6l-115 -161h-181z" />
    <glyph glyph-name="Hdotbelow" unicode="&#x1e24;" horiz-adv-x="1392" 
d="M1242 0h-242v598h-608v-598h-242v1365h242v-563h608v563h242v-1365zM587 -264c0 63 48 111 107 111c62 0 109 -48 109 -111c0 -61 -47 -110 -109 -110c-59 0 -107 49 -107 110z" />
    <glyph glyph-name="Hdotaccent" unicode="&#x1e22;" horiz-adv-x="1392" 
d="M1242 0h-242v598h-608v-598h-242v1365h242v-563h608v563h242v-1365zM569 1645c0 70 57 125 126 125s126 -55 126 -125c0 -69 -57 -124 -126 -124s-126 55 -126 124z" />
    <glyph glyph-name="Hbrevebelow" unicode="&#x1e2a;" horiz-adv-x="1392" 
d="M1242 0h-242v598h-608v-598h-242v1365h242v-563h608v563h242v-1365zM864 -133h145c0 -146 -96 -296 -314 -296s-321 147 -321 296h152c0 -84 52 -164 169 -164s169 80 169 164z" />
    <glyph glyph-name="Hcedilla" unicode="&#x1e28;" horiz-adv-x="1392" 
d="M300 -470c-57 0 -104 6 -134 15v117c26 -7 77 -14 113 -14c69 0 113 20 113 66c0 44 -30 65 -137 65h-54v93l49 128h-100v1365h242v-563h608v563h242v-1365h-242v598h-608v-598l-41 -112c127 0 200 -63 200 -165c0 -126 -94 -193 -251 -193z" />
    <glyph glyph-name="Hbar" unicode="&#x126;" horiz-adv-x="1392" 
d="M392 782h608v216h-608v-216zM392 578v-578h-242v998h-98v158h98v209h242v-209h608v209h242v-209h98v-158h-98v-998h-242v578h-608z" />
    <glyph glyph-name="I" unicode="I" horiz-adv-x="543" 
d="M392 0h-242v1365h242v-1365z" />
    <glyph glyph-name="Idotaccent" unicode="&#x130;" horiz-adv-x="543" 
d="M392 0h-242v1365h242v-1365zM145 1645c0 70 57 125 126 125s126 -55 126 -125c0 -69 -57 -124 -126 -124s-126 55 -126 124z" />
    <glyph glyph-name="Igrave" unicode="&#xcc;" horiz-adv-x="543" 
d="M392 0h-242v1365h242v-1365zM366 1507h-169l-243 286h215z" />
    <glyph glyph-name="Idblgrave" unicode="&#x208;" horiz-adv-x="543" 
d="M392 0h-242v1365h242v-1365zM211 1508h-166l-262 263h211zM545 1508h-166l-262 263h211z" />
    <glyph glyph-name="Iacute" unicode="&#xcd;" horiz-adv-x="543" 
d="M392 0h-242v1365h242v-1365zM345 1507h-169l197 286h215z" />
    <glyph glyph-name="Icircumflex" unicode="&#xce;" horiz-adv-x="543" 
d="M392 0h-242v1365h242v-1365zM-28 1507l223 285h152l223 -285h-181l-115 161h-6l-115 -161h-181z" />
    <glyph glyph-name="Icaron" unicode="&#x1cf;" horiz-adv-x="542" 
d="M392 0h-242v1365h242v-1365zM-29 1791h181l115 -161h6l115 161h181l-223 -284h-152z" />
    <glyph glyph-name="Idieresis" unicode="&#xcf;" horiz-adv-x="543" 
d="M392 0h-242v1365h242v-1365zM103 1482c-56 0 -99 44 -99 101c0 60 43 104 99 104c57 0 101 -44 101 -104c0 -57 -44 -101 -101 -101zM437 1482c-56 0 -99 44 -99 101c0 60 43 104 99 104c57 0 101 -44 101 -104c0 -57 -44 -101 -101 -101z" />
    <glyph glyph-name="Idieresisacute" unicode="&#x1e2e;" horiz-adv-x="543" 
d="M392 0h-242v1365h242v-1365zM170 1741l224 194h221l-266 -194h-179zM103 1482c-56 0 -99 44 -99 101c0 60 43 104 99 104c57 0 101 -44 101 -104c0 -57 -44 -101 -101 -101zM437 1482c-56 0 -99 44 -99 101c0 60 43 104 99 104c57 0 101 -44 101 -104
c0 -57 -44 -101 -101 -101z" />
    <glyph glyph-name="Ibreve" unicode="&#x12c;" horiz-adv-x="543" 
d="M392 0h-242v1365h242v-1365zM-26 1761h137c0 -82 50 -149 160 -149s160 67 160 149h135c0 -140 -94 -275 -295 -275s-298 135 -297 275z" />
    <glyph glyph-name="Idotbelow" unicode="&#x1eca;" horiz-adv-x="543" 
d="M392 0h-242v1365h242v-1365zM165 -264c0 63 48 111 107 111c62 0 109 -48 109 -111c0 -61 -47 -110 -109 -110c-59 0 -107 49 -107 110z" />
    <glyph glyph-name="Iinvertedbreve" unicode="&#x20a;" horiz-adv-x="543" 
d="M392 0h-242v1365h242v-1365zM271 1656c-110 0 -160 -67 -160 -149h-137c-1 140 96 275 297 275s295 -135 295 -275h-135c0 82 -50 149 -160 149z" />
    <glyph glyph-name="Imacron" unicode="&#x12a;" horiz-adv-x="543" 
d="M392 0h-242v1365h242v-1365zM554 1514h-566v124h566v-124z" />
    <glyph glyph-name="Itildebelow" unicode="&#x1e2c;" horiz-adv-x="543" 
d="M392 0h-242v1365h242v-1365zM388 -378c-130 0 -168 120 -235 120c-50 0 -60 -64 -60 -98h-136c0 117 63 225 187 225c130 0 171 -120 239 -120c44 0 64 52 67 103h136c0 -113 -70 -230 -198 -230z" />
    <glyph glyph-name="Ihookabove" unicode="&#x1ec8;" horiz-adv-x="543" 
d="M392 0h-242v1365h242v-1365zM129 1658v106c18 7 60 17 107 17c123 0 211 -58 211 -163c0 -103 -92 -149 -146 -171l-74 89c38 11 84 35 84 73c0 46 -47 59 -92 59c-38 0 -68 -5 -90 -10z" />
    <glyph glyph-name="Itilde" unicode="&#x128;" horiz-adv-x="543" 
d="M392 0h-242v1365h242v-1365zM381 1478c-125 0 -157 112 -220 112c-44 0 -57 -53 -58 -92h-127c0 104 58 209 180 209c125 0 164 -112 224 -112c42 0 59 52 62 96h126c0 -106 -66 -213 -187 -213z" />
    <glyph glyph-name="Iogonek" unicode="&#x12e;" horiz-adv-x="543" 
d="M416 -366c-19 -9 -73 -22 -134 -22c-148 0 -238 75 -238 200c0 112 73 174 132 207v5h-26v1341h242v-1338c-99 -37 -168 -91 -168 -169c0 -65 48 -97 115 -97c22 0 58 3 77 9v-136z" />
    <glyph glyph-name="J" unicode="J" horiz-adv-x="1034" 
d="M25 367h234c3 -106 69 -178 192 -178c136 0 198 82 198 244v932h242v-934c0 -299 -162 -458 -439 -458c-275 0 -427 177 -427 394z" />
    <glyph glyph-name="Jcircumflex" unicode="&#x134;" horiz-adv-x="1034" 
d="M25 367h234c3 -106 69 -178 192 -178c136 0 198 82 198 244v932h242v-934c0 -299 -162 -458 -439 -458c-275 0 -427 177 -427 394zM470 1507l223 285h152l223 -285h-181l-115 161h-6l-115 -161h-181z" />
    <glyph glyph-name="K" unicode="K" horiz-adv-x="1236" 
d="M1212 1365l-493 -586l516 -779h-294l-400 616l-149 -165v-451h-242v1365h242v-626h11l540 626h269z" />
    <glyph glyph-name="Kacute" unicode="&#x1e30;" horiz-adv-x="1236" 
d="M675 1507h-169l197 286h215zM1212 1365l-493 -586l516 -779h-294l-400 616l-149 -165v-451h-242v1365h242v-626h11l540 626h269z" />
    <glyph glyph-name="Kcaron" unicode="&#x1e8;" horiz-adv-x="1236" 
d="M1212 1365l-493 -586l516 -779h-294l-400 616l-149 -165v-451h-242v1365h242v-626h11l540 626h269zM302 1791h181l115 -161h6l115 161h181l-223 -284h-152z" />
    <glyph glyph-name="Kdotbelow" unicode="&#x1e32;" horiz-adv-x="1236" 
d="M511 -264c0 63 48 111 107 111c62 0 109 -48 109 -111c0 -61 -47 -110 -109 -110c-59 0 -107 49 -107 110zM1212 1365l-493 -586l516 -779h-294l-400 616l-149 -165v-451h-242v1365h242v-626h11l540 626h269z" />
    <glyph glyph-name="Klinebelow" unicode="&#x1e34;" horiz-adv-x="1236" 
d="M1212 1365l-493 -586l516 -779h-294l-400 616l-149 -165v-451h-242v1365h242v-626h11l540 626h269zM903 -348h-572v140h572v-140z" />
    <glyph glyph-name="Kcommaaccent" unicode="&#x136;" horiz-adv-x="1236" 
d="M1212 1365l-493 -586l516 -779h-294l-400 616l-149 -165v-451h-242v1365h242v-626h11l540 626h269zM610 -489h-166l85 335h195z" />
    <glyph glyph-name="L" unicode="L" horiz-adv-x="1010" 
d="M986 208v-208h-836v1365h242v-1157h594z" />
    <glyph glyph-name="Lacute" unicode="&#x139;" horiz-adv-x="1010" 
d="M344 1507h-169l197 286h215zM986 208v-208h-836v1365h242v-1157h594z" />
    <glyph glyph-name="Lcircumflexbelow" unicode="&#x1e3c;" horiz-adv-x="1010" 
d="M986 208v-208h-836v1365h242v-1157h594zM215 -396l219 281h156l219 -281h-179l-115 167h-6l-115 -167h-179z" />
    <glyph glyph-name="Ldotbelow" unicode="&#x1e36;" horiz-adv-x="1010" 
d="M406 -264c0 63 48 111 107 111c62 0 109 -48 109 -111c0 -61 -47 -110 -109 -110c-59 0 -107 49 -107 110zM986 208v-208h-836v1365h242v-1157h594z" />
    <glyph glyph-name="Ldotbelowmacron" unicode="&#x1e38;" horiz-adv-x="1010" 
d="M406 -264c0 63 48 111 107 111c62 0 109 -48 109 -111c0 -61 -47 -110 -109 -110c-59 0 -107 49 -107 110zM986 208v-208h-836v1365h242v-1157h594zM553 1514h-566v124h566v-124z" />
    <glyph glyph-name="Llinebelow" unicode="&#x1e3a;" horiz-adv-x="1010" 
d="M798 -348h-572v140h572v-140zM986 208v-208h-836v1365h242v-1157h594z" />
    <glyph glyph-name="Lcommaaccent" unicode="&#x13b;" horiz-adv-x="1010" 
d="M505 -489h-166l85 335h195zM986 208v-208h-836v1365h242v-1157h594z" />
    <glyph glyph-name="Lcaron" unicode="&#x13d;" horiz-adv-x="1010" 
d="M607 1436h204l-50 -488h-154v488zM986 208v-208h-836v1365h242v-1157h594z" />
    <glyph glyph-name="Lslash" unicode="&#x141;" horiz-adv-x="1024" 
d="M1001 0h-836v522l-124 -72v213l124 71v631h241v-495l338 197v-215l-338 -195v-449h595v-208z" />
    <glyph glyph-name="M" unicode="M" horiz-adv-x="1617" 
d="M371 0h-217v1365h244l408 -932h7l408 932h242v-1365h-218v929h-9l-344 -775h-168l-344 775h-9v-929z" />
    <glyph glyph-name="Macute" unicode="&#x1e3e;" horiz-adv-x="1617" 
d="M882 1507h-169l197 286h215zM371 0h-217v1365h244l408 -932h7l408 932h242v-1365h-218v929h-9l-344 -775h-168l-344 775h-9v-929z" />
    <glyph glyph-name="Mdotaccent" unicode="&#x1e40;" horiz-adv-x="1617" 
d="M682 1645c0 70 57 125 126 125s126 -55 126 -125c0 -69 -57 -124 -126 -124s-126 55 -126 124zM371 0h-217v1365h244l408 -932h7l408 932h242v-1365h-218v929h-9l-344 -775h-168l-344 775h-9v-929z" />
    <glyph glyph-name="Mdotbelow" unicode="&#x1e42;" horiz-adv-x="1617" 
d="M700 -264c0 63 48 111 107 111c62 0 109 -48 109 -111c0 -61 -47 -110 -109 -110c-59 0 -107 49 -107 110zM371 0h-217v1365h244l408 -932h7l408 932h242v-1365h-218v929h-9l-344 -775h-168l-344 775h-9v-929z" />
    <glyph glyph-name="N" unicode="N" horiz-adv-x="1375" 
d="M377 0h-227v1365h209l631 -955h8v955h226v-1365h-207l-633 958h-7v-958z" />
    <glyph glyph-name="Ngrave" unicode="&#x1f8;" horiz-adv-x="1375" 
d="M782 1507h-169l-243 286h215zM377 0h-227v1365h209l631 -955h8v955h226v-1365h-207l-633 958h-7v-958z" />
    <glyph glyph-name="Nacute" unicode="&#x143;" horiz-adv-x="1375" 
d="M761 1507h-169l197 286h215zM377 0h-227v1365h209l631 -955h8v955h226v-1365h-207l-633 958h-7v-958z" />
    <glyph glyph-name="Ntilde" unicode="&#xd1;" horiz-adv-x="1375" 
d="M797 1478c-125 0 -157 112 -220 112c-44 0 -57 -53 -58 -92h-127c0 104 58 209 180 209c125 0 164 -112 224 -112c42 0 59 52 62 96h126c0 -106 -66 -213 -187 -213zM377 0h-227v1365h209l631 -955h8v955h226v-1365h-207l-633 958h-7v-958z" />
    <glyph glyph-name="Ndotbelow" unicode="&#x1e46;" horiz-adv-x="1375" 
d="M581 -264c0 63 48 111 107 111c62 0 109 -48 109 -111c0 -61 -47 -110 -109 -110c-59 0 -107 49 -107 110zM377 0h-227v1365h209l631 -955h8v955h226v-1365h-207l-633 958h-7v-958z" />
    <glyph glyph-name="Ndotaccent" unicode="&#x1e44;" horiz-adv-x="1375" 
d="M561 1645c0 70 57 125 126 125s126 -55 126 -125c0 -69 -57 -124 -126 -124s-126 55 -126 124zM377 0h-227v1365h209l631 -955h8v955h226v-1365h-207l-633 958h-7v-958z" />
    <glyph glyph-name="Ncaron" unicode="&#x147;" horiz-adv-x="1375" 
d="M388 1791h181l115 -161h6l115 161h181l-223 -284h-152zM377 0h-227v1365h209l631 -955h8v955h226v-1365h-207l-633 958h-7v-958z" />
    <glyph glyph-name="Ncircumflexbelow" unicode="&#x1e4a;" horiz-adv-x="1375" 
d="M377 0h-227v1365h209l631 -955h8v955h226v-1365h-207l-633 958h-7v-958zM390 -396l219 281h156l219 -281h-179l-115 167h-6l-115 -167h-179z" />
    <glyph glyph-name="Nlinebelow" unicode="&#x1e48;" horiz-adv-x="1375" 
d="M973 -348h-572v140h572v-140zM377 0h-227v1365h209l631 -955h8v955h226v-1365h-207l-633 958h-7v-958z" />
    <glyph glyph-name="Ncommaaccent" unicode="&#x145;" horiz-adv-x="1375" 
d="M680 -489h-166l85 335h195zM377 0h-227v1365h209l631 -955h8v955h226v-1365h-207l-633 958h-7v-958z" />
    <glyph glyph-name="O" unicode="O" horiz-adv-x="1339" 
d="M341 770v-185c0 -276 140 -407 329 -407c190 0 328 131 328 407v185c0 276 -138 417 -328 417c-189 0 -329 -141 -329 -417zM96 586v182c0 388 221 624 575 624c356 0 573 -237 573 -624v-182c0 -386 -220 -613 -575 -613s-573 227 -573 613z" />
    <glyph glyph-name="Odieresis" unicode="&#xd6;" horiz-adv-x="1339" 
d="M501 1482c-56 0 -99 44 -99 101c0 60 43 104 99 104c57 0 101 -44 101 -104c0 -57 -44 -101 -101 -101zM835 1482c-56 0 -99 44 -99 101c0 60 43 104 99 104c57 0 101 -44 101 -104c0 -57 -44 -101 -101 -101zM341 770v-185c0 -276 140 -407 329 -407
c190 0 328 131 328 407v185c0 276 -138 417 -328 417c-189 0 -329 -141 -329 -417zM96 586v182c0 388 221 624 575 624c356 0 573 -237 573 -624v-182c0 -386 -220 -613 -575 -613s-573 227 -573 613z" />
    <glyph glyph-name="Oslash" unicode="&#xd8;" horiz-adv-x="1338" 
d="M667 -27c-154 0 -283 44 -378 128l-99 -123l-115 93l115 142c-61 98 -94 223 -94 373v182c0 388 220 624 574 624c151 0 278 -45 372 -126l92 114l119 -86l-112 -138c66 -101 101 -232 101 -388v-182c0 -386 -220 -613 -575 -613zM336 583c0 -61 8 -117 23 -162l541 671
c-59 65 -139 98 -232 98c-192 0 -332 -142 -332 -420v-187zM668 173c192 0 333 132 333 410v187c0 68 -10 129 -28 178l-544 -674c59 -68 143 -101 239 -101z" />
    <glyph glyph-name="Otilde" unicode="&#xd5;" horiz-adv-x="1339" 
d="M341 770v-185c0 -276 140 -407 329 -407c190 0 328 131 328 407v185c0 276 -138 417 -328 417c-189 0 -329 -141 -329 -417zM96 586v182c0 388 221 624 575 624c356 0 573 -237 573 -624v-182c0 -386 -220 -613 -575 -613s-573 227 -573 613zM778 1478
c-125 0 -157 112 -220 112c-44 0 -57 -53 -58 -92h-127c0 104 58 209 180 209c125 0 164 -112 224 -112c42 0 59 52 62 96h126c0 -106 -66 -213 -187 -213z" />
    <glyph glyph-name="Oacute" unicode="&#xd3;" horiz-adv-x="1339" 
d="M742 1507h-169l197 286h215zM341 770v-185c0 -276 140 -407 329 -407c190 0 328 131 328 407v185c0 276 -138 417 -328 417c-189 0 -329 -141 -329 -417zM96 586v182c0 388 221 624 575 624c356 0 573 -237 573 -624v-182c0 -386 -220 -613 -575 -613s-573 227 -573 613z
" />
    <glyph glyph-name="Ocircumflex" unicode="&#xd4;" horiz-adv-x="1339" 
d="M370 1507l223 285h152l223 -285h-181l-115 161h-6l-115 -161h-181zM341 770v-185c0 -276 140 -407 329 -407c190 0 328 131 328 407v185c0 276 -138 417 -328 417c-189 0 -329 -141 -329 -417zM96 586v182c0 388 221 624 575 624c356 0 573 -237 573 -624v-182
c0 -386 -220 -613 -575 -613s-573 227 -573 613z" />
    <glyph glyph-name="Ograve" unicode="&#xd2;" horiz-adv-x="1339" 
d="M763 1507h-169l-243 286h215zM341 770v-185c0 -276 140 -407 329 -407c190 0 328 131 328 407v185c0 276 -138 417 -328 417c-189 0 -329 -141 -329 -417zM96 586v182c0 388 221 624 575 624c356 0 573 -237 573 -624v-182c0 -386 -220 -613 -575 -613s-573 227 -573 613
z" />
    <glyph glyph-name="Ocircumflexhookabove" unicode="&#x1ed4;" horiz-adv-x="1339" 
d="M322 1507l273 220h146l273 -220h-201l-141 112h-8l-141 -112h-201zM815 1841v89c23 7 51 12 83 12c96 0 171 -48 171 -141c0 -73 -54 -123 -113 -144l-65 79c39 13 59 30 59 56c0 36 -40 57 -75 57c-27 0 -42 -3 -60 -8zM341 770v-185c0 -276 140 -407 329 -407
c190 0 328 131 328 407v185c0 276 -138 417 -328 417c-189 0 -329 -141 -329 -417zM96 586v182c0 388 221 624 575 624c356 0 573 -237 573 -624v-182c0 -386 -220 -613 -575 -613s-573 227 -573 613z" />
    <glyph glyph-name="Ocircumflexgrave" unicode="&#x1ed2;" horiz-adv-x="1339" 
d="M322 1507l273 220h146l273 -220h-201l-141 112h-8l-141 -112h-201zM1148 1700h-153l-259 235h195zM341 770v-185c0 -276 140 -407 329 -407c190 0 328 131 328 407v185c0 276 -138 417 -328 417c-189 0 -329 -141 -329 -417zM96 586v182c0 388 221 624 575 624
c356 0 573 -237 573 -624v-182c0 -386 -220 -613 -575 -613s-573 227 -573 613z" />
    <glyph glyph-name="Odotbelow" unicode="&#x1ecc;" horiz-adv-x="1339" 
d="M561 -264c0 63 48 111 107 111c62 0 109 -48 109 -111c0 -61 -47 -110 -109 -110c-59 0 -107 49 -107 110zM341 770v-185c0 -276 140 -407 329 -407c190 0 328 131 328 407v185c0 276 -138 417 -328 417c-189 0 -329 -141 -329 -417zM96 586v182c0 388 221 624 575 624
c356 0 573 -237 573 -624v-182c0 -386 -220 -613 -575 -613s-573 227 -573 613z" />
    <glyph glyph-name="Odblgrave" unicode="&#x20c;" horiz-adv-x="1339" 
d="M608 1508h-166l-262 263h211zM942 1508h-166l-262 263h211zM341 770v-185c0 -276 140 -407 329 -407c190 0 328 131 328 407v185c0 276 -138 417 -328 417c-189 0 -329 -141 -329 -417zM96 586v182c0 388 221 624 575 624c356 0 573 -237 573 -624v-182
c0 -386 -220 -613 -575 -613s-573 227 -573 613z" />
    <glyph glyph-name="Otildeacute" unicode="&#x1e4c;" horiz-adv-x="1339" 
d="M341 770v-185c0 -276 140 -407 329 -407c190 0 328 131 328 407v185c0 276 -138 417 -328 417c-189 0 -329 -141 -329 -417zM96 586v182c0 388 221 624 575 624c356 0 573 -237 573 -624v-182c0 -386 -220 -613 -575 -613s-573 227 -573 613zM566 1741l223 194h215
l-266 -194h-172zM778 1478c-125 0 -157 112 -220 112c-44 0 -57 -53 -58 -92h-127c0 104 58 209 180 209c125 0 164 -112 224 -112c42 0 59 52 62 96h126c0 -106 -66 -213 -187 -213z" />
    <glyph glyph-name="Omacronacute" unicode="&#x1e52;" horiz-adv-x="1339" 
d="M567 1741l224 194h221l-266 -194h-179zM951 1514h-566v124h566v-124zM341 770v-185c0 -276 140 -407 329 -407c190 0 328 131 328 407v185c0 276 -138 417 -328 417c-189 0 -329 -141 -329 -417zM96 586v182c0 388 221 624 575 624c356 0 573 -237 573 -624v-182
c0 -386 -220 -613 -575 -613s-573 227 -573 613z" />
    <glyph glyph-name="Ocircumflextilde" unicode="&#x1ed6;" horiz-adv-x="1339" 
d="M337 1507l264 200h134l264 -200h-192l-137 107h-4l-137 -107h-192zM522 1776h-119c0 92 63 167 159 167c95 0 133 -81 190 -81c36 0 56 24 59 63h120c0 -90 -73 -175 -174 -175c-93 0 -127 82 -182 82c-34 0 -52 -26 -53 -56zM341 770v-185c0 -276 140 -407 329 -407
c190 0 328 131 328 407v185c0 276 -138 417 -328 417c-189 0 -329 -141 -329 -417zM96 586v182c0 388 221 624 575 624c356 0 573 -237 573 -624v-182c0 -386 -220 -613 -575 -613s-573 227 -573 613z" />
    <glyph glyph-name="Odotaccentmacron" unicode="&#x230;" horiz-adv-x="1339" 
d="M551 1578c0 64 52 116 117 116s117 -52 117 -116c0 -65 -52 -115 -117 -115s-117 50 -117 115zM951 1789h-566v124h566v-124zM341 770v-185c0 -276 140 -407 329 -407c190 0 328 131 328 407v185c0 276 -138 417 -328 417c-189 0 -329 -141 -329 -417zM96 586v182
c0 388 221 624 575 624c356 0 573 -237 573 -624v-182c0 -386 -220 -613 -575 -613s-573 227 -573 613z" />
    <glyph glyph-name="Omacrongrave" unicode="&#x1e50;" horiz-adv-x="1339" 
d="M769 1741h-179l-266 194h221zM951 1514h-566v124h566v-124zM341 770v-185c0 -276 140 -407 329 -407c190 0 328 131 328 407v185c0 276 -138 417 -328 417c-189 0 -329 -141 -329 -417zM96 586v182c0 388 221 624 575 624c356 0 573 -237 573 -624v-182
c0 -386 -220 -613 -575 -613s-573 227 -573 613z" />
    <glyph glyph-name="Ocaron" unicode="&#x1d1;" horiz-adv-x="1339" 
d="M370 1791h181l115 -161h6l115 161h181l-223 -284h-152zM341 770v-185c0 -276 140 -407 329 -407c190 0 328 131 328 407v185c0 276 -138 417 -328 417c-189 0 -329 -141 -329 -417zM96 586v182c0 388 221 624 575 624c356 0 573 -237 573 -624v-182
c0 -386 -220 -613 -575 -613s-573 227 -573 613z" />
    <glyph glyph-name="Oslashacute" unicode="&#x1fe;" horiz-adv-x="1338" 
d="M667 -27c-154 0 -283 44 -378 128l-99 -123l-115 93l115 142c-61 98 -94 223 -94 373v182c0 388 220 624 574 624c151 0 278 -45 372 -126l92 114l119 -86l-112 -138c66 -101 101 -232 101 -388v-182c0 -386 -220 -613 -575 -613zM336 583c0 -61 8 -117 23 -162l541 671
c-59 65 -139 98 -232 98c-192 0 -332 -142 -332 -420v-187zM668 173c192 0 333 132 333 410v187c0 68 -10 129 -28 178l-544 -674c59 -68 143 -101 239 -101zM742 1507h-169l197 286h215z" />
    <glyph glyph-name="Ohungarumlaut" unicode="&#x150;" horiz-adv-x="1339" 
d="M395 1507l217 263h211l-262 -263h-166zM729 1507l216 263h212l-262 -263h-166zM341 770v-185c0 -276 140 -407 329 -407c190 0 328 131 328 407v185c0 276 -138 417 -328 417c-189 0 -329 -141 -329 -417zM96 586v182c0 388 221 624 575 624c356 0 573 -237 573 -624
v-182c0 -386 -220 -613 -575 -613s-573 227 -573 613z" />
    <glyph glyph-name="Obreve" unicode="&#x14e;" horiz-adv-x="1339" 
d="M341 770v-185c0 -276 140 -407 329 -407c190 0 328 131 328 407v185c0 276 -138 417 -328 417c-189 0 -329 -141 -329 -417zM96 586v182c0 388 221 624 575 624c356 0 573 -237 573 -624v-182c0 -386 -220 -613 -575 -613s-573 227 -573 613zM371 1761h137
c0 -82 50 -149 160 -149s160 67 160 149h135c0 -140 -94 -275 -295 -275s-298 135 -297 275z" />
    <glyph glyph-name="Oinvertedbreve" unicode="&#x20e;" horiz-adv-x="1339" 
d="M668 1656c-110 0 -160 -67 -160 -149h-137c-1 140 96 275 297 275s295 -135 295 -275h-135c0 82 -50 149 -160 149zM341 770v-185c0 -276 140 -407 329 -407c190 0 328 131 328 407v185c0 276 -138 417 -328 417c-189 0 -329 -141 -329 -417zM96 586v182
c0 388 221 624 575 624c356 0 573 -237 573 -624v-182c0 -386 -220 -613 -575 -613s-573 227 -573 613z" />
    <glyph glyph-name="Ohookabove" unicode="&#x1ece;" horiz-adv-x="1339" 
d="M526 1658v106c18 7 60 17 107 17c123 0 211 -58 211 -163c0 -103 -92 -149 -146 -171l-74 89c38 11 84 35 84 73c0 46 -47 59 -92 59c-38 0 -68 -5 -90 -10zM341 770v-185c0 -276 140 -407 329 -407c190 0 328 131 328 407v185c0 276 -138 417 -328 417
c-189 0 -329 -141 -329 -417zM96 586v182c0 388 221 624 575 624c356 0 573 -237 573 -624v-182c0 -386 -220 -613 -575 -613s-573 227 -573 613z" />
    <glyph glyph-name="Odieresismacron" unicode="&#x22a;" horiz-adv-x="1339" 
d="M341 770v-185c0 -276 140 -407 329 -407c190 0 328 131 328 407v185c0 276 -138 417 -328 417c-189 0 -329 -141 -329 -417zM96 586v182c0 388 221 624 575 624c356 0 573 -237 573 -624v-182c0 -386 -220 -613 -575 -613s-573 227 -573 613zM500 1482
c-56 0 -99 44 -99 101c0 60 43 104 99 104c57 0 101 -44 101 -104c0 -57 -44 -101 -101 -101zM834 1482c-56 0 -99 44 -99 101c0 60 43 104 99 104c57 0 101 -44 101 -104c0 -57 -44 -101 -101 -101zM951 1789h-566v124h566v-124z" />
    <glyph glyph-name="Otildemacron" unicode="&#x22c;" horiz-adv-x="1339" 
d="M778 1478c-125 0 -157 112 -220 112c-44 0 -57 -53 -58 -92h-127c0 104 58 209 180 209c125 0 164 -112 224 -112c42 0 59 52 62 96h126c0 -106 -66 -213 -187 -213zM951 1789h-566v124h566v-124zM341 770v-185c0 -276 140 -407 329 -407c190 0 328 131 328 407v185
c0 276 -138 417 -328 417c-189 0 -329 -141 -329 -417zM96 586v182c0 388 221 624 575 624c356 0 573 -237 573 -624v-182c0 -386 -220 -613 -575 -613s-573 227 -573 613z" />
    <glyph glyph-name="Odotaccent" unicode="&#x22e;" horiz-adv-x="1339" 
d="M542 1645c0 70 57 125 126 125s126 -55 126 -125c0 -69 -57 -124 -126 -124s-126 55 -126 124zM341 770v-185c0 -276 140 -407 329 -407c190 0 328 131 328 407v185c0 276 -138 417 -328 417c-189 0 -329 -141 -329 -417zM96 586v182c0 388 221 624 575 624
c356 0 573 -237 573 -624v-182c0 -386 -220 -613 -575 -613s-573 227 -573 613z" />
    <glyph glyph-name="Ocircumflexdotbelow" unicode="&#x1ed8;" horiz-adv-x="1339" 
d="M561 -264c0 63 48 111 107 111c62 0 109 -48 109 -111c0 -61 -47 -110 -109 -110c-59 0 -107 49 -107 110zM370 1507l223 285h152l223 -285h-181l-115 161h-6l-115 -161h-181zM341 770v-185c0 -276 140 -407 329 -407c190 0 328 131 328 407v185c0 276 -138 417 -328 417
c-189 0 -329 -141 -329 -417zM96 586v182c0 388 221 624 575 624c356 0 573 -237 573 -624v-182c0 -386 -220 -613 -575 -613s-573 227 -573 613z" />
    <glyph glyph-name="Ocircumflexacute" unicode="&#x1ed0;" horiz-adv-x="1339" 
d="M322 1507l273 220h146l273 -220h-201l-141 112h-8l-141 -112h-201zM883 1700l204 235h195l-246 -235h-153zM341 770v-185c0 -276 140 -407 329 -407c190 0 328 131 328 407v185c0 276 -138 417 -328 417c-189 0 -329 -141 -329 -417zM96 586v182c0 388 221 624 575 624
c356 0 573 -237 573 -624v-182c0 -386 -220 -613 -575 -613s-573 227 -573 613z" />
    <glyph glyph-name="Otildedieresis" unicode="&#x1e4e;" horiz-adv-x="1339" 
d="M500 1719c-56 0 -99 44 -99 101c0 60 43 104 99 104c57 0 101 -44 101 -104c0 -57 -44 -101 -101 -101zM834 1719c-56 0 -99 44 -99 101c0 60 43 104 99 104c57 0 101 -44 101 -104c0 -57 -44 -101 -101 -101zM778 1455c-125 0 -157 112 -220 112c-44 0 -57 -53 -58 -92
h-127c0 104 58 209 180 209c125 0 164 -112 224 -112c42 0 59 52 62 96h126c0 -106 -66 -213 -187 -213zM341 770v-185c0 -276 140 -407 329 -407c190 0 328 131 328 407v185c0 276 -138 417 -328 417c-189 0 -329 -141 -329 -417zM96 586v182c0 388 221 624 575 624
c356 0 573 -237 573 -624v-182c0 -386 -220 -613 -575 -613s-573 227 -573 613z" />
    <glyph glyph-name="Omacron" unicode="&#x14c;" horiz-adv-x="1339" 
d="M341 770v-185c0 -276 140 -407 329 -407c190 0 328 131 328 407v185c0 276 -138 417 -328 417c-189 0 -329 -141 -329 -417zM96 586v182c0 388 221 624 575 624c356 0 573 -237 573 -624v-182c0 -386 -220 -613 -575 -613s-573 227 -573 613zM953 1514h-566v124h566v-124
z" />
    <glyph glyph-name="Oogonek" unicode="&#x1ea;" horiz-adv-x="1339" 
d="M341 770v-185c0 -276 139 -407 328 -407c190 0 329 131 329 407v185c0 276 -139 417 -329 417c-189 0 -328 -141 -328 -417zM642 -25c-319 0 -546 232 -546 611v182c0 388 220 624 575 624s573 -237 573 -624v-182c0 -259 -96 -392 -184 -490
c-79 -87 -156 -141 -156 -229c0 -71 51 -99 119 -99c22 0 52 3 74 9l-1 -145c-22 -7 -63 -20 -131 -20c-135 1 -237 70 -238 198c0 75 34 142 98 195l-6 11c-59 -32 -121 -41 -177 -41z" />
    <glyph glyph-name="Oogonekmacron" unicode="&#x1ec;" horiz-adv-x="1338" 
d="M341 770v-185c0 -276 139 -407 328 -407c190 0 329 131 329 407v185c0 276 -139 417 -329 417c-189 0 -328 -141 -328 -417zM642 -25c-319 0 -546 232 -546 611v182c0 388 220 624 575 624s573 -237 573 -624v-182c0 -259 -96 -392 -184 -490
c-79 -87 -156 -141 -156 -229c0 -71 51 -99 119 -99c22 0 52 3 74 9l-1 -145c-22 -7 -63 -20 -131 -20c-135 1 -237 70 -238 198c0 75 34 142 98 195l-6 11c-59 -32 -121 -41 -177 -41zM951 1514h-566v124h566v-124z" />
    <glyph glyph-name="Ohorn" unicode="&#x1a0;" horiz-adv-x="1357" 
d="M1242 586c0 -386 -220 -613 -575 -613s-571 227 -571 613v182c0 388 220 624 574 624c190 0 283 -80 408 -80c112 0 135 62 135 145v110h194v-129c0 -177 -94 -284 -262 -284l-4 -5c53 -80 101 -227 101 -381v-182zM340 770v-186c0 -276 139 -407 329 -407
c189 0 329 131 329 407v186c0 276 -140 417 -329 417c-190 0 -329 -141 -329 -417z" />
    <glyph glyph-name="Ohorndotbelow" unicode="&#x1ee2;" horiz-adv-x="1357" 
d="M562 -264c0 63 48 111 107 111c62 0 109 -48 109 -111c0 -61 -47 -110 -109 -110c-59 0 -107 49 -107 110zM1242 586c0 -386 -220 -613 -575 -613s-571 227 -571 613v182c0 388 220 624 574 624c190 0 283 -80 408 -80c112 0 135 62 135 145v110h194v-129
c0 -177 -94 -284 -262 -284l-4 -5c53 -80 101 -227 101 -381v-182zM340 770v-186c0 -276 139 -407 329 -407c189 0 329 131 329 407v186c0 276 -140 417 -329 417c-190 0 -329 -141 -329 -417z" />
    <glyph glyph-name="Ohornhookabove" unicode="&#x1ede;" horiz-adv-x="1357" 
d="M526 1658v106c18 7 60 17 107 17c123 0 211 -58 211 -163c0 -103 -92 -149 -146 -171l-74 89c38 11 84 35 84 73c0 46 -47 59 -92 59c-38 0 -68 -5 -90 -10zM1242 586c0 -386 -220 -613 -575 -613s-571 227 -571 613v182c0 388 220 624 574 624c190 0 283 -80 408 -80
c112 0 135 62 135 145v110h194v-129c0 -177 -94 -284 -262 -284l-4 -5c53 -80 101 -227 101 -381v-182zM340 770v-186c0 -276 139 -407 329 -407c189 0 329 131 329 407v186c0 276 -140 417 -329 417c-190 0 -329 -141 -329 -417z" />
    <glyph glyph-name="Ohorntilde" unicode="&#x1ee0;" horiz-adv-x="1357" 
d="M1242 586c0 -386 -220 -613 -575 -613s-571 227 -571 613v182c0 388 220 624 574 624c190 0 283 -80 408 -80c112 0 135 62 135 145v110h194v-129c0 -177 -94 -284 -262 -284l-4 -5c53 -80 101 -227 101 -381v-182zM340 770v-186c0 -276 139 -407 329 -407
c189 0 329 131 329 407v186c0 276 -140 417 -329 417c-190 0 -329 -141 -329 -417zM778 1478c-125 0 -157 112 -220 112c-44 0 -57 -53 -58 -92h-127c0 104 58 209 180 209c125 0 164 -112 224 -112c42 0 59 52 62 96h126c0 -106 -66 -213 -187 -213z" />
    <glyph glyph-name="Ohorngrave" unicode="&#x1edc;" horiz-adv-x="1357" 
d="M763 1507h-169l-243 286h215zM1242 586c0 -386 -220 -613 -575 -613s-571 227 -571 613v182c0 388 220 624 574 624c190 0 283 -80 408 -80c112 0 135 62 135 145v110h194v-129c0 -177 -94 -284 -262 -284l-4 -5c53 -80 101 -227 101 -381v-182zM340 770v-186
c0 -276 139 -407 329 -407c189 0 329 131 329 407v186c0 276 -140 417 -329 417c-190 0 -329 -141 -329 -417z" />
    <glyph glyph-name="Ohornacute" unicode="&#x1eda;" horiz-adv-x="1357" 
d="M742 1507h-169l197 286h215zM1242 586c0 -386 -220 -613 -575 -613s-571 227 -571 613v182c0 388 220 624 574 624c190 0 283 -80 408 -80c112 0 135 62 135 145v110h194v-129c0 -177 -94 -284 -262 -284l-4 -5c53 -80 101 -227 101 -381v-182zM340 770v-186
c0 -276 139 -407 329 -407c189 0 329 131 329 407v186c0 276 -140 417 -329 417c-190 0 -329 -141 -329 -417z" />
    <glyph glyph-name="P" unicode="P" horiz-adv-x="1183" 
d="M150 1365h532c284 0 453 -191 453 -446c0 -259 -171 -444 -455 -444h-288v-475h-242v1365zM392 1168v-498h175c202 0 322 52 322 249c0 159 -92 249 -247 249h-250z" />
    <glyph glyph-name="Pdotaccent" unicode="&#x1e56;" horiz-adv-x="1183" 
d="M150 1365h532c284 0 453 -191 453 -446c0 -259 -171 -444 -455 -444h-288v-475h-242v1365zM392 1168v-498h175c202 0 322 52 322 249c0 159 -92 249 -247 249h-250zM445 1645c0 70 57 125 126 125s126 -55 126 -125c0 -69 -57 -124 -126 -124s-126 55 -126 124z" />
    <glyph glyph-name="Pacute" unicode="&#x1e54;" horiz-adv-x="1183" 
d="M645 1507h-169l197 286h215zM150 1365h532c284 0 453 -191 453 -446c0 -259 -171 -444 -455 -444h-288v-475h-242v1365zM392 1168v-498h175c202 0 322 52 322 249c0 159 -92 249 -247 249h-250z" />
    <glyph glyph-name="Q" unicode="Q" horiz-adv-x="1342" 
d="M98 592v180c0 386 224 620 572 620c350 0 574 -235 574 -620v-180c0 -209 -66 -372 -181 -478l177 -255h-247l-108 153c-63 -25 -136 -39 -215 -39c-348 0 -572 233 -572 619zM336 772v-182c0 -283 141 -422 329 -424c39 0 72 7 103 20l-163 231h234l86 -116
c50 67 81 162 81 289v182c0 278 -144 416 -336 416c-191 0 -334 -138 -334 -416z" />
    <glyph glyph-name="R" unicode="R" horiz-adv-x="1246" 
d="M680 1365c318 0 467 -191 467 -424c0 -225 -142 -341 -250 -383l276 -558h-272l-243 519h-268v-519h-240v1365h530zM390 707h251c163 0 256 80 256 227c0 157 -103 236 -251 236h-256v-463z" />
    <glyph glyph-name="Rcaron" unicode="&#x158;" horiz-adv-x="1246" 
d="M680 1365c318 0 467 -191 467 -424c0 -225 -142 -341 -250 -383l276 -558h-272l-243 519h-268v-519h-240v1365h530zM390 707h251c163 0 256 80 256 227c0 157 -103 236 -251 236h-256v-463zM296 1791h181l115 -161h6l115 161h181l-223 -284h-152z" />
    <glyph glyph-name="Rlinebelow" unicode="&#x1e5e;" horiz-adv-x="1246" 
d="M680 1365c318 0 467 -191 467 -424c0 -225 -142 -341 -250 -383l276 -558h-272l-243 519h-268v-519h-240v1365h530zM390 707h251c163 0 256 80 256 227c0 157 -103 236 -251 236h-256v-463zM881 -348h-572v140h572v-140z" />
    <glyph glyph-name="Rdotbelowmacron" unicode="&#x1e5c;" horiz-adv-x="1246" 
d="M489 -264c0 63 48 111 107 111c62 0 109 -48 109 -111c0 -61 -47 -110 -109 -110c-59 0 -107 49 -107 110zM680 1365c318 0 467 -191 467 -424c0 -225 -142 -341 -250 -383l276 -558h-272l-243 519h-268v-519h-240v1365h530zM390 707h251c163 0 256 80 256 227
c0 157 -103 236 -251 236h-256v-463zM878 1514h-566v124h566v-124z" />
    <glyph glyph-name="Rdblgrave" unicode="&#x210;" horiz-adv-x="1246" 
d="M535 1508h-166l-262 263h211zM869 1508h-166l-262 263h211zM680 1365c318 0 467 -191 467 -424c0 -225 -142 -341 -250 -383l276 -558h-272l-243 519h-268v-519h-240v1365h530zM390 707h251c163 0 256 80 256 227c0 157 -103 236 -251 236h-256v-463z" />
    <glyph glyph-name="Rinvertedbreve" unicode="&#x212;" horiz-adv-x="1246" 
d="M680 1365c318 0 467 -191 467 -424c0 -225 -142 -341 -250 -383l276 -558h-272l-243 519h-268v-519h-240v1365h530zM390 707h251c163 0 256 80 256 227c0 157 -103 236 -251 236h-256v-463zM595 1656c-110 0 -160 -67 -160 -149h-137c-1 140 96 275 297 275
s295 -135 295 -275h-135c0 82 -50 149 -160 149z" />
    <glyph glyph-name="Racute" unicode="&#x154;" horiz-adv-x="1246" 
d="M669 1507h-169l197 286h215zM680 1365c318 0 467 -191 467 -424c0 -225 -142 -341 -250 -383l276 -558h-272l-243 519h-268v-519h-240v1365h530zM390 707h251c163 0 256 80 256 227c0 157 -103 236 -251 236h-256v-463z" />
    <glyph glyph-name="Rdotbelow" unicode="&#x1e5a;" horiz-adv-x="1246" 
d="M489 -264c0 63 48 111 107 111c62 0 109 -48 109 -111c0 -61 -47 -110 -109 -110c-59 0 -107 49 -107 110zM680 1365c318 0 467 -191 467 -424c0 -225 -142 -341 -250 -383l276 -558h-272l-243 519h-268v-519h-240v1365h530zM390 707h251c163 0 256 80 256 227
c0 157 -103 236 -251 236h-256v-463z" />
    <glyph glyph-name="Rdotaccent" unicode="&#x1e58;" horiz-adv-x="1246" 
d="M469 1645c0 70 57 125 126 125s126 -55 126 -125c0 -69 -57 -124 -126 -124s-126 55 -126 124zM680 1365c318 0 467 -191 467 -424c0 -225 -142 -341 -250 -383l276 -558h-272l-243 519h-268v-519h-240v1365h530zM390 707h251c163 0 256 80 256 227
c0 157 -103 236 -251 236h-256v-463z" />
    <glyph glyph-name="Rcommaaccent" unicode="&#x156;" horiz-adv-x="1246" 
d="M680 1365c318 0 467 -191 467 -424c0 -225 -142 -341 -250 -383l276 -558h-272l-243 519h-268v-519h-240v1365h530zM390 707h251c163 0 256 80 256 227c0 157 -103 236 -251 236h-256v-463zM588 -489h-166l85 335h195z" />
    <glyph glyph-name="S" unicode="S" horiz-adv-x="1191" 
d="M60 382h235c10 -114 110 -212 299 -212c173 0 273 80 273 204c0 101 -70 154 -214 189l-219 53c-180 41 -339 147 -339 371c0 263 229 408 499 408c275 0 492 -150 496 -401h-230c-9 111 -96 205 -268 205c-152 0 -254 -72 -254 -193c0 -87 63 -148 188 -177l220 -53
c204 -47 363 -144 363 -381c0 -268 -216 -422 -532 -422c-385 0 -513 223 -517 409z" />
    <glyph glyph-name="Scaron" unicode="&#x160;" horiz-adv-x="1191" 
d="M60 382h235c10 -114 110 -212 299 -212c173 0 273 80 273 204c0 101 -70 154 -214 189l-219 53c-180 41 -339 147 -339 371c0 263 229 408 499 408c275 0 492 -150 496 -401h-230c-9 111 -96 205 -268 205c-152 0 -254 -72 -254 -193c0 -87 63 -148 188 -177l220 -53
c204 -47 363 -144 363 -381c0 -268 -216 -422 -532 -422c-385 0 -513 223 -517 409zM294 1791h181l115 -161h6l115 161h181l-223 -284h-152z" />
    <glyph glyph-name="Scedilla" unicode="&#x15e;" horiz-adv-x="1191" 
d="M594 -469c-66 -3 -122 7 -148 15v117c27 -8 79 -14 113 -14c53 0 113 14 113 68c0 57 -51 62 -131 62h-54v94l42 101c-348 18 -465 230 -469 408h235c10 -114 110 -212 299 -212c173 0 273 80 273 204c0 101 -70 154 -214 189l-219 53c-180 41 -339 147 -339 371
c0 263 229 408 499 408c275 0 492 -150 496 -401h-230c-9 111 -96 205 -268 205c-152 0 -254 -72 -254 -193c0 -87 63 -148 188 -177l220 -53c204 -47 363 -144 363 -381c0 -240 -174 -388 -435 -417l-37 -89c121 0 194 -58 194 -165c0 -132 -102 -189 -237 -193z" />
    <glyph glyph-name="Sdotaccent" unicode="&#x1e60;" horiz-adv-x="1191" 
d="M467 1645c0 70 57 125 126 125s126 -55 126 -125c0 -69 -57 -124 -126 -124s-126 55 -126 124zM60 382h235c10 -114 110 -212 299 -212c173 0 273 80 273 204c0 101 -70 154 -214 189l-219 53c-180 41 -339 147 -339 371c0 263 229 408 499 408c275 0 492 -150 496 -401
h-230c-9 111 -96 205 -268 205c-152 0 -254 -72 -254 -193c0 -87 63 -148 188 -177l220 -53c204 -47 363 -144 363 -381c0 -268 -216 -422 -532 -422c-385 0 -513 223 -517 409z" />
    <glyph glyph-name="Sdotbelow" unicode="&#x1e62;" horiz-adv-x="1191" 
d="M471 -264c0 63 48 111 107 111c62 0 109 -48 109 -111c0 -61 -47 -110 -109 -110c-59 0 -107 49 -107 110zM60 382h235c10 -114 110 -212 299 -212c173 0 273 80 273 204c0 101 -70 154 -214 189l-219 53c-180 41 -339 147 -339 371c0 263 229 408 499 408
c275 0 492 -150 496 -401h-230c-9 111 -96 205 -268 205c-152 0 -254 -72 -254 -193c0 -87 63 -148 188 -177l220 -53c204 -47 363 -144 363 -381c0 -268 -216 -422 -532 -422c-385 0 -513 223 -517 409z" />
    <glyph glyph-name="Scommaaccent" unicode="&#x218;" horiz-adv-x="1191" 
d="M60 382h235c10 -114 110 -212 299 -212c173 0 273 80 273 204c0 101 -70 154 -214 189l-219 53c-180 41 -339 147 -339 371c0 263 229 408 499 408c275 0 492 -150 496 -401h-230c-9 111 -96 205 -268 205c-152 0 -254 -72 -254 -193c0 -87 63 -148 188 -177l220 -53
c204 -47 363 -144 363 -381c0 -268 -216 -422 -532 -422c-385 0 -513 223 -517 409zM570 -489h-166l85 335h195z" />
    <glyph glyph-name="Sdotbelowdotaccent" unicode="&#x1e68;" horiz-adv-x="1191" 
d="M471 -264c0 63 48 111 107 111c62 0 109 -48 109 -111c0 -61 -47 -110 -109 -110c-59 0 -107 49 -107 110zM60 382h235c10 -114 110 -212 299 -212c173 0 273 80 273 204c0 101 -70 154 -214 189l-219 53c-180 41 -339 147 -339 371c0 263 229 408 499 408
c275 0 492 -150 496 -401h-230c-9 111 -96 205 -268 205c-152 0 -254 -72 -254 -193c0 -87 63 -148 188 -177l220 -53c204 -47 363 -144 363 -381c0 -268 -216 -422 -532 -422c-385 0 -513 223 -517 409zM467 1645c0 70 57 125 126 125s126 -55 126 -125
c0 -69 -57 -124 -126 -124s-126 55 -126 124z" />
    <glyph glyph-name="Scarondotaccent" unicode="&#x1e66;" horiz-adv-x="1191" 
d="M249 1708h203l139 -106h4l139 106h203l-276 -201h-136zM497 1839c0 52 43 96 96 96s96 -44 96 -96s-43 -96 -96 -96s-96 44 -96 96zM60 382h235c10 -114 110 -212 299 -212c173 0 273 80 273 204c0 101 -70 154 -214 189l-219 53c-180 41 -339 147 -339 371
c0 263 229 408 499 408c275 0 492 -150 496 -401h-230c-9 111 -96 205 -268 205c-152 0 -254 -72 -254 -193c0 -87 63 -148 188 -177l220 -53c204 -47 363 -144 363 -381c0 -268 -216 -422 -532 -422c-385 0 -513 223 -517 409z" />
    <glyph glyph-name="Scircumflex" unicode="&#x15c;" horiz-adv-x="1191" 
d="M60 382h235c10 -114 110 -212 299 -212c173 0 273 80 273 204c0 101 -70 154 -214 189l-219 53c-180 41 -339 147 -339 371c0 263 229 408 499 408c275 0 492 -150 496 -401h-230c-9 111 -96 205 -268 205c-152 0 -254 -72 -254 -193c0 -87 63 -148 188 -177l220 -53
c204 -47 363 -144 363 -381c0 -268 -216 -422 -532 -422c-385 0 -513 223 -517 409zM294 1507l223 285h152l223 -285h-181l-115 161h-6l-115 -161h-181z" />
    <glyph glyph-name="Sacutedotaccent" unicode="&#x1e64;" horiz-adv-x="1191" 
d="M766 1507h-169l197 286h215zM264 1678c0 70 57 125 126 125s126 -55 126 -125c0 -69 -57 -124 -126 -124s-126 55 -126 124zM60 382h235c10 -114 110 -212 299 -212c173 0 273 80 273 204c0 101 -70 154 -214 189l-219 53c-180 41 -339 147 -339 371
c0 263 229 408 499 408c275 0 492 -150 496 -401h-230c-9 111 -96 205 -268 205c-152 0 -254 -72 -254 -193c0 -87 63 -148 188 -177l220 -53c204 -47 363 -144 363 -381c0 -268 -216 -422 -532 -422c-385 0 -513 223 -517 409z" />
    <glyph glyph-name="Sacute" unicode="&#x15a;" horiz-adv-x="1191" 
d="M667 1507h-169l197 286h215zM60 382h235c10 -114 110 -212 299 -212c173 0 273 80 273 204c0 101 -70 154 -214 189l-219 53c-180 41 -339 147 -339 371c0 263 229 408 499 408c275 0 492 -150 496 -401h-230c-9 111 -96 205 -268 205c-152 0 -254 -72 -254 -193
c0 -87 63 -148 188 -177l220 -53c204 -47 363 -144 363 -381c0 -268 -216 -422 -532 -422c-385 0 -513 223 -517 409z" />
    <glyph glyph-name="T" unicode="T" horiz-adv-x="1067" 
d="M653 0h-240v1160h-396v205h1033v-205h-397v-1160z" />
    <glyph glyph-name="Tcircumflexbelow" unicode="&#x1e70;" horiz-adv-x="1067" 
d="M653 0h-240v1160h-396v205h1033v-205h-397v-1160zM237 -396l219 281h156l219 -281h-179l-115 167h-6l-115 -167h-179z" />
    <glyph glyph-name="Tdotbelow" unicode="&#x1e6c;" horiz-adv-x="1067" 
d="M425 -264c0 63 48 111 107 111c62 0 109 -48 109 -111c0 -61 -47 -110 -109 -110c-59 0 -107 49 -107 110zM653 0h-240v1160h-396v205h1033v-205h-397v-1160z" />
    <glyph glyph-name="Tcommaaccent" unicode="&#x21a;" horiz-adv-x="1067" 
d="M526 -489h-166l85 335h195zM653 0h-240v1160h-396v205h1033v-205h-397v-1160z" />
    <glyph glyph-name="Tdotaccent" unicode="&#x1e6a;" horiz-adv-x="1067" 
d="M407 1645c0 70 57 125 126 125s126 -55 126 -125c0 -69 -57 -124 -126 -124s-126 55 -126 124zM653 0h-240v1160h-396v205h1033v-205h-397v-1160z" />
    <glyph glyph-name="Tcedilla" unicode="&#x162;" horiz-adv-x="1067" 
d="M536 -484c-65 -2 -122 8 -148 15v117c27 -8 79 -13 113 -13c53 0 113 13 113 67c0 58 -57 63 -137 63h-54v94l53 141h-63v1160h-396v205h1033v-205h-397v-1160h-32l-48 -125c121 0 200 -59 200 -166c0 -132 -101 -189 -237 -193z" />
    <glyph glyph-name="Tlinebelow" unicode="&#x1e6e;" horiz-adv-x="1067" 
d="M818 -348h-572v140h572v-140zM653 0h-240v1160h-396v205h1033v-205h-397v-1160z" />
    <glyph glyph-name="Tcaron" unicode="&#x164;" horiz-adv-x="1067" 
d="M233 1791h181l115 -161h6l115 161h181l-223 -284h-152zM653 0h-240v1160h-396v205h1033v-205h-397v-1160z" />
    <glyph glyph-name="Tbar" unicode="&#x166;" horiz-adv-x="1067" 
d="M884 613h-230v-613h-241v613h-230v158h230v389h-396v205h1033v-205h-396v-389h230v-158z" />
    <glyph glyph-name="U" unicode="U" horiz-adv-x="1352" 
d="M375 1365v-873c0 -196 120 -311 301 -311s301 116 301 311v873h240v-906c0 -287 -203 -486 -541 -486s-541 199 -541 486v906h240z" />
    <glyph glyph-name="Ugrave" unicode="&#xd9;" horiz-adv-x="1352" 
d="M770 1507h-169l-243 286h215zM375 1365v-873c0 -196 120 -311 301 -311s301 116 301 311v873h240v-906c0 -287 -203 -486 -541 -486s-541 199 -541 486v906h240z" />
    <glyph glyph-name="Udblgrave" unicode="&#x214;" horiz-adv-x="1352" 
d="M615 1508h-166l-262 263h211zM949 1508h-166l-262 263h211zM375 1365v-873c0 -196 120 -311 301 -311s301 116 301 311v873h240v-906c0 -287 -203 -486 -541 -486s-541 199 -541 486v906h240z" />
    <glyph glyph-name="Uacute" unicode="&#xda;" horiz-adv-x="1352" 
d="M749 1507h-169l197 286h215zM375 1365v-873c0 -196 120 -311 301 -311s301 116 301 311v873h240v-906c0 -287 -203 -486 -541 -486s-541 199 -541 486v906h240z" />
    <glyph glyph-name="Uhungarumlaut" unicode="&#x170;" horiz-adv-x="1352" 
d="M375 1365v-873c0 -196 120 -311 301 -311s301 116 301 311v873h240v-906c0 -287 -203 -486 -541 -486s-541 199 -541 486v906h240zM402 1507l217 263h211l-262 -263h-166zM736 1507l216 263h212l-262 -263h-166z" />
    <glyph glyph-name="Ucircumflex" unicode="&#xdb;" horiz-adv-x="1352" 
d="M376 1507l223 285h152l223 -285h-181l-115 161h-6l-115 -161h-181zM375 1365v-873c0 -196 120 -311 301 -311s301 116 301 311v873h240v-906c0 -287 -203 -486 -541 -486s-541 199 -541 486v906h240z" />
    <glyph glyph-name="Ucaron" unicode="&#x1d3;" horiz-adv-x="1352" 
d="M376 1791h181l115 -161h6l115 161h181l-223 -284h-152zM375 1365v-873c0 -196 120 -311 301 -311s301 116 301 311v873h240v-906c0 -287 -203 -486 -541 -486s-541 199 -541 486v906h240z" />
    <glyph glyph-name="Ucircumflexbelow" unicode="&#x1e76;" horiz-adv-x="1352" 
d="M375 1365v-873c0 -196 120 -311 301 -311s301 116 301 311v873h240v-906c0 -287 -203 -486 -541 -486s-541 199 -541 486v906h240zM379 -396l219 281h156l219 -281h-179l-115 167h-6l-115 -167h-179z" />
    <glyph glyph-name="Udieresis" unicode="&#xdc;" horiz-adv-x="1352" 
d="M507 1482c-56 0 -99 44 -99 101c0 60 43 104 99 104c57 0 101 -44 101 -104c0 -57 -44 -101 -101 -101zM841 1482c-56 0 -99 44 -99 101c0 60 43 104 99 104c57 0 101 -44 101 -104c0 -57 -44 -101 -101 -101zM375 1365v-873c0 -196 120 -311 301 -311s301 116 301 311
v873h240v-906c0 -287 -203 -486 -541 -486s-541 199 -541 486v906h240z" />
    <glyph glyph-name="Udieresisgrave" unicode="&#x1db;" horiz-adv-x="1352" 
d="M776 1741h-179l-266 194h221zM507 1482c-56 0 -99 44 -99 101c0 60 43 104 99 104c57 0 101 -44 101 -104c0 -57 -44 -101 -101 -101zM841 1482c-56 0 -99 44 -99 101c0 60 43 104 99 104c57 0 101 -44 101 -104c0 -57 -44 -101 -101 -101zM375 1365v-873
c0 -196 120 -311 301 -311s301 116 301 311v873h240v-906c0 -287 -203 -486 -541 -486s-541 199 -541 486v906h240z" />
    <glyph glyph-name="Udieresisacute" unicode="&#x1d7;" horiz-adv-x="1352" 
d="M574 1741l224 194h221l-266 -194h-179zM507 1482c-56 0 -99 44 -99 101c0 60 43 104 99 104c57 0 101 -44 101 -104c0 -57 -44 -101 -101 -101zM841 1482c-56 0 -99 44 -99 101c0 60 43 104 99 104c57 0 101 -44 101 -104c0 -57 -44 -101 -101 -101zM375 1365v-873
c0 -196 120 -311 301 -311s301 116 301 311v873h240v-906c0 -287 -203 -486 -541 -486s-541 199 -541 486v906h240z" />
    <glyph glyph-name="Udieresismacron" unicode="&#x1d5;" horiz-adv-x="1352" 
d="M375 1365v-873c0 -196 120 -311 301 -311s301 116 301 311v873h240v-906c0 -287 -203 -486 -541 -486s-541 199 -541 486v906h240zM507 1482c-56 0 -99 44 -99 101c0 60 43 104 99 104c57 0 101 -44 101 -104c0 -57 -44 -101 -101 -101zM841 1482c-56 0 -99 44 -99 101
c0 60 43 104 99 104c57 0 101 -44 101 -104c0 -57 -44 -101 -101 -101zM958 1789h-566v124h566v-124z" />
    <glyph glyph-name="Udieresiscaron" unicode="&#x1d9;" horiz-adv-x="1352" 
d="M410 1583c0 60 42 104 98 104c57 0 102 -44 102 -104c0 -57 -45 -101 -102 -101c-56 0 -98 44 -98 101zM743 1583c0 60 43 104 99 104c58 0 101 -44 101 -104c0 -57 -43 -101 -101 -101c-56 0 -99 44 -99 101zM331 1928h203l139 -106h4l139 106h203l-276 -202h-136z
M375 1365v-873c0 -196 120 -311 301 -311s301 116 301 311v873h240v-906c0 -287 -203 -486 -541 -486s-541 199 -541 486v906h240z" />
    <glyph glyph-name="Udieresisbelow" unicode="&#x1e72;" horiz-adv-x="1352" 
d="M375 1365v-873c0 -196 120 -311 301 -311s301 116 301 311v873h240v-906c0 -287 -203 -486 -541 -486s-541 199 -541 486v906h240zM489 -379c-60 0 -106 45 -106 106c0 64 46 110 106 110c62 0 107 -46 107 -110c0 -61 -45 -106 -107 -106zM859 -379
c-60 0 -105 45 -105 106c0 64 45 110 105 110c62 0 109 -46 109 -110c0 -61 -47 -106 -109 -106z" />
    <glyph glyph-name="Utildebelow" unicode="&#x1e74;" horiz-adv-x="1352" 
d="M793 -378c-130 0 -168 120 -235 120c-50 0 -60 -64 -60 -98h-136c0 117 63 225 187 225c130 0 171 -120 239 -120c44 0 64 52 67 103h136c0 -113 -70 -230 -198 -230zM375 1365v-873c0 -196 120 -311 301 -311s301 116 301 311v873h240v-906c0 -287 -203 -486 -541 -486
s-541 199 -541 486v906h240z" />
    <glyph glyph-name="Uhookabove" unicode="&#x1ee6;" horiz-adv-x="1352" 
d="M375 1365v-873c0 -196 120 -311 301 -311s301 116 301 311v873h240v-906c0 -287 -203 -486 -541 -486s-541 199 -541 486v906h240zM533 1658v106c18 7 60 17 107 17c123 0 211 -58 211 -163c0 -103 -92 -149 -146 -171l-74 89c38 11 84 35 84 73c0 46 -47 59 -92 59
c-38 0 -68 -5 -90 -10z" />
    <glyph glyph-name="Ubreve" unicode="&#x16c;" horiz-adv-x="1352" 
d="M375 1365v-873c0 -196 120 -311 301 -311s301 116 301 311v873h240v-906c0 -287 -203 -486 -541 -486s-541 199 -541 486v906h240zM378 1761h137c0 -82 50 -149 160 -149s160 67 160 149h135c0 -140 -94 -275 -295 -275s-298 135 -297 275z" />
    <glyph glyph-name="Uinvertedbreve" unicode="&#x216;" horiz-adv-x="1352" 
d="M375 1365v-873c0 -196 120 -311 301 -311s301 116 301 311v873h240v-906c0 -287 -203 -486 -541 -486s-541 199 -541 486v906h240zM675 1656c-110 0 -160 -67 -160 -149h-137c-1 140 96 275 297 275s295 -135 295 -275h-135c0 82 -50 149 -160 149z" />
    <glyph glyph-name="Utildeacute" unicode="&#x1e78;" horiz-adv-x="1352" 
d="M375 1365v-873c0 -196 120 -311 301 -311s301 116 301 311v873h240v-906c0 -287 -203 -486 -541 -486s-541 199 -541 486v906h240zM573 1741l223 194h215l-266 -194h-172zM785 1478c-125 0 -157 112 -220 112c-44 0 -57 -53 -58 -92h-127c0 104 58 209 180 209
c125 0 164 -112 224 -112c42 0 59 52 62 96h126c0 -106 -66 -213 -187 -213z" />
    <glyph glyph-name="Udotbelow" unicode="&#x1ee4;" horiz-adv-x="1352" 
d="M570 -264c0 63 48 111 107 111c62 0 109 -48 109 -111c0 -61 -47 -110 -109 -110c-59 0 -107 49 -107 110zM375 1365v-873c0 -196 120 -311 301 -311s301 116 301 311v873h240v-906c0 -287 -203 -486 -541 -486s-541 199 -541 486v906h240z" />
    <glyph glyph-name="Utilde" unicode="&#x168;" horiz-adv-x="1352" 
d="M375 1365v-873c0 -196 120 -311 301 -311s301 116 301 311v873h240v-906c0 -287 -203 -486 -541 -486s-541 199 -541 486v906h240zM785 1478c-125 0 -157 112 -220 112c-44 0 -57 -53 -58 -92h-127c0 104 58 209 180 209c125 0 164 -112 224 -112c42 0 59 52 62 96h126
c0 -106 -66 -213 -187 -213z" />
    <glyph glyph-name="Umacron" unicode="&#x16a;" horiz-adv-x="1352" 
d="M375 1365v-873c0 -196 120 -311 301 -311s301 116 301 311v873h240v-906c0 -287 -203 -486 -541 -486s-541 199 -541 486v906h240zM958 1514h-566v124h566v-124z" />
    <glyph glyph-name="Umacrondieresis" unicode="&#x1e7a;" horiz-adv-x="1352" 
d="M507 1719c-56 0 -99 44 -99 101c0 60 43 104 99 104c57 0 101 -44 101 -104c0 -57 -44 -101 -101 -101zM841 1719c-56 0 -99 44 -99 101c0 60 43 104 99 104c57 0 101 -44 101 -104c0 -57 -44 -101 -101 -101zM958 1501h-566v124h566v-124zM375 1365v-873
c0 -196 120 -311 301 -311s301 116 301 311v873h240v-906c0 -287 -203 -486 -541 -486s-541 199 -541 486v906h240z" />
    <glyph glyph-name="Uring" unicode="&#x16e;" horiz-adv-x="1352" 
d="M675 1474c-116 0 -207 85 -207 201s91 201 207 201c117 0 207 -85 207 -201s-91 -201 -207 -201zM579 1675c0 -55 41 -98 96 -98s96 43 96 98s-41 97 -96 97s-96 -42 -96 -97zM375 1365v-873c0 -196 120 -311 301 -311s301 116 301 311v873h240v-906
c0 -287 -203 -486 -541 -486s-541 199 -541 486v906h240z" />
    <glyph glyph-name="Uogonek" unicode="&#x172;" horiz-adv-x="1352" 
d="M977 -388c-134 0 -238 70 -238 200c0 63 21 132 89 190l-4 6c-36 -16 -78 -35 -158 -35c-311 0 -531 201 -531 503v889h242v-873c0 -196 117 -311 299 -311c181 0 300 116 300 311v873h241v-892c0 -183 -68 -298 -150 -383c-73 -79 -154 -134 -154 -224
c0 -72 53 -101 118 -101c21 0 49 3 76 10v-142c-21 -8 -72 -21 -130 -21z" />
    <glyph glyph-name="Uhorn" unicode="&#x1af;" horiz-adv-x="1437" 
d="M676 -26c-326 0 -541 201 -541 503v888h242v-872c0 -196 117 -311 299 -311c181 0 300 116 300 311v872h243c93 0 119 53 119 137v116h193v-136c0 -160 -83 -284 -258 -284h-56v-724c0 -301 -215 -500 -541 -500z" />
    <glyph glyph-name="Uhorngrave" unicode="&#x1eea;" horiz-adv-x="1437" 
d="M770 1507h-169l-243 286h215zM676 -26c-326 0 -541 201 -541 503v888h242v-872c0 -196 117 -311 299 -311c181 0 300 116 300 311v872h243c93 0 119 53 119 137v116h193v-136c0 -160 -83 -284 -258 -284h-56v-724c0 -301 -215 -500 -541 -500z" />
    <glyph glyph-name="Uhornacute" unicode="&#x1ee8;" horiz-adv-x="1437" 
d="M749 1507h-169l197 286h215zM676 -26c-326 0 -541 201 -541 503v888h242v-872c0 -196 117 -311 299 -311c181 0 300 116 300 311v872h243c93 0 119 53 119 137v116h193v-136c0 -160 -83 -284 -258 -284h-56v-724c0 -301 -215 -500 -541 -500z" />
    <glyph glyph-name="Uhorndotbelow" unicode="&#x1ef0;" horiz-adv-x="1437" 
d="M569 -264c0 63 48 111 107 111c62 0 109 -48 109 -111c0 -61 -47 -110 -109 -110c-59 0 -107 49 -107 110zM676 -26c-326 0 -541 201 -541 503v888h242v-872c0 -196 117 -311 299 -311c181 0 300 116 300 311v872h243c93 0 119 53 119 137v116h193v-136
c0 -160 -83 -284 -258 -284h-56v-724c0 -301 -215 -500 -541 -500z" />
    <glyph glyph-name="Uhornhookabove" unicode="&#x1eec;" horiz-adv-x="1437" 
d="M533 1658v106c18 7 60 17 107 17c123 0 211 -58 211 -163c0 -103 -92 -149 -146 -171l-74 89c38 11 84 35 84 73c0 46 -47 59 -92 59c-38 0 -68 -5 -90 -10zM676 -26c-326 0 -541 201 -541 503v888h242v-872c0 -196 117 -311 299 -311c181 0 300 116 300 311v872h243
c93 0 119 53 119 137v116h193v-136c0 -160 -83 -284 -258 -284h-56v-724c0 -301 -215 -500 -541 -500z" />
    <glyph glyph-name="Uhorntilde" unicode="&#x1eee;" horiz-adv-x="1437" 
d="M785 1478c-125 0 -157 112 -220 112c-44 0 -57 -53 -58 -92h-127c0 104 58 209 180 209c125 0 164 -112 224 -112c42 0 59 52 62 96h126c0 -106 -66 -213 -187 -213zM676 -26c-326 0 -541 201 -541 503v888h242v-872c0 -196 117 -311 299 -311c181 0 300 116 300 311v872
h243c93 0 119 53 119 137v116h193v-136c0 -160 -83 -284 -258 -284h-56v-724c0 -301 -215 -500 -541 -500z" />
    <glyph glyph-name="V" unicode="V" horiz-adv-x="1234" 
d="M759 0h-282l-466 1365h279l329 -1084h9l326 1084h270z" />
    <glyph glyph-name="Vtilde" unicode="&#x1e7c;" horiz-adv-x="1234" 
d="M727 1478c-125 0 -157 112 -220 112c-44 0 -57 -53 -58 -92h-127c0 104 58 209 180 209c125 0 164 -112 224 -112c42 0 59 52 62 96h126c0 -106 -66 -213 -187 -213zM759 0h-282l-466 1365h279l329 -1084h9l326 1084h270z" />
    <glyph glyph-name="Vdotbelow" unicode="&#x1e7e;" horiz-adv-x="1234" 
d="M509 -264c0 63 48 111 107 111c62 0 109 -48 109 -111c0 -61 -47 -110 -109 -110c-59 0 -107 49 -107 110zM759 0h-282l-466 1365h279l329 -1084h9l326 1084h270z" />
    <glyph glyph-name="W" unicode="W" horiz-adv-x="1725" 
d="M595 0h-222l-364 1365h259l227 -1002h9l250 1002h218l249 -1002h10l226 1002h259l-365 -1365h-221l-263 983h-9z" />
    <glyph glyph-name="Wgrave" unicode="&#x1e80;" horiz-adv-x="1725" 
d="M958 1507h-169l-243 286h215zM595 0h-222l-364 1365h259l227 -1002h9l250 1002h218l249 -1002h10l226 1002h259l-365 -1365h-221l-263 983h-9z" />
    <glyph glyph-name="Wacute" unicode="&#x1e82;" horiz-adv-x="1725" 
d="M937 1507h-169l197 286h215zM595 0h-222l-364 1365h259l227 -1002h9l250 1002h218l249 -1002h10l226 1002h259l-365 -1365h-221l-263 983h-9z" />
    <glyph glyph-name="Wdotaccent" unicode="&#x1e86;" horiz-adv-x="1725" 
d="M737 1645c0 70 57 125 126 125s126 -55 126 -125c0 -69 -57 -124 -126 -124s-126 55 -126 124zM595 0h-222l-364 1365h259l227 -1002h9l250 1002h218l249 -1002h10l226 1002h259l-365 -1365h-221l-263 983h-9z" />
    <glyph glyph-name="Wdotbelow" unicode="&#x1e88;" horiz-adv-x="1725" 
d="M754 -264c0 63 48 111 107 111c62 0 109 -48 109 -111c0 -61 -47 -110 -109 -110c-59 0 -107 49 -107 110zM595 0h-222l-364 1365h259l227 -1002h9l250 1002h218l249 -1002h10l226 1002h259l-365 -1365h-221l-263 983h-9z" />
    <glyph glyph-name="Wdieresis" unicode="&#x1e84;" horiz-adv-x="1725" 
d="M693 1482c-56 0 -99 44 -99 101c0 60 43 104 99 104c57 0 101 -44 101 -104c0 -57 -44 -101 -101 -101zM1027 1482c-56 0 -99 44 -99 101c0 60 43 104 99 104c57 0 101 -44 101 -104c0 -57 -44 -101 -101 -101zM595 0h-222l-364 1365h259l227 -1002h9l250 1002h218
l249 -1002h10l226 1002h259l-365 -1365h-221l-263 983h-9z" />
    <glyph glyph-name="Wcircumflex" unicode="&#x174;" horiz-adv-x="1725" 
d="M564 1507l223 285h152l223 -285h-181l-115 161h-6l-115 -161h-181zM595 0h-222l-364 1365h259l227 -1002h9l250 1002h218l249 -1002h10l226 1002h259l-365 -1365h-221l-263 983h-9z" />
    <glyph glyph-name="X" unicode="X" horiz-adv-x="1166" 
d="M1171 1365l-440 -686l433 -679h-280l-306 500h-11l-306 -500h-265l429 688l-425 677h286l301 -506h12l298 506h274z" />
    <glyph glyph-name="Xdotaccent" unicode="&#x1e8a;" horiz-adv-x="1166" 
d="M1171 1365l-440 -686l433 -679h-280l-306 500h-11l-306 -500h-265l429 688l-425 677h286l301 -506h12l298 506h274zM454 1645c0 70 57 125 126 125s126 -55 126 -125c0 -69 -57 -124 -126 -124s-126 55 -126 124z" />
    <glyph glyph-name="Xdieresis" unicode="&#x1e8c;" horiz-adv-x="1167" 
d="M1171 1365l-440 -686l433 -679h-280l-306 500h-11l-306 -500h-265l429 688l-425 677h286l301 -506h12l298 506h274zM418 1482c-56 0 -99 44 -99 101c0 60 43 104 99 104c57 0 101 -44 101 -104c0 -57 -44 -101 -101 -101zM752 1482c-56 0 -99 44 -99 101
c0 60 43 104 99 104c57 0 101 -44 101 -104c0 -57 -44 -101 -101 -101z" />
    <glyph glyph-name="Y" unicode="Y" horiz-adv-x="1133" 
d="M687 0h-241v539l-457 826h270l306 -587h8l307 587h264l-457 -822v-543z" />
    <glyph glyph-name="Ygrave" unicode="&#x1ef2;" horiz-adv-x="1132" 
d="M687 0h-241v539l-457 826h270l306 -587h8l307 587h264l-457 -822v-543zM661 1507h-169l-243 286h215z" />
    <glyph glyph-name="Yacute" unicode="&#xdd;" horiz-adv-x="1132" 
d="M687 0h-241v539l-457 826h270l306 -587h8l307 587h264l-457 -822v-543zM640 1507h-169l197 286h215z" />
    <glyph glyph-name="Ydotaccent" unicode="&#x1e8e;" horiz-adv-x="1133" 
d="M687 0h-241v539l-457 826h270l306 -587h8l307 587h264l-457 -822v-543zM440 1645c0 70 57 125 126 125s126 -55 126 -125c0 -69 -57 -124 -126 -124s-126 55 -126 124z" />
    <glyph glyph-name="Ydotbelow" unicode="&#x1ef4;" horiz-adv-x="1133" 
d="M687 0h-241v539l-457 826h270l306 -587h8l307 587h264l-457 -822v-543zM458 -264c0 63 48 111 107 111c62 0 109 -48 109 -111c0 -61 -47 -110 -109 -110c-59 0 -107 49 -107 110z" />
    <glyph glyph-name="Ydieresis" unicode="&#x178;" horiz-adv-x="1133" 
d="M687 0h-241v539l-457 826h270l306 -587h8l307 587h264l-457 -822v-543zM398 1482c-56 0 -99 44 -99 101c0 60 43 104 99 104c57 0 101 -44 101 -104c0 -57 -44 -101 -101 -101zM732 1482c-56 0 -99 44 -99 101c0 60 43 104 99 104c57 0 101 -44 101 -104
c0 -57 -44 -101 -101 -101z" />
    <glyph glyph-name="Ytilde" unicode="&#x1ef8;" horiz-adv-x="1132" 
d="M687 0h-241v539l-457 826h270l306 -587h8l307 587h264l-457 -822v-543zM676 1478c-125 0 -157 112 -220 112c-44 0 -57 -53 -58 -92h-127c0 104 58 209 180 209c125 0 164 -112 224 -112c42 0 59 52 62 96h126c0 -106 -66 -213 -187 -213z" />
    <glyph glyph-name="Ycircumflex" unicode="&#x176;" horiz-adv-x="1132" 
d="M687 0h-241v539l-457 826h270l306 -587h8l307 587h264l-457 -822v-543zM267 1507l223 285h152l223 -285h-181l-115 161h-6l-115 -161h-181z" />
    <glyph glyph-name="Ymacron" unicode="&#x232;" horiz-adv-x="1133" 
d="M687 0h-241v539l-457 826h270l306 -587h8l307 587h264l-457 -822v-543zM849 1514h-566v124h566v-124z" />
    <glyph glyph-name="Yhookabove" unicode="&#x1ef6;" horiz-adv-x="1132" 
d="M687 0h-241v539l-457 826h270l306 -587h8l307 587h264l-457 -822v-543zM424 1658v106c18 7 60 17 107 17c123 0 211 -58 211 -163c0 -103 -92 -149 -146 -171l-74 89c38 11 84 35 84 73c0 46 -47 59 -92 59c-38 0 -68 -5 -90 -10z" />
    <glyph glyph-name="Z" unicode="Z" horiz-adv-x="1167" 
d="M84 0v161l681 993v9h-661v202h955v-160l-678 -994v-9h697v-202h-994z" />
    <glyph glyph-name="Zacute" unicode="&#x179;" horiz-adv-x="1167" 
d="M657 1507h-169l197 286h215zM84 0v161l681 993v9h-661v202h955v-160l-678 -994v-9h697v-202h-994z" />
    <glyph glyph-name="Zcaron" unicode="&#x17d;" horiz-adv-x="1167" 
d="M84 0v161l681 993v9h-661v202h955v-160l-678 -994v-9h697v-202h-994zM284 1791h181l115 -161h6l115 161h181l-223 -284h-152z" />
    <glyph glyph-name="Zcircumflex" unicode="&#x1e90;" horiz-adv-x="1167" 
d="M84 0v161l681 993v9h-661v202h955v-160l-678 -994v-9h697v-202h-994zM284 1507l223 285h152l223 -285h-181l-115 161h-6l-115 -161h-181z" />
    <glyph glyph-name="Zlinebelow" unicode="&#x1e94;" horiz-adv-x="1167" 
d="M84 0v161l681 993v9h-661v202h955v-160l-678 -994v-9h697v-202h-994zM869 -348h-572v140h572v-140z" />
    <glyph glyph-name="Zdotbelow" unicode="&#x1e92;" horiz-adv-x="1167" 
d="M477 -264c0 63 48 111 107 111c62 0 109 -48 109 -111c0 -61 -47 -110 -109 -110c-59 0 -107 49 -107 110zM84 0v161l681 993v9h-661v202h955v-160l-678 -994v-9h697v-202h-994z" />
    <glyph glyph-name="Zdotaccent" unicode="&#x17b;" horiz-adv-x="1167" 
d="M457 1645c0 70 57 125 126 125s126 -55 126 -125c0 -69 -57 -124 -126 -124s-126 55 -126 124zM84 0v161l681 993v9h-661v202h955v-160l-678 -994v-9h697v-202h-994z" />
    <glyph glyph-name="AE" unicode="&#xc6;" horiz-adv-x="1879" 
d="M848 1164l-292 -598h361v598h-69zM917 376h-448l-191 -376h-268l692 1365h1070v-201h-615v-376h579v-191h-579v-395h615v-202h-855v376z" />
    <glyph glyph-name="AEmacron" unicode="&#x1e2;" horiz-adv-x="1879" 
d="M848 1164l-292 -598h361v598h-69zM917 376h-448l-191 -376h-268l692 1365h1070v-201h-615v-376h579v-191h-579v-395h615v-202h-855v376zM1627 1514h-566v124h566v-124z" />
    <glyph glyph-name="AEacute" unicode="&#x1fc;" horiz-adv-x="1879" 
d="M1418 1507h-169l197 286h215zM848 1164l-292 -598h361v598h-69zM917 376h-448l-191 -376h-268l692 1365h1070v-201h-615v-376h579v-191h-579v-395h615v-202h-855v376z" />
    <glyph glyph-name="OE" unicode="&#x152;" horiz-adv-x="1961" 
d="M347 770v-186c0 -276 139 -407 329 -407c189 0 330 121 330 398v210c0 276 -141 402 -330 402c-190 0 -329 -141 -329 -417zM640 -27c-334 0 -544 231 -544 614v181c0 399 223 624 547 624c157 0 296 -55 367 -167h16v140h828v-202h-613v-375h577v-191h-577v-395h613
v-202h-828v144h-16c-71 -107 -207 -171 -370 -171z" />
    <glyph glyph-name="Eth" unicode="&#xd0;" horiz-adv-x="1402" 
d="M664 0h-480v590h-112v210h112v565h480c410 0 607 -243 607 -679c0 -439 -200 -686 -607 -686zM425 205h209c245 0 387 131 387 480c0 302 -111 482 -387 482h-209v-367h317v-210h-317v-385z" />
    <glyph glyph-name="Thorn" unicode="&#xde;" horiz-adv-x="1180" 
d="M150 1365h241v-240h277c284 0 454 -163 454 -418c0 -259 -172 -417 -455 -417h-275v-290h-242v1365zM392 928v-443h206c157 0 277 34 277 222c0 153 -92 221 -247 221h-236z" />
    <glyph glyph-name="Alphagreek" unicode="&#x391;" horiz-adv-x="1243" 
d="M264 0h-246l466 1365h276l464 -1365h-256l-116 368h-471zM622 1120h-9l-179 -568h366z" />
    <glyph glyph-name="Betagreek" unicode="&#x392;" horiz-adv-x="1247" 
d="M150 0v1365h553c240 0 396 -127 396 -336c0 -162 -93 -264 -229 -299v-11c170 -19 302 -134 302 -334c0 -243 -194 -385 -476 -385h-546zM391 1177v-386h187c196 0 282 68 282 197c0 118 -77 189 -210 189h-259zM391 614v-426h211c230 0 323 68 323 207
c0 137 -91 219 -257 219h-277z" />
    <glyph glyph-name="Gammagreek" unicode="&#x393;" horiz-adv-x="1037" 
d="M392 0h-242v1365h832v-203h-590v-1162z" />
    <glyph glyph-name="Deltagreek" unicode="&#x394;" horiz-adv-x="1253" 
d="M48 0v134l442 1231h275l440 -1231v-134h-1157zM619 1110l-318 -927h641l-314 927h-9z" />
    <glyph glyph-name="Epsilongreek" unicode="&#x395;" horiz-adv-x="1118" 
d="M1012 201v-202h-862v1365h862v-202h-621v-375h584v-191h-584v-395h621z" />
    <glyph glyph-name="Zetagreek" unicode="&#x396;" horiz-adv-x="1167" 
d="M84 0v161l681 993v9h-661v202h955v-160l-678 -994v-9h697v-202h-994z" />
    <glyph glyph-name="Etagreek" unicode="&#x397;" horiz-adv-x="1392" 
d="M1242 0h-242v598h-608v-598h-242v1365h242v-563h608v563h242v-1365z" />
    <glyph glyph-name="Thetagreek" unicode="&#x398;" horiz-adv-x="1385" 
d="M928 586h-473v197h473v-197zM338 773v-191c0 -264 144 -401 353 -401c210 0 356 133 356 401v191c0 273 -145 411 -356 411c-212 0 -353 -146 -353 -411zM96 586v182c0 388 229 624 597 624c369 0 596 -232 596 -624v-182c0 -388 -230 -613 -599 -613s-594 227 -594 613z
" />
    <glyph glyph-name="Iotagreek" unicode="&#x399;" horiz-adv-x="543" 
d="M392 0h-242v1365h242v-1365z" />
    <glyph glyph-name="Kappagreek" unicode="&#x39a;" horiz-adv-x="1236" 
d="M1212 1365l-493 -586l516 -779h-294l-400 616l-149 -165v-451h-242v1365h242v-626h11l540 626h269z" />
    <glyph glyph-name="Lambdagreek" unicode="&#x39b;" horiz-adv-x="1212" 
d="M597 1094l-330 -1094h-247l449 1365h276l447 -1365h-257l-328 1094h-10z" />
    <glyph glyph-name="Mugreek" unicode="&#x39c;" horiz-adv-x="1617" 
d="M371 0h-217v1365h244l408 -932h7l408 932h242v-1365h-218v929h-9l-344 -775h-168l-344 775h-9v-929z" />
    <glyph glyph-name="Nugreek" unicode="&#x39d;" horiz-adv-x="1375" 
d="M377 0h-227v1365h209l631 -955h8v955h226v-1365h-207l-633 958h-7v-958z" />
    <glyph glyph-name="Xigreek" unicode="&#x39e;" horiz-adv-x="1163" 
d="M107 1157v208h949v-208h-949zM193 592v197h777v-197h-777zM107 0v208h949v-208h-949z" />
    <glyph glyph-name="Omicrongreek" unicode="&#x39f;" horiz-adv-x="1339" 
d="M341 770v-185c0 -276 140 -407 329 -407c190 0 328 131 328 407v185c0 276 -138 417 -328 417c-189 0 -329 -141 -329 -417zM96 586v182c0 388 221 624 575 624c356 0 573 -237 573 -624v-182c0 -386 -220 -613 -575 -613s-573 227 -573 613z" />
    <glyph glyph-name="Pigreek" unicode="&#x3a0;" horiz-adv-x="1372" 
d="M1222 0h-242v1161h-588v-1161h-242v1365h1072v-1365z" />
    <glyph glyph-name="Rhogreek" unicode="&#x3a1;" horiz-adv-x="1183" 
d="M150 1365h532c284 0 453 -191 453 -446c0 -259 -171 -444 -455 -444h-288v-475h-242v1365zM392 1168v-498h175c202 0 322 52 322 249c0 159 -92 249 -247 249h-250z" />
    <glyph glyph-name="Sigmagreek" unicode="&#x3a3;" horiz-adv-x="1140" 
d="M84 148l378 538l-372 519v160h952v-202h-641v-9l320 -446v-29l-331 -468v-9h661v-202h-967v148z" />
    <glyph glyph-name="Taugreek" unicode="&#x3a4;" horiz-adv-x="1067" 
d="M653 0h-240v1160h-396v205h1033v-205h-397v-1160z" />
    <glyph glyph-name="Upsilongreek" unicode="&#x3a5;" horiz-adv-x="1133" 
d="M687 0h-241v539l-457 826h270l306 -587h8l307 587h264l-457 -822v-543z" />
    <glyph glyph-name="Phigreek" unicode="&#x3a6;" horiz-adv-x="1593" 
d="M908 -61h-223v108c-379 9 -589 249 -589 599v64c0 349 208 588 589 598v113h223v-113c381 -10 589 -250 589 -599v-63c0 -350 -211 -590 -589 -599v-108zM688 237v880c-223 -8 -354 -156 -354 -408v-65c0 -259 138 -397 354 -407zM905 237c215 10 353 148 353 407v65
c0 252 -130 400 -353 408v-880z" />
    <glyph glyph-name="Chigreek" unicode="&#x3a7;" horiz-adv-x="1166" 
d="M1171 1365l-440 -686l433 -679h-280l-306 500h-11l-306 -500h-265l429 688l-425 677h286l301 -506h12l298 506h274z" />
    <glyph glyph-name="Psigreek" unicode="&#x3a8;" horiz-adv-x="1504" 
d="M636 0v299c-318 11 -508 156 -508 487v579h232v-578c0 -207 88 -282 276 -289v867h232v-867c186 7 275 81 275 289v578h233v-579c0 -333 -191 -475 -508 -487v-299h-232z" />
    <glyph glyph-name="Omegagreek" unicode="&#x3a9;" horiz-adv-x="1394" 
d="M792 0v242c129 41 237 229 237 452v86c0 276 -143 407 -331 407c-193 0 -333 -135 -333 -407v-86c0 -218 105 -409 237 -452v-242h-504v208h239v14c-121 73 -217 254 -217 473v89c0 394 230 608 578 608s576 -214 576 -608v-89c0 -220 -97 -402 -217 -473v-14h240v-208
h-505z" />
    <glyph glyph-name="Alphatonosgreek" unicode="&#x386;" horiz-adv-x="1310" 
d="M331 0h-246l466 1365h276l464 -1365h-256l-116 368h-471zM689 1120h-9l-179 -568h366zM56 1044l75 321h219l-129 -321h-165z" />
    <glyph glyph-name="Epsilontonosgreek" unicode="&#x388;" horiz-adv-x="1440" 
d="M38 1044l75 321h219l-129 -321h-165zM1333 201v-202h-862v1365h862v-202h-621v-375h584v-191h-584v-395h621z" />
    <glyph glyph-name="Etatonosgreek" unicode="&#x389;" horiz-adv-x="1713" 
d="M38 1044l75 321h219l-129 -321h-165zM1563 0h-242v598h-608v-598h-242v1365h242v-563h608v563h242v-1365z" />
    <glyph glyph-name="Iotatonosgreek" unicode="&#x38a;" horiz-adv-x="864" 
d="M713 0h-242v1365h242v-1365zM38 1044l75 321h219l-129 -321h-165z" />
    <glyph glyph-name="Iotadieresisgreek" unicode="&#x3aa;" horiz-adv-x="543" 
d="M392 0h-242v1365h242v-1365zM103 1482c-56 0 -99 44 -99 101c0 60 43 104 99 104c57 0 101 -44 101 -104c0 -57 -44 -101 -101 -101zM437 1482c-56 0 -99 44 -99 101c0 60 43 104 99 104c57 0 101 -44 101 -104c0 -57 -44 -101 -101 -101z" />
    <glyph glyph-name="Omicrontonosgreek" unicode="&#x38c;" horiz-adv-x="1555" 
d="M556 770v-185c0 -276 140 -407 329 -407c190 0 328 131 328 407v185c0 276 -138 417 -328 417c-189 0 -329 -141 -329 -417zM311 586v182c0 388 221 624 575 624c356 0 573 -237 573 -624v-182c0 -386 -220 -613 -575 -613s-573 227 -573 613zM38 1044l75 321h219
l-129 -321h-165z" />
    <glyph glyph-name="Upsilontonosgreek" unicode="&#x38e;" horiz-adv-x="1564" 
d="M38 1044l75 321h219l-129 -321h-165zM1118 0h-241v539l-457 826h270l306 -587h8l307 587h264l-457 -822v-543z" />
    <glyph glyph-name="Upsilondieresisgreek" unicode="&#x3ab;" horiz-adv-x="1133" 
d="M687 0h-241v539l-457 826h270l306 -587h8l307 587h264l-457 -822v-543zM398 1482c-56 0 -99 44 -99 101c0 60 43 104 99 104c57 0 101 -44 101 -104c0 -57 -44 -101 -101 -101zM732 1482c-56 0 -99 44 -99 101c0 60 43 104 99 104c57 0 101 -44 101 -104
c0 -57 -44 -101 -101 -101z" />
    <glyph glyph-name="Omegatonosgreek" unicode="&#x38f;" horiz-adv-x="1576" 
d="M974 0v242c129 41 237 229 237 452v86c0 276 -143 407 -331 407c-193 0 -333 -135 -333 -407v-86c0 -218 105 -409 237 -452v-242h-504v208h239v14c-121 73 -217 254 -217 473v89c0 394 230 608 578 608s576 -214 576 -608v-89c0 -220 -97 -402 -217 -473v-14h240v-208
h-505zM38 1044l75 321h219l-129 -321h-165z" />
    <glyph glyph-name="Acyrillic" unicode="&#x410;" horiz-adv-x="1263" 
d="M274 0h-246l466 1365h276l464 -1365h-256l-116 368h-471zM632 1120h-9l-179 -568h366z" />
    <glyph glyph-name="Becyrillic" unicode="&#x411;" horiz-adv-x="1217" 
d="M402 1162v-322h281c284 0 455 -174 455 -415c0 -244 -169 -425 -453 -425h-525v1365h862v-203h-620zM402 197h249c151 0 241 83 241 226s-90 226 -241 226h-249v-452z" />
    <glyph glyph-name="Vecyrillic" unicode="&#x412;" horiz-adv-x="1267" 
d="M160 0v1365h553c240 0 396 -127 396 -336c0 -162 -93 -264 -229 -299v-11c170 -19 302 -134 302 -334c0 -243 -194 -385 -476 -385h-546zM401 1177v-386h187c196 0 282 68 282 197c0 118 -77 189 -210 189h-259zM401 614v-426h211c230 0 323 68 323 207
c0 137 -91 219 -257 219h-277z" />
    <glyph glyph-name="Gecyrillic" unicode="&#x413;" horiz-adv-x="1079" 
d="M402 0h-242v1365h849v-203h-607v-1162z" />
    <glyph glyph-name="Decyrillic" unicode="&#x414;" horiz-adv-x="1437" 
d="M978 204v957h-460l-12 -307c-11 -324 -22 -530 -105 -641v-9h577zM243 -286h-216v490h112c118 82 131 248 143 680l14 481h920v-1161h174v-490h-217v286h-930v-286z" />
    <glyph glyph-name="Iecyrillic" unicode="&#x415;" horiz-adv-x="1138" 
d="M1022 202v-202h-862v1365h862v-202h-621v-375h584v-191h-584v-395h621z" />
    <glyph glyph-name="Iocyrillic" unicode="&#x401;" horiz-adv-x="1138" 
d="M416 1482c-56 0 -99 44 -99 101c0 60 43 104 99 104c57 0 101 -44 101 -104c0 -57 -44 -101 -101 -101zM750 1482c-56 0 -99 44 -99 101c0 60 43 104 99 104c57 0 101 -44 101 -104c0 -57 -44 -101 -101 -101zM1022 202v-202h-862v1365h862v-202h-621v-375h584v-191h-584
v-395h621z" />
    <glyph glyph-name="Zhecyrillic" unicode="&#x416;" horiz-adv-x="1865" 
d="M1270 716l576 -716h-292l-493 605h-10v-605h-236v605h-9l-494 -605h-286l571 708l-573 657h286l496 -569h9v569h236v-569h10l495 569h281z" />
    <glyph glyph-name="Zecyrillic" unicode="&#x417;" horiz-adv-x="1196" 
d="M419 607v191h171c143 0 239 77 239 203c0 120 -99 200 -236 200c-153 0 -249 -92 -256 -204h-226c7 214 174 395 485 395c295 0 471 -161 471 -367c0 -165 -110 -277 -267 -303v-13c180 -18 310 -148 310 -323c0 -250 -204 -414 -517 -414c-306 0 -499 171 -507 402h223
c9 -118 119 -208 287 -208s273 85 273 224c0 142 -107 217 -280 217h-170z" />
    <glyph glyph-name="Iicyrillic" unicode="&#x418;" horiz-adv-x="1412" 
d="M1016 0v985h-9l-624 -985h-223v1365h236v-984h10l623 984h223v-1365h-236z" />
    <glyph glyph-name="Iishortcyrillic" unicode="&#x419;" horiz-adv-x="1412" 
d="M391 1781h147c0 -96 59 -161 184 -161s184 65 184 161h147c0 -163 -113 -287 -331 -287c-217 0 -331 124 -331 287zM1016 0v985h-9l-624 -985h-223v1365h236v-984h10l623 984h223v-1365h-236z" />
    <glyph glyph-name="Kacyrillic" unicode="&#x41a;" horiz-adv-x="1256" 
d="M941 0l-529 605h-10v-605h-242v1365h242v-569h10l531 569h285l-607 -649l617 -716h-297z" />
    <glyph glyph-name="Elcyrillic" unicode="&#x41b;" horiz-adv-x="1338" 
d="M276 884l9 481h893v-1365h-242v1161h-427l-9 -309c-17 -618 -73 -865 -373 -865c-44 0 -77 9 -85 13v212c4 -2 25 -8 51 -8c147 0 173 199 183 680z" />
    <glyph glyph-name="Emcyrillic" unicode="&#x41c;" horiz-adv-x="1630" 
d="M378 0h-217v1365h244l408 -932h7l408 932h242v-1365h-218v929h-9l-344 -775h-168l-344 775h-9v-929z" />
    <glyph glyph-name="Encyrillic" unicode="&#x41d;" horiz-adv-x="1412" 
d="M1252 0h-242v598h-608v-598h-242v1365h242v-563h608v563h242v-1365z" />
    <glyph glyph-name="Ocyrillic" unicode="&#x41e;" horiz-adv-x="1359" 
d="M351 770v-185c0 -276 140 -407 329 -407c190 0 328 131 328 407v185c0 276 -138 417 -328 417c-189 0 -329 -141 -329 -417zM106 586v182c0 388 221 624 575 624c356 0 573 -237 573 -624v-182c0 -386 -220 -613 -575 -613s-573 227 -573 613z" />
    <glyph glyph-name="Pecyrillic" unicode="&#x41f;" horiz-adv-x="1392" 
d="M1232 0h-242v1161h-588v-1161h-242v1365h1072v-1365z" />
    <glyph glyph-name="Ercyrillic" unicode="&#x420;" horiz-adv-x="1210" 
d="M160 1365h532c284 0 453 -191 453 -446c0 -259 -171 -444 -455 -444h-288v-475h-242v1365zM402 1168v-498h175c202 0 322 52 322 249c0 159 -92 249 -247 249h-250z" />
    <glyph glyph-name="Escyrillic" unicode="&#x421;" horiz-adv-x="1290" 
d="M350 761v-164c0 -268 115 -417 318 -417c174 0 287 111 290 269h234v-20c0 -267 -222 -456 -525 -456c-357 0 -561 236 -561 625v163c0 392 204 631 561 631c305 0 525 -194 525 -474v-19h-234c-3 168 -116 286 -290 286c-203 0 -318 -152 -318 -424z" />
    <glyph glyph-name="Tecyrillic" unicode="&#x422;" horiz-adv-x="1087" 
d="M663 0h-240v1160h-396v205h1033v-205h-397v-1160z" />
    <glyph glyph-name="Ucyrillic" unicode="&#x423;" horiz-adv-x="1150" 
d="M900 1365h251l-438 -1000c-116 -263 -230 -378 -435 -378c-59 0 -107 10 -118 13v205c13 -3 52 -10 95 -10c87 0 153 40 214 154l-470 1016h263l324 -751h9z" />
    <glyph glyph-name="Efcyrillic" unicode="&#x424;" horiz-adv-x="1635" 
d="M932 -10h-236v157c-382 11 -599 202 -599 531v17c0 332 219 527 599 541v139h236v-140c386 -9 605 -199 605 -531v-17c0 -334 -221 -529 -605 -541v-156zM335 678c0 -214 129 -327 364 -335v696c-233 -9 -364 -127 -364 -344v-17zM1300 704c0 216 -133 329 -371 335v-697
c237 8 371 126 371 345v17z" />
    <glyph glyph-name="Xacyrillic" unicode="&#x425;" horiz-adv-x="1186" 
d="M1181 1365l-440 -686l433 -679h-280l-306 500h-11l-306 -500h-265l429 688l-425 677h286l301 -506h12l298 506h274z" />
    <glyph glyph-name="Tsecyrillic" unicode="&#x426;" horiz-adv-x="1459" 
d="M1238 204h174v-490h-217v286h-199h-836v1365h242v-1161h594v1161h242v-1161z" />
    <glyph glyph-name="Checyrillic" unicode="&#x427;" horiz-adv-x="1338" 
d="M1177 0h-242v605h-8c-20 -10 -141 -90 -321 -90c-301 0 -474 165 -474 462v388h242v-379c0 -178 93 -269 271 -269c165 0 278 89 290 97v551h242v-1365z" />
    <glyph glyph-name="Shacyrillic" unicode="&#x428;" horiz-adv-x="1926" 
d="M160 0v1365h242v-1161h440v1161h242v-1161h439v1161h242v-1365h-1605z" />
    <glyph glyph-name="Shchacyrillic" unicode="&#x429;" horiz-adv-x="1986" 
d="M1939 -286h-217v286h-1562v1365h242v-1161h440v1161h242v-1161h439v1161h242v-1161h174v-490z" />
    <glyph glyph-name="Hardsigncyrillic" unicode="&#x42a;" horiz-adv-x="1394" 
d="M873 0h-531v1160h-308v205h549v-469h288c284 0 456 -187 456 -445c0 -259 -170 -451 -454 -451zM833 197c155 0 247 92 247 252c0 161 -92 252 -247 252h-252v-504h252z" />
    <glyph glyph-name="Yericyrillic" unicode="&#x42b;" horiz-adv-x="1680" 
d="M1144 451c0 -259 -170 -451 -454 -451h-530v1365h242v-469h287c284 0 455 -187 455 -445zM650 701h-250v-504h250c155 0 247 92 247 252c0 161 -92 252 -247 252zM1519 0h-242v1365h242v-1365z" />
    <glyph glyph-name="Softsigncyrillic" unicode="&#x42c;" horiz-adv-x="1213" 
d="M692 0h-532v1365h242v-469h288c284 0 455 -187 455 -445c0 -259 -169 -451 -453 -451zM652 197c155 0 247 92 247 252c0 161 -92 252 -247 252h-252v-504h252z" />
    <glyph glyph-name="Ereversedcyrillic" unicode="&#x42d;" horiz-adv-x="1297" 
d="M629 -27c-351 0 -531 231 -531 456v7h234c4 -134 100 -256 291 -256s317 122 323 385v34h-516v189h516v7c-7 258 -134 390 -320 390c-191 0 -289 -139 -293 -270h-235v3c0 247 191 474 529 474c348 0 564 -232 564 -623v-179c0 -396 -213 -617 -562 -617z" />
    <glyph glyph-name="IUcyrillic" unicode="&#x42e;" horiz-adv-x="1831" 
d="M1480 585v185c0 276 -135 417 -319 417c-183 0 -317 -141 -317 -417v-185c0 -276 134 -407 317 -407c184 0 319 131 319 407zM402 802h201c12 368 223 590 560 590c349 0 562 -237 562 -624v-182c0 -386 -216 -613 -565 -613c-347 0 -558 227 -558 613v12h-200v-598h-242
v1365h242v-563z" />
    <glyph glyph-name="IAcyrillic" unicode="&#x42f;" horiz-adv-x="1268" 
d="M612 702h256v467h-256c-161 0 -253 -81 -253 -233c0 -153 92 -234 253 -234zM865 509h-227l-298 -509h-268l325 546c-178 50 -284 196 -284 388c0 251 171 431 468 431h526v-1365h-242v509z" />
    <glyph glyph-name="Djecyrillic" unicode="&#x402;" horiz-adv-x="1520" 
d="M672 744c67 52 199 90 306 90c285 0 450 -157 450 -429c0 -252 -170 -419 -426 -419c-54 0 -108 6 -130 14v192c19 -5 60 -8 98 -8c127 0 216 89 216 217c0 153 -86 236 -247 236c-101 0 -216 -41 -275 -97v-540h-242v1160h-395v205h1032v-205h-395v-416h8z" />
    <glyph glyph-name="Gjecyrillic" unicode="&#x403;" horiz-adv-x="1079" 
d="M667 1507h-169l197 286h215zM402 0h-242v1365h849v-203h-607v-1162z" />
    <glyph glyph-name="Ecyrillic" unicode="&#x404;" horiz-adv-x="1297" 
d="M1199 915h-235c-4 131 -102 270 -293 270c-188 0 -316 -134 -322 -397h517v-189h-517v-8c0 -279 128 -411 325 -411c191 0 287 122 290 256h235v-7c0 -225 -180 -456 -531 -456c-349 0 -562 221 -562 617v179c0 391 215 623 563 623c339 0 530 -227 530 -474v-3z" />
    <glyph glyph-name="Dzecyrillic" unicode="&#x405;" horiz-adv-x="1212" 
d="M70 382h235c10 -114 110 -212 299 -212c173 0 273 80 273 204c0 101 -70 154 -214 189l-219 53c-180 41 -339 147 -339 371c0 263 229 408 499 408c275 0 492 -150 496 -401h-230c-9 111 -96 205 -268 205c-152 0 -254 -72 -254 -193c0 -87 63 -148 188 -177l220 -53
c204 -47 363 -144 363 -381c0 -268 -216 -422 -532 -422c-385 0 -513 223 -517 409z" />
    <glyph glyph-name="Icyrillic" unicode="&#x406;" horiz-adv-x="563" 
d="M402 0h-242v1365h242v-1365z" />
    <glyph glyph-name="Yicyrillic" unicode="&#x407;" horiz-adv-x="549" 
d="M395 0h-242v1365h242v-1365zM106 1482c-56 0 -99 44 -99 101c0 60 43 104 99 104c57 0 101 -44 101 -104c0 -57 -44 -101 -101 -101zM440 1482c-56 0 -99 44 -99 101c0 60 43 104 99 104c57 0 101 -44 101 -104c0 -57 -44 -101 -101 -101z" />
    <glyph glyph-name="Jecyrillic" unicode="&#x408;" horiz-adv-x="1054" 
d="M35 367h234c3 -106 69 -178 192 -178c136 0 198 82 198 244v932h242v-934c0 -299 -162 -458 -439 -458c-275 0 -427 177 -427 394z" />
    <glyph glyph-name="Ljecyrillic" unicode="&#x409;" horiz-adv-x="1970" 
d="M500 852c-19 -618 -75 -865 -373 -865c-46 0 -79 9 -85 13v212c6 -3 26 -8 51 -8c145 0 176 198 183 680l7 481h877v-469h288c283 0 455 -187 455 -445c0 -259 -170 -451 -454 -451h-531v1161h-409zM1409 701h-252v-504h252c155 0 247 92 247 252c0 161 -92 252 -247 252
z" />
    <glyph glyph-name="Njecyrillic" unicode="&#x40a;" horiz-adv-x="2062" 
d="M1010 844v521h241v-521h287c285 0 456 -167 456 -419s-170 -425 -454 -425h-530v640h-608v-640h-242v1365h242v-521h608zM1504 649h-255v-452h255c153 0 244 75 244 226c0 153 -91 226 -244 226z" />
    <glyph glyph-name="Tshecyrillic" unicode="&#x40b;" horiz-adv-x="1572" 
d="M672 744c65 51 196 90 303 90c285 0 446 -165 446 -455v-379h-242v369c0 176 -83 266 -244 266c-98 0 -212 -41 -271 -97v-538h-242v1160h-395v205h1032v-205h-395v-416h8z" />
    <glyph glyph-name="Kjecyrillic" unicode="&#x40c;" horiz-adv-x="1256" 
d="M745 1507h-169l197 286h215zM941 0l-529 605h-10v-605h-242v1365h242v-569h10l531 569h285l-607 -649l617 -716h-297z" />
    <glyph glyph-name="Ushortcyrillic" unicode="&#x40e;" horiz-adv-x="1150" 
d="M770 1769h147c0 -163 -113 -287 -331 -287c-217 0 -331 124 -331 287h147c0 -96 59 -161 184 -161s184 65 184 161zM900 1365h251l-438 -1000c-116 -263 -230 -378 -435 -378c-59 0 -107 10 -118 13v205c13 -3 52 -10 95 -10c87 0 153 40 214 154l-470 1016h263l324 -751
h9z" />
    <glyph glyph-name="Dzhecyrillic" unicode="&#x40f;" horiz-adv-x="1402" 
d="M1000 1365h242v-1365h-432v-286h-217v286h-433v1365h242v-1161h598v1161z" />
    <glyph glyph-name="Geupturncyrillic" unicode="&#x490;" horiz-adv-x="1079" 
d="M792 1651h217v-286v-203h-607v-1162h-242v1365h632v286z" />
    <glyph glyph-name="A.sc" horiz-adv-x="1116" 
d="M273 0h-240l384 1087h284l382 -1087h-257l-86 271h-379zM557 871h-11l-137 -431h284z" />
    <glyph glyph-name="Agrave.sc" horiz-adv-x="1116" 
d="M655 1217h-169l-243 285h215zM273 0h-240l384 1087h284l382 -1087h-257l-86 271h-379zM557 871h-11l-137 -431h284z" />
    <glyph glyph-name="Aacute.sc" horiz-adv-x="1116" 
d="M630 1217h-169l197 285h215zM273 0h-240l384 1087h284l382 -1087h-257l-86 271h-379zM557 871h-11l-137 -431h284z" />
    <glyph glyph-name="Adieresis.sc" horiz-adv-x="1116" 
d="M273 0h-240l384 1087h284l382 -1087h-257l-86 271h-379zM557 871h-11l-137 -431h284zM378 1226c-60 0 -106 45 -106 106c0 64 46 110 106 110c62 0 107 -46 107 -110c0 -61 -45 -106 -107 -106zM748 1226c-60 0 -105 45 -105 106c0 64 45 110 105 110
c62 0 109 -46 109 -110c0 -61 -47 -106 -109 -106z" />
    <glyph glyph-name="Adieresismacron.sc" horiz-adv-x="1116" 
d="M273 0h-240l384 1087h284l382 -1087h-257l-86 271h-379zM557 871h-11l-137 -431h284zM380 1226c-60 0 -106 45 -106 106c0 64 46 110 106 110c62 0 107 -46 107 -110c0 -61 -45 -106 -107 -106zM750 1226c-60 0 -105 45 -105 106c0 64 45 110 105 110
c62 0 109 -46 109 -110c0 -61 -47 -106 -109 -106zM844 1577h-572v140h572v-140z" />
    <glyph glyph-name="Aring.sc" horiz-adv-x="1116" 
d="M273 0h-240l384 1087h284l382 -1087h-257l-86 271h-379zM557 871h-11l-137 -431h284zM558 1211c-116 0 -207 85 -207 201s91 201 207 201c117 0 207 -85 207 -201s-91 -201 -207 -201zM462 1412c0 -55 41 -98 96 -98s96 43 96 98s-41 97 -96 97s-96 -42 -96 -97z" />
    <glyph glyph-name="Aringacute.sc" horiz-adv-x="1116" 
d="M655 1672h-175l136 188h218zM556 1211c-116 0 -207 85 -207 201s91 201 207 201c117 0 207 -85 207 -201s-91 -201 -207 -201zM460 1412c0 -55 41 -98 96 -98s96 43 96 98s-41 97 -96 97s-96 -42 -96 -97zM273 0h-240l384 1087h284l382 -1087h-257l-86 271h-379zM557 871
h-11l-137 -431h284z" />
    <glyph glyph-name="Atilde.sc" horiz-adv-x="1116" 
d="M273 0h-240l384 1087h284l382 -1087h-257l-86 271h-379zM557 871h-11l-137 -431h284zM672 1209c-135 0 -173 124 -244 124c-55 0 -65 -69 -65 -103h-141c0 122 68 235 197 235c135 0 175 -125 248 -125c49 0 70 57 72 107h141c0 -117 -75 -238 -208 -238z" />
    <glyph glyph-name="Abrevegrave.sc" horiz-adv-x="1116" 
d="M273 0h-240l384 1087h284l382 -1087h-257l-86 271h-379zM557 871h-11l-137 -431h284zM656 1513h-169l-244 286h215zM254 1503h143c0 -82 49 -161 161 -161c113 0 162 79 162 161h141c-1 -142 -97 -291 -303 -291c-205 0 -304 149 -304 291z" />
    <glyph glyph-name="Adotmacron.sc" horiz-adv-x="1116" 
d="M273 0h-240l384 1087h284l382 -1087h-257l-86 271h-379zM557 871h-11l-137 -431h284zM435 1331c0 69 54 123 120 123c69 0 123 -54 123 -123c0 -68 -54 -120 -123 -120c-66 0 -120 52 -120 120zM844 1577h-572v140h572v-140z" />
    <glyph glyph-name="Aringbelow.sc" horiz-adv-x="1116" 
d="M273 0h-240l384 1087h284l382 -1087h-257l-86 271h-379zM557 871h-11l-137 -431h284zM557 -516c-116 0 -207 85 -207 201s91 201 207 201c117 0 207 -85 207 -201s-91 -201 -207 -201zM461 -315c0 -55 41 -98 96 -98s96 43 96 98s-41 97 -96 97s-96 -42 -96 -97z" />
    <glyph glyph-name="Acircumflex.sc" horiz-adv-x="1116" 
d="M259 1217l223 307h154l224 -307h-183l-115 177h-5l-115 -177h-183zM273 0h-240l384 1087h284l382 -1087h-257l-86 271h-379zM557 871h-11l-137 -431h284z" />
    <glyph glyph-name="Acircumflexdotbelow.sc" horiz-adv-x="1116" 
d="M259 1217l223 307h154l224 -307h-183l-115 177h-5l-115 -177h-183zM273 0h-240l384 1087h284l382 -1087h-257l-86 271h-379zM557 871h-11l-137 -431h284zM451 -264c0 63 48 111 107 111c62 0 109 -48 109 -111c0 -61 -47 -110 -109 -110c-59 0 -107 49 -107 110z" />
    <glyph glyph-name="Acircumflexacute.sc" horiz-adv-x="1116" 
d="M946 1441h-169l197 285h215zM258 1217l223 307h154l224 -307h-183l-115 177h-5l-115 -177h-183zM273 0h-240l384 1087h284l382 -1087h-257l-86 271h-379zM557 871h-11l-137 -431h284z" />
    <glyph glyph-name="Acircumflextilde.sc" horiz-adv-x="1116" 
d="M273 0h-240l384 1087h284l382 -1087h-257l-86 271h-379zM557 871h-11l-137 -431h284zM398 1632h-130c0 113 60 217 179 217c126 0 145 -116 210 -116c41 0 62 51 64 99h130c0 -107 -66 -220 -189 -220c-126 0 -142 116 -207 116c-47 0 -56 -62 -57 -96zM258 1217l223 307
h154l224 -307h-183l-115 177h-5l-115 -177h-183z" />
    <glyph glyph-name="Acircumflexgrave.sc" horiz-adv-x="1116" 
d="M1054 1440h-169l-243 286h215zM258 1217l223 307h154l224 -307h-183l-115 177h-5l-115 -177h-183zM273 0h-240l384 1087h284l382 -1087h-257l-86 271h-379zM557 871h-11l-137 -431h284z" />
    <glyph glyph-name="Acircumflexhookabove.sc" horiz-adv-x="1116" 
d="M698 1665v109c19 10 58 18 104 18c129 0 210 -73 210 -181c0 -96 -64 -156 -153 -193l-67 87c64 28 90 55 90 97c0 45 -41 81 -101 81c-35 0 -67 -10 -83 -18zM258 1217l223 307h154l224 -307h-183l-115 177h-5l-115 -177h-183zM273 0h-240l384 1087h284l382 -1087h-257
l-86 271h-379zM557 871h-11l-137 -431h284z" />
    <glyph glyph-name="Abreve.sc" horiz-adv-x="1116" 
d="M273 0h-240l384 1087h284l382 -1087h-257l-86 271h-379zM557 871h-11l-137 -431h284zM254 1503h143c0 -82 49 -161 161 -161c113 0 162 79 162 161h141c-1 -142 -97 -291 -303 -291c-205 0 -304 149 -304 291z" />
    <glyph glyph-name="Abreveacute.sc" horiz-adv-x="1116" 
d="M273 0h-240l384 1087h284l382 -1087h-257l-86 271h-379zM557 871h-11l-137 -431h284zM625 1513h-169l197 286h215zM254 1503h143c0 -82 49 -161 161 -161c113 0 162 79 162 161h141c-1 -142 -97 -291 -303 -291c-205 0 -304 149 -304 291z" />
    <glyph glyph-name="Abrevetilde.sc" horiz-adv-x="1116" 
d="M273 0h-240l384 1087h284l382 -1087h-257l-86 271h-379zM557 871h-11l-137 -431h284zM398 1632h-130c0 113 60 217 179 217c126 0 145 -116 210 -116c41 0 62 51 64 99h130c0 -107 -66 -220 -189 -220c-126 0 -142 116 -207 116c-47 0 -56 -62 -57 -96zM254 1503h143
c0 -82 49 -161 161 -161c113 0 162 79 162 161h141c-1 -142 -97 -291 -303 -291c-205 0 -304 149 -304 291z" />
    <glyph glyph-name="Abrevehookabove.sc" horiz-adv-x="1116" 
d="M273 0h-240l384 1087h284l382 -1087h-257l-86 271h-379zM557 871h-11l-137 -431h284zM377 1726v110c19 10 58 18 104 18c129 0 210 -74 210 -181c0 -97 -64 -156 -153 -194l-67 87c63 29 89 55 89 97c0 46 -41 81 -101 81c-34 0 -66 -10 -82 -18zM254 1503h143
c0 -82 49 -161 161 -161c113 0 162 79 162 161h141c-1 -142 -97 -291 -303 -291c-205 0 -304 149 -304 291z" />
    <glyph glyph-name="Abrevedotbelow.sc" horiz-adv-x="1116" 
d="M451 -264c0 63 48 111 107 111c62 0 109 -48 109 -111c0 -61 -47 -110 -109 -110c-59 0 -107 49 -107 110zM273 0h-240l384 1087h284l382 -1087h-257l-86 271h-379zM557 871h-11l-137 -431h284zM254 1503h143c0 -82 49 -161 161 -161c113 0 162 79 162 161h141
c-1 -142 -97 -291 -303 -291c-205 0 -304 149 -304 291z" />
    <glyph glyph-name="Ainvertedbreve.sc" horiz-adv-x="1116" 
d="M273 0h-240l384 1087h284l382 -1087h-257l-86 271h-379zM557 871h-11l-137 -431h284zM250 1240c-1 146 100 296 308 296s306 -151 307 -296h-144c0 84 -49 164 -163 164s-163 -80 -163 -164h-145z" />
    <glyph glyph-name="Acaron.sc" horiz-adv-x="1116" 
d="M255 1524h183l116 -177h4l116 177h183l-224 -307h-154zM273 0h-240l384 1087h284l382 -1087h-257l-86 271h-379zM557 871h-11l-137 -431h284z" />
    <glyph glyph-name="Adotaccent.sc" horiz-adv-x="1116" 
d="M436 1341c0 69 54 123 120 123c69 0 123 -54 123 -123c0 -68 -54 -120 -123 -120c-66 0 -120 52 -120 120zM273 0h-240l384 1087h284l382 -1087h-257l-86 271h-379zM557 871h-11l-137 -431h284z" />
    <glyph glyph-name="Adotbelow.sc" horiz-adv-x="1116" 
d="M450 -264c0 63 48 111 107 111c62 0 109 -48 109 -111c0 -61 -47 -110 -109 -110c-59 0 -107 49 -107 110zM273 0h-240l384 1087h284l382 -1087h-257l-86 271h-379zM557 871h-11l-137 -431h284z" />
    <glyph glyph-name="Ahookabove.sc" horiz-adv-x="1116" 
d="M273 0h-240l384 1087h284l382 -1087h-257l-86 271h-379zM557 871h-11l-137 -431h284zM413 1448v111c21 10 60 18 108 18c130 0 213 -76 213 -185c0 -99 -65 -157 -156 -197l-69 89c65 28 91 56 91 98c0 46 -41 84 -103 84c-34 0 -66 -10 -84 -18z" />
    <glyph glyph-name="Adblgrave.sc" horiz-adv-x="1116" 
d="M273 0h-240l384 1087h284l382 -1087h-257l-86 271h-379zM557 871h-11l-137 -431h284zM337 1217l-237 286h187l197 -286h-147zM651 1217l-237 286h187l196 -286h-146z" />
    <glyph glyph-name="Amacron.sc" horiz-adv-x="1116" 
d="M273 0h-240l384 1087h284l382 -1087h-257l-86 271h-379zM557 871h-11l-137 -431h284zM843 1261h-572v140h572v-140z" />
    <glyph glyph-name="Aogonek.sc" horiz-adv-x="1116" 
d="M1100 -375c-20 -9 -74 -20 -137 -20c-121 0 -240 60 -240 196c0 112 76 176 134 215v7h-39l-78 248h-379l-88 -271h-240l384 1087h284l374 -1062c-81 -32 -166 -87 -170 -167c-3 -66 45 -104 117 -104c23 0 59 3 78 8v-137zM557 871h-11l-137 -431h284z" />
    <glyph glyph-name="B.sc" horiz-adv-x="1112" 
d="M142 0v1087h488c205 0 345 -99 345 -268c0 -139 -91 -215 -200 -238v-9c140 -13 258 -103 258 -265c0 -200 -177 -307 -401 -307h-490zM380 917v-277h147c143 0 212 48 212 140s-68 137 -166 137h-193zM380 481v-311h165c149 0 244 39 244 153c0 102 -76 158 -201 158
h-208z" />
    <glyph glyph-name="Blinebelow.sc" horiz-adv-x="1112" 
d="M814 -348h-572v140h572v-140zM142 0v1087h488c205 0 345 -99 345 -268c0 -139 -91 -215 -200 -238v-9c140 -13 258 -103 258 -265c0 -200 -177 -307 -401 -307h-490zM380 917v-277h147c143 0 212 48 212 140s-68 137 -166 137h-193zM380 481v-311h165
c149 0 244 39 244 153c0 102 -76 158 -201 158h-208z" />
    <glyph glyph-name="Bdotbelow.sc" horiz-adv-x="1112" 
d="M422 -264c0 63 48 111 107 111c62 0 109 -48 109 -111c0 -61 -47 -110 -109 -110c-59 0 -107 49 -107 110zM142 0v1087h488c205 0 345 -99 345 -268c0 -139 -91 -215 -200 -238v-9c140 -13 258 -103 258 -265c0 -200 -177 -307 -401 -307h-490zM380 917v-277h147
c143 0 212 48 212 140s-68 137 -166 137h-193zM380 481v-311h165c149 0 244 39 244 153c0 102 -76 158 -201 158h-208z" />
    <glyph glyph-name="Bdotaccent.sc" horiz-adv-x="1112" 
d="M406 1341c0 69 54 123 120 123c69 0 123 -54 123 -123c0 -68 -54 -120 -123 -120c-66 0 -120 52 -120 120zM142 0v1087h488c205 0 345 -99 345 -268c0 -139 -91 -215 -200 -238v-9c140 -13 258 -103 258 -265c0 -200 -177 -307 -401 -307h-490zM380 917v-277h147
c143 0 212 48 212 140s-68 137 -166 137h-193zM380 481v-311h165c149 0 244 39 244 153c0 102 -76 158 -201 158h-208z" />
    <glyph glyph-name="C.sc" horiz-adv-x="1130" 
d="M339 606v-130c0 -206 96 -305 247 -305c147 0 223 93 223 206h231v-23c0 -197 -165 -374 -459 -374c-305 0 -486 182 -486 496v131c0 312 183 500 487 500c286 0 458 -175 458 -385v-23h-231c0 111 -77 217 -225 217s-245 -106 -245 -310z" />
    <glyph glyph-name="Cacute.sc" horiz-adv-x="1130" 
d="M648 1217h-169l197 285h215zM339 606v-130c0 -206 96 -305 247 -305c147 0 223 93 223 206h231v-23c0 -197 -165 -374 -459 -374c-305 0 -486 182 -486 496v131c0 312 183 500 487 500c286 0 458 -175 458 -385v-23h-231c0 111 -77 217 -225 217s-245 -106 -245 -310z
" />
    <glyph glyph-name="Ccaron.sc" horiz-adv-x="1130" 
d="M275 1524h183l116 -177h4l116 177h183l-224 -307h-154zM339 606v-130c0 -206 96 -305 247 -305c147 0 223 93 223 206h231v-23c0 -197 -165 -374 -459 -374c-305 0 -486 182 -486 496v131c0 312 183 500 487 500c286 0 458 -175 458 -385v-23h-231
c0 111 -77 217 -225 217s-245 -106 -245 -310z" />
    <glyph glyph-name="Ccircumflex.sc" horiz-adv-x="1130" 
d="M276 1217l223 307h154l224 -307h-183l-115 177h-5l-115 -177h-183zM339 606v-130c0 -206 96 -305 247 -305c147 0 223 93 223 206h231v-23c0 -197 -165 -374 -459 -374c-305 0 -486 182 -486 496v131c0 312 183 500 487 500c286 0 458 -175 458 -385v-23h-231
c0 111 -77 217 -225 217s-245 -106 -245 -310z" />
    <glyph glyph-name="Cdotaccent.sc" horiz-adv-x="1130" 
d="M454 1341c0 69 54 123 120 123c69 0 123 -54 123 -123c0 -68 -54 -120 -123 -120c-66 0 -120 52 -120 120zM339 606v-130c0 -206 96 -305 247 -305c147 0 223 93 223 206h231v-23c0 -197 -165 -374 -459 -374c-305 0 -486 182 -486 496v131c0 312 183 500 487 500
c286 0 458 -175 458 -385v-23h-231c0 111 -77 217 -225 217s-245 -106 -245 -310z" />
    <glyph glyph-name="Ccedilla.sc" horiz-adv-x="1130" 
d="M576 -469c-65 -3 -122 7 -148 15v117c27 -8 79 -14 113 -14c53 0 113 14 113 68c0 57 -50 62 -130 62h-54v94l42 110c-263 26 -417 204 -417 493v131c0 312 183 500 487 500c286 0 458 -175 458 -385v-23h-231c0 111 -77 217 -225 217s-245 -106 -245 -310v-130
c0 -206 96 -305 247 -305c147 0 223 93 223 206h231v-23c0 -177 -135 -343 -384 -371l-36 -94c121 0 193 -58 193 -165c0 -132 -101 -189 -237 -193z" />
    <glyph glyph-name="Ccedillaacute.sc" horiz-adv-x="1130" 
d="M576 -469c-65 -3 -122 7 -148 15v117c27 -8 79 -14 113 -14c53 0 113 14 113 68c0 57 -50 62 -130 62h-54v94l42 110c-263 26 -417 204 -417 493v131c0 312 183 500 487 500c286 0 458 -175 458 -385v-23h-231c0 111 -77 217 -225 217s-245 -106 -245 -310v-130
c0 -206 96 -305 247 -305c147 0 223 93 223 206h231v-23c0 -177 -135 -343 -384 -371l-36 -94c121 0 193 -58 193 -165c0 -132 -101 -189 -237 -193zM648 1217h-169l197 285h215z" />
    <glyph glyph-name="D.sc" horiz-adv-x="1172" 
d="M142 1087h429c373 0 517 -221 517 -541c0 -319 -143 -546 -517 -546h-429v1087zM382 902v-718h155c192 0 305 92 305 358c0 204 -70 360 -305 360h-155z" />
    <glyph glyph-name="Ddotaccent.sc" horiz-adv-x="1172" 
d="M142 1087h429c373 0 517 -221 517 -541c0 -319 -143 -546 -517 -546h-429v1087zM382 902v-718h155c192 0 305 92 305 358c0 204 -70 360 -305 360h-155zM416 1341c0 69 54 123 120 123c69 0 123 -54 123 -123c0 -68 -54 -120 -123 -120c-66 0 -120 52 -120 120z" />
    <glyph glyph-name="Dcircumflexbelow.sc" horiz-adv-x="1172" 
d="M142 1087h429c373 0 517 -221 517 -541c0 -319 -143 -546 -517 -546h-429v1087zM382 902v-718h155c192 0 305 92 305 358c0 204 -70 360 -305 360h-155zM241 -396l219 281h156l219 -281h-179l-115 167h-6l-115 -167h-179z" />
    <glyph glyph-name="Dcommaaccent.sc" horiz-adv-x="1172" 
d="M142 1087h429c373 0 517 -221 517 -541c0 -319 -143 -546 -517 -546h-429v1087zM382 902v-718h155c192 0 305 92 305 358c0 204 -70 360 -305 360h-155zM531 -489h-166l85 335h195z" />
    <glyph glyph-name="Dlinebelow.sc" horiz-adv-x="1172" 
d="M142 1087h429c373 0 517 -221 517 -541c0 -319 -143 -546 -517 -546h-429v1087zM382 902v-718h155c192 0 305 92 305 358c0 204 -70 360 -305 360h-155zM824 -348h-572v140h572v-140z" />
    <glyph glyph-name="Dcaron.sc" horiz-adv-x="1172" 
d="M142 1087h429c373 0 517 -221 517 -541c0 -319 -143 -546 -517 -546h-429v1087zM382 902v-718h155c192 0 305 92 305 358c0 204 -70 360 -305 360h-155zM237 1524h183l116 -177h4l116 177h183l-224 -307h-154z" />
    <glyph glyph-name="Ddotbelow.sc" horiz-adv-x="1172" 
d="M142 1087h429c373 0 517 -221 517 -541c0 -319 -143 -546 -517 -546h-429v1087zM382 902v-718h155c192 0 305 92 305 358c0 204 -70 360 -305 360h-155zM432 -264c0 63 48 111 107 111c62 0 109 -48 109 -111c0 -61 -47 -110 -109 -110c-59 0 -107 49 -107 110z" />
    <glyph glyph-name="Dcroat.sc" horiz-adv-x="1247" 
d="M647 0h-429v462h-140v178h140v447h429c372 0 517 -221 517 -541c0 -319 -144 -546 -517 -546zM457 188h155c190 0 304 92 304 358c0 204 -70 360 -304 360h-155v-276h205v-159h-205v-283z" />
    <glyph glyph-name="E.sc" horiz-adv-x="1000" 
d="M893 184v-184h-751v1087h751v-184h-513v-267h482v-174h-482v-278h513z" />
    <glyph glyph-name="Egrave.sc" horiz-adv-x="1000" 
d="M610 1217h-169l-243 285h215zM893 184v-184h-751v1087h751v-184h-513v-267h482v-174h-482v-278h513z" />
    <glyph glyph-name="Edblgrave.sc" horiz-adv-x="1000" 
d="M292 1217l-237 286h187l197 -286h-147zM606 1217l-237 286h187l196 -286h-146zM893 184v-184h-751v1087h751v-184h-513v-267h482v-174h-482v-278h513z" />
    <glyph glyph-name="Eacute.sc" horiz-adv-x="1000" 
d="M585 1217h-169l197 285h215zM893 184v-184h-751v1087h751v-184h-513v-267h482v-174h-482v-278h513z" />
    <glyph glyph-name="Ecircumflex.sc" horiz-adv-x="1000" 
d="M213 1217l223 307h154l224 -307h-183l-115 177h-5l-115 -177h-183zM893 184v-184h-751v1087h751v-184h-513v-267h482v-174h-482v-278h513z" />
    <glyph glyph-name="Ecircumflexhookabove.sc" horiz-adv-x="1000" 
d="M653 1665v109c19 10 58 18 104 18c129 0 210 -73 210 -181c0 -96 -64 -156 -153 -193l-67 87c64 28 90 55 90 97c0 45 -41 81 -101 81c-35 0 -67 -10 -83 -18zM213 1217l223 307h154l224 -307h-183l-115 177h-5l-115 -177h-183zM893 184v-184h-751v1087h751v-184h-513
v-267h482v-174h-482v-278h513z" />
    <glyph glyph-name="Ecircumflexgrave.sc" horiz-adv-x="1000" 
d="M1009 1440h-169l-243 286h215zM213 1217l223 307h154l224 -307h-183l-115 177h-5l-115 -177h-183zM893 184v-184h-751v1087h751v-184h-513v-267h482v-174h-482v-278h513z" />
    <glyph glyph-name="Ecircumflextilde.sc" horiz-adv-x="1000" 
d="M353 1632h-130c0 113 60 217 179 217c126 0 145 -116 210 -116c41 0 62 51 64 99h130c0 -107 -66 -220 -189 -220c-126 0 -142 116 -207 116c-47 0 -56 -62 -57 -96zM213 1217l223 307h154l224 -307h-183l-115 177h-5l-115 -177h-183zM893 184v-184h-751v1087h751v-184
h-513v-267h482v-174h-482v-278h513z" />
    <glyph glyph-name="Ecircumflexdotbelow.sc" horiz-adv-x="1000" 
d="M213 1217l223 307h154l224 -307h-183l-115 177h-5l-115 -177h-183zM893 184v-184h-751v1087h751v-184h-513v-267h482v-174h-482v-278h513zM407 -264c0 63 48 111 107 111c62 0 109 -48 109 -111c0 -61 -47 -110 -109 -110c-59 0 -107 49 -107 110z" />
    <glyph glyph-name="Ecircumflexacute.sc" horiz-adv-x="1000" 
d="M901 1441h-169l197 285h215zM213 1217l223 307h154l224 -307h-183l-115 177h-5l-115 -177h-183zM893 184v-184h-751v1087h751v-184h-513v-267h482v-174h-482v-278h513z" />
    <glyph glyph-name="Edieresis.sc" horiz-adv-x="1000" 
d="M335 1226c-60 0 -106 45 -106 106c0 64 46 110 106 110c62 0 107 -46 107 -110c0 -61 -45 -106 -107 -106zM705 1226c-60 0 -105 45 -105 106c0 64 45 110 105 110c62 0 109 -46 109 -110c0 -61 -47 -106 -109 -106zM893 184v-184h-751v1087h751v-184h-513v-267h482v-174
h-482v-278h513z" />
    <glyph glyph-name="Edotbelow.sc" horiz-adv-x="1000" 
d="M407 -264c0 63 48 111 107 111c62 0 109 -48 109 -111c0 -61 -47 -110 -109 -110c-59 0 -107 49 -107 110zM893 184v-184h-751v1087h751v-184h-513v-267h482v-174h-482v-278h513z" />
    <glyph glyph-name="Einvertedbreve.sc" horiz-adv-x="1000" 
d="M893 184v-184h-751v1087h751v-184h-513v-267h482v-174h-482v-278h513zM205 1240c-1 146 100 296 308 296s306 -151 307 -296h-144c0 84 -49 164 -163 164s-163 -80 -163 -164h-145z" />
    <glyph glyph-name="Ehookabove.sc" horiz-adv-x="1000" 
d="M368 1448v111c21 10 60 18 108 18c130 0 213 -76 213 -185c0 -99 -65 -157 -156 -197l-69 89c65 28 91 56 91 98c0 46 -41 84 -103 84c-34 0 -66 -10 -84 -18zM893 184v-184h-751v1087h751v-184h-513v-267h482v-174h-482v-278h513z" />
    <glyph glyph-name="Ecaron.sc" horiz-adv-x="1000" 
d="M212 1524h183l116 -177h4l116 177h183l-224 -307h-154zM893 184v-184h-751v1087h751v-184h-513v-267h482v-174h-482v-278h513z" />
    <glyph glyph-name="Emacron.sc" horiz-adv-x="1000" 
d="M799 1261h-572v140h572v-140zM893 184v-184h-751v1087h751v-184h-513v-267h482v-174h-482v-278h513z" />
    <glyph glyph-name="Emacrongrave.sc" horiz-adv-x="1000" 
d="M893 184v-184h-751v1087h751v-184h-513v-267h482v-174h-482v-278h513zM610 1539h-169l-243 285h215zM799 1261h-572v140h572v-140z" />
    <glyph glyph-name="Emacronacute.sc" horiz-adv-x="1000" 
d="M589 1541h-169l197 285h215zM799 1261h-572v140h572v-140zM893 184v-184h-751v1087h751v-184h-513v-267h482v-174h-482v-278h513z" />
    <glyph glyph-name="Etilde.sc" horiz-adv-x="1000" 
d="M627 1209c-135 0 -173 124 -244 124c-55 0 -65 -69 -65 -103h-141c0 122 68 235 197 235c135 0 175 -125 248 -125c49 0 70 57 72 107h141c0 -117 -75 -238 -208 -238zM893 184v-184h-751v1087h751v-184h-513v-267h482v-174h-482v-278h513z" />
    <glyph glyph-name="Ecircumflexbelow.sc" horiz-adv-x="1000" 
d="M893 184v-184h-751v1087h751v-184h-513v-267h482v-174h-482v-278h513zM216 -396l219 281h156l219 -281h-179l-115 167h-6l-115 -167h-179z" />
    <glyph glyph-name="Ebreve.sc" horiz-adv-x="1000" 
d="M209 1503h143c0 -82 49 -161 161 -161c113 0 162 79 162 161h141c-1 -142 -97 -291 -303 -291c-205 0 -304 149 -304 291zM893 184v-184h-751v1087h751v-184h-513v-267h482v-174h-482v-278h513z" />
    <glyph glyph-name="Etildebelow.sc" horiz-adv-x="1000" 
d="M630 -378c-130 0 -168 120 -235 120c-50 0 -60 -64 -60 -98h-136c0 117 63 225 187 225c130 0 171 -120 239 -120c44 0 64 52 67 103h136c0 -113 -70 -230 -198 -230zM893 184v-184h-751v1087h751v-184h-513v-267h482v-174h-482v-278h513z" />
    <glyph glyph-name="Edotaccent.sc" horiz-adv-x="1000" 
d="M391 1341c0 69 54 123 120 123c69 0 123 -54 123 -123c0 -68 -54 -120 -123 -120c-66 0 -120 52 -120 120zM893 184v-184h-751v1087h751v-184h-513v-267h482v-174h-482v-278h513z" />
    <glyph glyph-name="Ecedilla.sc" horiz-adv-x="1000" 
d="M503 -484c-65 -2 -122 8 -148 15v117c27 -8 79 -13 113 -13c53 0 113 13 113 67c0 58 -57 63 -137 63h-54v94l53 141h-301v1087h751v-186h-513v-266h482v-172h-482v-278h513v-185h-306l-47 -125c121 0 200 -59 200 -166c0 -132 -101 -189 -237 -193z" />
    <glyph glyph-name="Ecedillabreve.sc" horiz-adv-x="1000" 
d="M503 -484c-65 -2 -122 8 -148 15v117c27 -8 79 -13 113 -13c53 0 113 13 113 67c0 58 -57 63 -137 63h-54v94l53 141h-301v1087h751v-186h-513v-266h482v-172h-482v-278h513v-185h-306l-47 -125c121 0 200 -59 200 -166c0 -132 -101 -189 -237 -193zM209 1503h143
c0 -82 49 -161 161 -161c113 0 162 79 162 161h141c-1 -142 -97 -291 -303 -291c-205 0 -304 149 -304 291z" />
    <glyph glyph-name="Eogonek.sc" horiz-adv-x="1000" 
d="M763 -388c-127 0 -238 60 -238 197c0 81 48 144 113 185v6h-496v1087h751v-186h-513v-266h482v-172h-482v-278h513v-149c-99 -24 -194 -87 -194 -177c0 -63 47 -97 118 -97c24 0 59 3 77 8v-138c-29 -10 -82 -20 -131 -20z" />
    <glyph glyph-name="F.sc" horiz-adv-x="952" 
d="M382 0h-240v1087h744v-188h-504v-291h459v-182h-459v-426z" />
    <glyph glyph-name="Fdotaccent.sc" horiz-adv-x="952" 
d="M382 0h-240v1087h744v-188h-504v-291h459v-182h-459v-426zM374 1341c0 69 54 123 120 123c69 0 123 -54 123 -123c0 -68 -54 -120 -123 -120c-66 0 -120 52 -120 120z" />
    <glyph glyph-name="G.sc" horiz-adv-x="1151" 
d="M1053 735h-233c-15 115 -108 182 -230 182c-146 0 -253 -96 -253 -304v-134c0 -180 73 -310 255 -310c144 0 235 85 235 190v61h-229v169h457v-215c0 -175 -121 -394 -466 -394c-342 0 -494 213 -494 499v136c0 298 185 492 498 492c303 0 453 -183 460 -372z" />
    <glyph glyph-name="Gacute.sc" horiz-adv-x="1151" 
d="M1053 735h-233c-15 115 -108 182 -230 182c-146 0 -253 -96 -253 -304v-134c0 -180 73 -310 255 -310c144 0 235 85 235 190v61h-229v169h457v-215c0 -175 -121 -394 -466 -394c-342 0 -494 213 -494 499v136c0 298 185 492 498 492c303 0 453 -183 460 -372zM658 1217
h-169l197 285h215z" />
    <glyph glyph-name="Gcaron.sc" horiz-adv-x="1151" 
d="M1053 735h-233c-15 115 -108 182 -230 182c-146 0 -253 -96 -253 -304v-134c0 -180 73 -310 255 -310c144 0 235 85 235 190v61h-229v169h457v-215c0 -175 -121 -394 -466 -394c-342 0 -494 213 -494 499v136c0 298 185 492 498 492c303 0 453 -183 460 -372zM285 1524
h183l116 -177h4l116 177h183l-224 -307h-154z" />
    <glyph glyph-name="Gcircumflex.sc" horiz-adv-x="1151" 
d="M1053 735h-233c-15 115 -108 182 -230 182c-146 0 -253 -96 -253 -304v-134c0 -180 73 -310 255 -310c144 0 235 85 235 190v61h-229v169h457v-215c0 -175 -121 -394 -466 -394c-342 0 -494 213 -494 499v136c0 298 185 492 498 492c303 0 453 -183 460 -372zM286 1217
l223 307h154l224 -307h-183l-115 177h-5l-115 -177h-183z" />
    <glyph glyph-name="Gbreve.sc" horiz-adv-x="1151" 
d="M1053 735h-233c-15 115 -108 182 -230 182c-146 0 -253 -96 -253 -304v-134c0 -180 73 -310 255 -310c144 0 235 85 235 190v61h-229v169h457v-215c0 -175 -121 -394 -466 -394c-342 0 -494 213 -494 499v136c0 298 185 492 498 492c303 0 453 -183 460 -372zM282 1503
h143c0 -82 49 -161 161 -161c113 0 162 79 162 161h141c-1 -142 -97 -291 -303 -291c-205 0 -304 149 -304 291z" />
    <glyph glyph-name="Gmacron.sc" horiz-adv-x="1151" 
d="M1053 735h-233c-15 115 -108 182 -230 182c-146 0 -253 -96 -253 -304v-134c0 -180 73 -310 255 -310c144 0 235 85 235 190v61h-229v169h457v-215c0 -175 -121 -394 -466 -394c-342 0 -494 213 -494 499v136c0 298 185 492 498 492c303 0 453 -183 460 -372zM872 1261
h-572v140h572v-140z" />
    <glyph glyph-name="Gdotaccent.sc" horiz-adv-x="1151" 
d="M1053 735h-233c-15 115 -108 182 -230 182c-146 0 -253 -96 -253 -304v-134c0 -180 73 -310 255 -310c144 0 235 85 235 190v61h-229v169h457v-215c0 -175 -121 -394 -466 -394c-342 0 -494 213 -494 499v136c0 298 185 492 498 492c303 0 453 -183 460 -372zM464 1341
c0 69 54 123 120 123c69 0 123 -54 123 -123c0 -68 -54 -120 -123 -120c-66 0 -120 52 -120 120z" />
    <glyph glyph-name="Gcommaaccent.sc" horiz-adv-x="1151" 
d="M1053 735h-233c-15 115 -108 182 -230 182c-146 0 -253 -96 -253 -304v-134c0 -180 73 -310 255 -310c144 0 235 85 235 190v61h-229v169h457v-215c0 -175 -121 -394 -466 -394c-342 0 -494 213 -494 499v136c0 298 185 492 498 492c303 0 453 -183 460 -372zM576 -489
h-166l85 335h195z" />
    <glyph glyph-name="H.sc" horiz-adv-x="1236" 
d="M1094 0h-241v460h-471v-460h-240v1087h240v-439h471v439h241v-1087z" />
    <glyph glyph-name="Hdieresis.sc" horiz-adv-x="1236" 
d="M1094 0h-241v460h-471v-460h-240v1087h240v-439h471v439h241v-1087zM438 1226c-60 0 -106 45 -106 106c0 64 46 110 106 110c62 0 107 -46 107 -110c0 -61 -45 -106 -107 -106zM808 1226c-60 0 -105 45 -105 106c0 64 45 110 105 110c62 0 109 -46 109 -110
c0 -61 -47 -106 -109 -106z" />
    <glyph glyph-name="Hcaron.sc" horiz-adv-x="1236" 
d="M315 1524h183l116 -177h4l116 177h183l-224 -307h-154zM1094 0h-241v460h-471v-460h-240v1087h240v-439h471v439h241v-1087z" />
    <glyph glyph-name="Hcircumflex.sc" horiz-adv-x="1236" 
d="M319 1217l223 307h154l224 -307h-183l-115 177h-5l-115 -177h-183zM1094 0h-241v460h-471v-460h-240v1087h240v-439h471v439h241v-1087z" />
    <glyph glyph-name="Hdotbelow.sc" horiz-adv-x="1236" 
d="M509 -264c0 63 48 111 107 111c62 0 109 -48 109 -111c0 -61 -47 -110 -109 -110c-59 0 -107 49 -107 110zM1094 0h-241v460h-471v-460h-240v1087h240v-439h471v439h241v-1087z" />
    <glyph glyph-name="Hdotaccent.sc" horiz-adv-x="1236" 
d="M496 1341c0 69 54 123 120 123c69 0 123 -54 123 -123c0 -68 -54 -120 -123 -120c-66 0 -120 52 -120 120zM1094 0h-241v460h-471v-460h-240v1087h240v-439h471v439h241v-1087z" />
    <glyph glyph-name="Hbrevebelow.sc" horiz-adv-x="1236" 
d="M1094 0h-241v460h-471v-460h-240v1087h240v-439h471v439h241v-1087zM786 -133h145c0 -146 -96 -296 -314 -296s-321 147 -321 296h152c0 -84 52 -164 169 -164s169 80 169 164z" />
    <glyph glyph-name="Hcedilla.sc" horiz-adv-x="1236" 
d="M298 -484c-65 -2 -122 8 -148 15v117c27 -8 79 -13 113 -13c53 0 113 13 113 67c0 58 -57 63 -137 63h-54v94l53 141h-96v1087h240v-439h471v439h241v-1087h-241v460h-471v-460l-47 -125c121 0 200 -59 200 -166c0 -132 -102 -189 -237 -193z" />
    <glyph glyph-name="Hbar.sc" horiz-adv-x="1235" 
d="M382 633h471v159h-471v-159zM382 445v-445h-240v792h-77v140h77v155h240v-155h471v155h241v-155h76v-140h-76v-792h-241v445h-471z" />
    <glyph glyph-name="I.sc" horiz-adv-x="524" 
d="M382 0h-240v1087h240v-1087z" />
    <glyph glyph-name="Idotaccent.sc" horiz-adv-x="524" 
d="M140 1341c0 69 54 123 120 123c69 0 123 -54 123 -123c0 -68 -54 -120 -123 -120c-66 0 -120 52 -120 120zM382 0h-240v1087h240v-1087z" />
    <glyph glyph-name="Igrave.sc" horiz-adv-x="524" 
d="M359 1217h-169l-243 285h215zM382 0h-240v1087h240v-1087z" />
    <glyph glyph-name="Idblgrave.sc" horiz-adv-x="524" 
d="M382 0h-240v1087h240v-1087zM41 1217l-237 286h187l197 -286h-147zM355 1217l-237 286h187l196 -286h-146z" />
    <glyph glyph-name="Iacute.sc" horiz-adv-x="524" 
d="M334 1217h-169l197 285h215zM382 0h-240v1087h240v-1087z" />
    <glyph glyph-name="Icircumflex.sc" horiz-adv-x="524" 
d="M-38 1217l223 307h154l224 -307h-183l-115 177h-5l-115 -177h-183zM382 0h-240v1087h240v-1087z" />
    <glyph glyph-name="Icaron.sc" horiz-adv-x="524" 
d="M-39 1524h183l116 -177h4l116 177h183l-224 -307h-154zM382 0h-240v1087h240v-1087z" />
    <glyph glyph-name="Idieresis.sc" horiz-adv-x="524" 
d="M381 0h-240v1087h240v-1087zM84 1226c-60 0 -106 45 -106 106c0 64 46 110 106 110c62 0 107 -46 107 -110c0 -61 -45 -106 -107 -106zM454 1226c-60 0 -105 45 -105 106c0 64 45 110 105 110c62 0 109 -46 109 -110c0 -61 -47 -106 -109 -106z" />
    <glyph glyph-name="Idieresisacute.sc" horiz-adv-x="524" 
d="M338 1541h-169l197 285h215zM84 1226c-60 0 -106 45 -106 106c0 64 46 110 106 110c62 0 107 -46 107 -110c0 -61 -45 -106 -107 -106zM454 1226c-60 0 -105 45 -105 106c0 64 45 110 105 110c62 0 109 -46 109 -110c0 -61 -47 -106 -109 -106zM382 0h-240v1087h240
v-1087z" />
    <glyph glyph-name="Ibreve.sc" horiz-adv-x="524" 
d="M382 0h-240v1087h240v-1087zM-42 1503h143c0 -82 49 -161 161 -161c113 0 162 79 162 161h141c-1 -142 -97 -291 -303 -291c-205 0 -304 149 -304 291z" />
    <glyph glyph-name="Idotbelow.sc" horiz-adv-x="524" 
d="M156 -264c0 63 48 111 107 111c62 0 109 -48 109 -111c0 -61 -47 -110 -109 -110c-59 0 -107 49 -107 110zM383 0h-240v1087h240v-1087z" />
    <glyph glyph-name="Iinvertedbreve.sc" horiz-adv-x="524" 
d="M382 0h-240v1087h240v-1087zM-46 1240c-1 146 100 296 308 296s306 -151 307 -296h-144c0 84 -49 164 -163 164s-163 -80 -163 -164h-145z" />
    <glyph glyph-name="Imacron.sc" horiz-adv-x="524" 
d="M381 0h-240v1087h240v-1087zM548 1261h-572v140h572v-140z" />
    <glyph glyph-name="Itildebelow.sc" horiz-adv-x="524" 
d="M378 -378c-130 0 -168 120 -235 120c-50 0 -60 -64 -60 -98h-136c0 117 63 225 187 225c130 0 171 -120 239 -120c44 0 64 52 67 103h136c0 -113 -70 -230 -198 -230zM382 0h-240v1087h240v-1087z" />
    <glyph glyph-name="Ihookabove.sc" horiz-adv-x="524" 
d="M382 0h-240v1087h240v-1087zM117 1448v111c21 10 60 18 108 18c130 0 213 -76 213 -185c0 -99 -65 -157 -156 -197l-69 89c65 28 91 56 91 98c0 46 -41 84 -103 84c-34 0 -66 -10 -84 -18z" />
    <glyph glyph-name="Itilde.sc" horiz-adv-x="524" 
d="M382 0h-240v1087h240v-1087zM376 1209c-135 0 -173 124 -244 124c-55 0 -65 -69 -65 -103h-141c0 122 68 235 197 235c135 0 175 -125 248 -125c49 0 70 57 72 107h141c0 -117 -75 -238 -208 -238z" />
    <glyph glyph-name="Iogonek.sc" horiz-adv-x="524" 
d="M414 -366c-18 -9 -69 -22 -127 -22c-145 0 -237 79 -237 200c0 108 62 163 118 207v5h-26v1063h240v-1060c-100 -37 -153 -95 -153 -169c0 -61 51 -97 115 -97c21 0 51 3 70 9v-136z" />
    <glyph glyph-name="J.sc" horiz-adv-x="955" 
d="M43 320h231c3 -86 66 -138 150 -138c99 0 156 52 156 165v740h241v-735c0 -252 -157 -372 -395 -372c-256 0 -383 158 -383 340z" />
    <glyph glyph-name="Jcircumflex.sc" horiz-adv-x="955" 
d="M402 1217l223 307h154l224 -307h-183l-115 177h-5l-115 -177h-183zM43 320h231c3 -86 66 -138 150 -138c99 0 156 52 156 165v740h241v-735c0 -252 -157 -372 -395 -372c-256 0 -383 158 -383 340z" />
    <glyph glyph-name="K.sc" horiz-adv-x="1116" 
d="M1083 1087l-409 -469l426 -618h-287l-316 465l-115 -122v-343h-240v1087h240v-480h11l428 480h262z" />
    <glyph glyph-name="Kacute.sc" horiz-adv-x="1116" 
d="M628 1217h-169l197 285h215zM1083 1087l-409 -469l426 -618h-287l-316 465l-115 -122v-343h-240v1087h240v-480h11l428 480h262z" />
    <glyph glyph-name="Kcaron.sc" horiz-adv-x="1116" 
d="M255 1524h183l116 -177h4l116 177h183l-224 -307h-154zM1083 1087l-409 -469l426 -618h-287l-316 465l-115 -122v-343h-240v1087h240v-480h11l428 480h262z" />
    <glyph glyph-name="Kdotbelow.sc" horiz-adv-x="1116" 
d="M451 -264c0 63 48 111 107 111c62 0 109 -48 109 -111c0 -61 -47 -110 -109 -110c-59 0 -107 49 -107 110zM1083 1087l-409 -469l426 -618h-287l-316 465l-115 -122v-343h-240v1087h240v-480h11l428 480h262z" />
    <glyph glyph-name="Klinebelow.sc" horiz-adv-x="1116" 
d="M843 -348h-572v140h572v-140zM1083 1087l-409 -469l426 -618h-287l-316 465l-115 -122v-343h-240v1087h240v-480h11l428 480h262z" />
    <glyph glyph-name="Kcommaaccent.sc" horiz-adv-x="1116" 
d="M550 -489h-166l85 335h195zM1083 1087l-409 -469l426 -618h-287l-316 465l-115 -122v-343h-240v1087h240v-480h11l428 480h262z" />
    <glyph glyph-name="L.sc" horiz-adv-x="908" 
d="M866 191v-191h-724v1087h240v-896h484z" />
    <glyph glyph-name="Lacute.sc" horiz-adv-x="908" 
d="M866 191v-191h-724v1087h240v-896h484zM336 1217h-169l197 285h215z" />
    <glyph glyph-name="Lcircumflexbelow.sc" horiz-adv-x="908" 
d="M866 191v-191h-724v1087h240v-896h484zM166 -396l219 281h156l219 -281h-179l-115 167h-6l-115 -167h-179z" />
    <glyph glyph-name="Ldotbelow.sc" horiz-adv-x="908" 
d="M866 191v-191h-724v1087h240v-896h484zM357 -264c0 63 48 111 107 111c62 0 109 -48 109 -111c0 -61 -47 -110 -109 -110c-59 0 -107 49 -107 110z" />
    <glyph glyph-name="Ldotbelowmacron.sc" horiz-adv-x="908" 
d="M866 191v-191h-724v1087h240v-896h484zM357 -264c0 63 48 111 107 111c62 0 109 -48 109 -111c0 -61 -47 -110 -109 -110c-59 0 -107 49 -107 110zM550 1261h-572v140h572v-140z" />
    <glyph glyph-name="Llinebelow.sc" horiz-adv-x="908" 
d="M866 191v-191h-724v1087h240v-896h484zM749 -348h-572v140h572v-140z" />
    <glyph glyph-name="Lcommaaccent.sc" horiz-adv-x="908" 
d="M866 191v-191h-724v1087h240v-896h484zM456 -489h-166l85 335h195z" />
    <glyph glyph-name="Lcaron.sc" horiz-adv-x="908" 
d="M547 1172h204l-50 -488h-154v488zM866 191v-191h-724v1087h240v-896h484z" />
    <glyph glyph-name="Lslash.sc" horiz-adv-x="931" 
d="M888 0h-724v407l-101 -53v188l101 55v490h240v-363l264 142v-190l-264 -141v-344h484v-191z" />
    <glyph glyph-name="M.sc" horiz-adv-x="1429" 
d="M358 0h-213v1087h245l321 -681h8l322 681h244v-1087h-217v709h-11l-267 -565h-152l-268 565h-12v-709z" />
    <glyph glyph-name="Macute.sc" horiz-adv-x="1429" 
d="M786 1217h-169l197 285h215zM358 0h-213v1087h245l321 -681h8l322 681h244v-1087h-217v709h-11l-267 -565h-152l-268 565h-12v-709z" />
    <glyph glyph-name="Mdotaccent.sc" horiz-adv-x="1429" 
d="M592 1341c0 69 54 123 120 123c69 0 123 -54 123 -123c0 -68 -54 -120 -123 -120c-66 0 -120 52 -120 120zM358 0h-213v1087h245l321 -681h8l322 681h244v-1087h-217v709h-11l-267 -565h-152l-268 565h-12v-709z" />
    <glyph glyph-name="Mdotbelow.sc" horiz-adv-x="1429" 
d="M607 -264c0 63 48 111 107 111c62 0 109 -48 109 -111c0 -61 -47 -110 -109 -110c-59 0 -107 49 -107 110zM358 0h-213v1087h245l321 -681h8l322 681h244v-1087h-217v709h-11l-267 -565h-152l-268 565h-12v-709z" />
    <glyph glyph-name="N.sc" horiz-adv-x="1214" 
d="M368 0h-226v1087h198l496 -700h10v700h226v-1087h-197l-498 705h-9v-705z" />
    <glyph glyph-name="Ngrave.sc" horiz-adv-x="1214" 
d="M368 0h-226v1087h198l496 -700h10v700h226v-1087h-197l-498 705h-9v-705zM703 1217h-169l-243 285h215z" />
    <glyph glyph-name="Nacute.sc" horiz-adv-x="1214" 
d="M368 0h-226v1087h198l496 -700h10v700h226v-1087h-197l-498 705h-9v-705zM678 1217h-169l197 285h215z" />
    <glyph glyph-name="Ntilde.sc" horiz-adv-x="1214" 
d="M368 0h-226v1087h198l496 -700h10v700h226v-1087h-197l-498 705h-9v-705zM720 1209c-135 0 -173 124 -244 124c-55 0 -65 -69 -65 -103h-141c0 122 68 235 197 235c135 0 175 -125 248 -125c49 0 70 57 72 107h141c0 -117 -75 -238 -208 -238z" />
    <glyph glyph-name="Ndotbelow.sc" horiz-adv-x="1214" 
d="M499 -264c0 63 48 111 107 111c62 0 109 -48 109 -111c0 -61 -47 -110 -109 -110c-59 0 -107 49 -107 110zM368 0h-226v1087h198l496 -700h10v700h226v-1087h-197l-498 705h-9v-705z" />
    <glyph glyph-name="Ndotaccent.sc" horiz-adv-x="1214" 
d="M368 0h-226v1087h198l496 -700h10v700h226v-1087h-197l-498 705h-9v-705zM484 1341c0 69 54 123 120 123c69 0 123 -54 123 -123c0 -68 -54 -120 -123 -120c-66 0 -120 52 -120 120z" />
    <glyph glyph-name="Ncaron.sc" horiz-adv-x="1214" 
d="M307 1524h183l116 -177h4l116 177h183l-224 -307h-154zM368 0h-226v1087h198l496 -700h10v700h226v-1087h-197l-498 705h-9v-705z" />
    <glyph glyph-name="Ncircumflexbelow.sc" horiz-adv-x="1214" 
d="M368 0h-226v1087h198l496 -700h10v700h226v-1087h-197l-498 705h-9v-705zM309 -396l219 281h156l219 -281h-179l-115 167h-6l-115 -167h-179z" />
    <glyph glyph-name="Nlinebelow.sc" horiz-adv-x="1214" 
d="M368 0h-226v1087h198l496 -700h10v700h226v-1087h-197l-498 705h-9v-705zM894 -348h-572v140h572v-140z" />
    <glyph glyph-name="Ncommaaccent.sc" horiz-adv-x="1214" 
d="M368 0h-226v1087h198l496 -700h10v700h226v-1087h-197l-498 705h-9v-705zM599 -489h-166l85 335h195z" />
    <glyph glyph-name="O.sc" horiz-adv-x="1189" 
d="M339 610v-139c0 -204 106 -303 255 -303s255 99 255 303v139c0 203 -106 308 -255 308s-255 -105 -255 -308zM95 471v136c0 309 188 500 500 500c313 0 499 -192 499 -500v-136c0 -306 -188 -491 -501 -491c-312 0 -498 185 -498 491z" />
    <glyph glyph-name="Odieresis.sc" horiz-adv-x="1189" 
d="M339 610v-139c0 -204 106 -303 255 -303s255 99 255 303v139c0 203 -106 308 -255 308s-255 -105 -255 -308zM95 471v136c0 309 188 500 500 500c313 0 499 -192 499 -500v-136c0 -306 -188 -491 -501 -491c-312 0 -498 185 -498 491zM417 1226c-60 0 -106 45 -106 106
c0 64 46 110 106 110c62 0 107 -46 107 -110c0 -61 -45 -106 -107 -106zM787 1226c-60 0 -105 45 -105 106c0 64 45 110 105 110c62 0 109 -46 109 -110c0 -61 -47 -106 -109 -106z" />
    <glyph glyph-name="Oslash.sc" horiz-adv-x="1189" 
d="M593 -20c-129 0 -237 32 -318 94l-84 -97l-105 81l94 109c-55 80 -85 183 -85 304v136c0 309 188 500 500 500c127 0 234 -33 315 -93l75 87l109 -77l-90 -102c58 -83 90 -189 90 -315v-136c0 -306 -188 -491 -501 -491zM329 461c0 -46 5 -77 15 -104l431 504
c-46 45 -109 69 -181 69c-156 0 -265 -109 -265 -318v-151zM594 154c158 0 266 102 266 313v152c0 49 -8 82 -19 113l-433 -507c46 -48 111 -71 186 -71z" />
    <glyph glyph-name="Otilde.sc" horiz-adv-x="1189" 
d="M339 610v-139c0 -204 106 -303 255 -303s255 99 255 303v139c0 203 -106 308 -255 308s-255 -105 -255 -308zM95 471v136c0 309 188 500 500 500c313 0 499 -192 499 -500v-136c0 -306 -188 -491 -501 -491c-312 0 -498 185 -498 491zM709 1209c-135 0 -173 124 -244 124
c-55 0 -65 -69 -65 -103h-141c0 122 68 235 197 235c135 0 175 -125 248 -125c49 0 70 57 72 107h141c0 -117 -75 -238 -208 -238z" />
    <glyph glyph-name="Oacute.sc" horiz-adv-x="1189" 
d="M339 610v-139c0 -204 106 -303 255 -303s255 99 255 303v139c0 203 -106 308 -255 308s-255 -105 -255 -308zM95 471v136c0 309 188 500 500 500c313 0 499 -192 499 -500v-136c0 -306 -188 -491 -501 -491c-312 0 -498 185 -498 491zM667 1217h-169l197 285h215z" />
    <glyph glyph-name="Ocircumflex.sc" horiz-adv-x="1189" 
d="M339 610v-139c0 -204 106 -303 255 -303s255 99 255 303v139c0 203 -106 308 -255 308s-255 -105 -255 -308zM95 471v136c0 309 188 500 500 500c313 0 499 -192 499 -500v-136c0 -306 -188 -491 -501 -491c-312 0 -498 185 -498 491zM295 1217l223 307h154l224 -307
h-183l-115 177h-5l-115 -177h-183z" />
    <glyph glyph-name="Ograve.sc" horiz-adv-x="1189" 
d="M339 610v-139c0 -204 106 -303 255 -303s255 99 255 303v139c0 203 -106 308 -255 308s-255 -105 -255 -308zM95 471v136c0 309 188 500 500 500c313 0 499 -192 499 -500v-136c0 -306 -188 -491 -501 -491c-312 0 -498 185 -498 491zM692 1217h-169l-243 285h215z" />
    <glyph glyph-name="Ocircumflexhookabove.sc" horiz-adv-x="1189" 
d="M339 610v-139c0 -204 106 -303 255 -303s255 99 255 303v139c0 203 -106 308 -255 308s-255 -105 -255 -308zM95 471v136c0 309 188 500 500 500c313 0 499 -192 499 -500v-136c0 -306 -188 -491 -501 -491c-312 0 -498 185 -498 491zM735 1665v109c19 10 58 18 104 18
c129 0 210 -73 210 -181c0 -96 -64 -156 -153 -193l-67 87c64 28 90 55 90 97c0 45 -41 81 -101 81c-35 0 -67 -10 -83 -18zM295 1217l223 307h154l224 -307h-183l-115 177h-5l-115 -177h-183z" />
    <glyph glyph-name="Ocircumflexgrave.sc" horiz-adv-x="1189" 
d="M339 610v-139c0 -204 106 -303 255 -303s255 99 255 303v139c0 203 -106 308 -255 308s-255 -105 -255 -308zM95 471v136c0 309 188 500 500 500c313 0 499 -192 499 -500v-136c0 -306 -188 -491 -501 -491c-312 0 -498 185 -498 491zM1091 1440h-169l-243 286h215z
M295 1217l223 307h154l224 -307h-183l-115 177h-5l-115 -177h-183z" />
    <glyph glyph-name="Odotbelow.sc" horiz-adv-x="1189" 
d="M339 610v-139c0 -204 106 -303 255 -303s255 99 255 303v139c0 203 -106 308 -255 308s-255 -105 -255 -308zM95 471v136c0 309 188 500 500 500c313 0 499 -192 499 -500v-136c0 -306 -188 -491 -501 -491c-312 0 -498 185 -498 491zM487 -264c0 63 48 111 107 111
c62 0 109 -48 109 -111c0 -61 -47 -110 -109 -110c-59 0 -107 49 -107 110z" />
    <glyph glyph-name="Odblgrave.sc" horiz-adv-x="1189" 
d="M339 610v-139c0 -204 106 -303 255 -303s255 99 255 303v139c0 203 -106 308 -255 308s-255 -105 -255 -308zM95 471v136c0 309 188 500 500 500c313 0 499 -192 499 -500v-136c0 -306 -188 -491 -501 -491c-312 0 -498 185 -498 491zM374 1217l-237 286h187l197 -286
h-147zM688 1217l-237 286h187l196 -286h-146z" />
    <glyph glyph-name="Otildeacute.sc" horiz-adv-x="1189" 
d="M339 610v-139c0 -204 106 -303 255 -303s255 99 255 303v139c0 203 -106 308 -255 308s-255 -105 -255 -308zM95 471v136c0 309 188 500 500 500c313 0 499 -192 499 -500v-136c0 -306 -188 -491 -501 -491c-312 0 -498 185 -498 491zM668 1541h-169l197 285h215z
M706 1209c-135 0 -173 124 -244 124c-55 0 -65 -69 -65 -103h-141c0 122 68 235 197 235c135 0 175 -125 248 -125c49 0 70 57 72 107h141c0 -117 -75 -238 -208 -238z" />
    <glyph glyph-name="Omacronacute.sc" horiz-adv-x="1189" 
d="M339 610v-139c0 -204 106 -303 255 -303s255 99 255 303v139c0 203 -106 308 -255 308s-255 -105 -255 -308zM95 471v136c0 309 188 500 500 500c313 0 499 -192 499 -500v-136c0 -306 -188 -491 -501 -491c-312 0 -498 185 -498 491zM671 1541h-169l197 285h215z
M881 1261h-572v140h572v-140z" />
    <glyph glyph-name="Ocircumflextilde.sc" horiz-adv-x="1189" 
d="M339 610v-139c0 -204 106 -303 255 -303s255 99 255 303v139c0 203 -106 308 -255 308s-255 -105 -255 -308zM95 471v136c0 309 188 500 500 500c313 0 499 -192 499 -500v-136c0 -306 -188 -491 -501 -491c-312 0 -498 185 -498 491zM435 1632h-130
c0 113 60 217 179 217c126 0 145 -116 210 -116c41 0 62 51 64 99h130c0 -107 -66 -220 -189 -220c-126 0 -142 116 -207 116c-47 0 -56 -62 -57 -96zM295 1217l223 307h154l224 -307h-183l-115 177h-5l-115 -177h-183z" />
    <glyph glyph-name="Odotaccentmacron.sc" horiz-adv-x="1189" 
d="M339 610v-139c0 -204 106 -303 255 -303s255 99 255 303v139c0 203 -106 308 -255 308s-255 -105 -255 -308zM95 471v136c0 309 188 500 500 500c313 0 499 -192 499 -500v-136c0 -306 -188 -491 -501 -491c-312 0 -498 185 -498 491zM472 1331c0 69 54 123 120 123
c69 0 123 -54 123 -123c0 -68 -54 -120 -123 -120c-66 0 -120 52 -120 120zM881 1577h-572v140h572v-140z" />
    <glyph glyph-name="Omacrongrave.sc" horiz-adv-x="1189" 
d="M339 610v-139c0 -204 106 -303 255 -303s255 99 255 303v139c0 203 -106 308 -255 308s-255 -105 -255 -308zM95 471v136c0 309 188 500 500 500c313 0 499 -192 499 -500v-136c0 -306 -188 -491 -501 -491c-312 0 -498 185 -498 491zM692 1539h-169l-243 285h215z
M881 1261h-572v140h572v-140z" />
    <glyph glyph-name="Ocaron.sc" horiz-adv-x="1189" 
d="M339 610v-139c0 -204 106 -303 255 -303s255 99 255 303v139c0 203 -106 308 -255 308s-255 -105 -255 -308zM95 471v136c0 309 188 500 500 500c313 0 499 -192 499 -500v-136c0 -306 -188 -491 -501 -491c-312 0 -498 185 -498 491zM292 1524h183l116 -177h4l116 177
h183l-224 -307h-154z" />
    <glyph glyph-name="Oslashacute.sc" horiz-adv-x="1189" 
d="M666 1217h-169l197 285h215zM593 -20c-129 0 -237 32 -318 94l-84 -97l-105 81l94 109c-55 80 -85 183 -85 304v136c0 309 188 500 500 500c127 0 234 -33 315 -93l75 87l109 -77l-90 -102c58 -83 90 -189 90 -315v-136c0 -306 -188 -491 -501 -491zM329 461
c0 -46 5 -77 15 -104l431 504c-46 45 -109 69 -181 69c-156 0 -265 -109 -265 -318v-151zM594 154c158 0 266 102 266 313v152c0 49 -8 82 -19 113l-433 -507c46 -48 111 -71 186 -71z" />
    <glyph glyph-name="Ohungarumlaut.sc" horiz-adv-x="1189" 
d="M339 610v-139c0 -204 106 -303 255 -303s255 99 255 303v139c0 203 -106 308 -255 308s-255 -105 -255 -308zM95 471v136c0 309 188 500 500 500c313 0 499 -192 499 -500v-136c0 -306 -188 -491 -501 -491c-312 0 -498 185 -498 491zM480 1217h-146l198 285h186z
M794 1217h-147l199 285h186z" />
    <glyph glyph-name="Obreve.sc" horiz-adv-x="1189" 
d="M339 610v-139c0 -204 106 -303 255 -303s255 99 255 303v139c0 203 -106 308 -255 308s-255 -105 -255 -308zM95 471v136c0 309 188 500 500 500c313 0 499 -192 499 -500v-136c0 -306 -188 -491 -501 -491c-312 0 -498 185 -498 491zM291 1503h143
c0 -82 49 -161 161 -161c113 0 162 79 162 161h141c-1 -142 -97 -291 -303 -291c-205 0 -304 149 -304 291z" />
    <glyph glyph-name="Oinvertedbreve.sc" horiz-adv-x="1189" 
d="M339 610v-139c0 -204 106 -303 255 -303s255 99 255 303v139c0 203 -106 308 -255 308s-255 -105 -255 -308zM95 471v136c0 309 188 500 500 500c313 0 499 -192 499 -500v-136c0 -306 -188 -491 -501 -491c-312 0 -498 185 -498 491zM287 1240c-1 146 100 296 308 296
s306 -151 307 -296h-144c0 84 -49 164 -163 164s-163 -80 -163 -164h-145z" />
    <glyph glyph-name="Ohookabove.sc" horiz-adv-x="1189" 
d="M339 610v-139c0 -204 106 -303 255 -303s255 99 255 303v139c0 203 -106 308 -255 308s-255 -105 -255 -308zM95 471v136c0 309 188 500 500 500c313 0 499 -192 499 -500v-136c0 -306 -188 -491 -501 -491c-312 0 -498 185 -498 491zM450 1448v111c21 10 60 18 108 18
c130 0 213 -76 213 -185c0 -99 -65 -157 -156 -197l-69 89c65 28 91 56 91 98c0 46 -41 84 -103 84c-34 0 -66 -10 -84 -18z" />
    <glyph glyph-name="Odieresismacron.sc" horiz-adv-x="1189" 
d="M339 610v-139c0 -204 106 -303 255 -303s255 99 255 303v139c0 203 -106 308 -255 308s-255 -105 -255 -308zM95 471v136c0 309 188 500 500 500c313 0 499 -192 499 -500v-136c0 -306 -188 -491 -501 -491c-312 0 -498 185 -498 491zM417 1226c-60 0 -106 45 -106 106
c0 64 46 110 106 110c62 0 107 -46 107 -110c0 -61 -45 -106 -107 -106zM787 1226c-60 0 -105 45 -105 106c0 64 45 110 105 110c62 0 109 -46 109 -110c0 -61 -47 -106 -109 -106zM881 1577h-572v140h572v-140z" />
    <glyph glyph-name="Otildemacron.sc" horiz-adv-x="1189" 
d="M339 610v-139c0 -204 106 -303 255 -303s255 99 255 303v139c0 203 -106 308 -255 308s-255 -105 -255 -308zM95 471v136c0 309 188 500 500 500c313 0 499 -192 499 -500v-136c0 -306 -188 -491 -501 -491c-312 0 -498 185 -498 491zM709 1209c-135 0 -173 124 -244 124
c-55 0 -65 -69 -65 -103h-141c0 122 68 235 197 235c135 0 175 -125 248 -125c49 0 70 57 72 107h141c0 -117 -75 -238 -208 -238zM881 1577h-572v140h572v-140z" />
    <glyph glyph-name="Odotaccent.sc" horiz-adv-x="1189" 
d="M339 610v-139c0 -204 106 -303 255 -303s255 99 255 303v139c0 203 -106 308 -255 308s-255 -105 -255 -308zM95 471v136c0 309 188 500 500 500c313 0 499 -192 499 -500v-136c0 -306 -188 -491 -501 -491c-312 0 -498 185 -498 491zM473 1341c0 69 54 123 120 123
c69 0 123 -54 123 -123c0 -68 -54 -120 -123 -120c-66 0 -120 52 -120 120z" />
    <glyph glyph-name="Ocircumflexdotbelow.sc" horiz-adv-x="1189" 
d="M296 1217l223 307h154l224 -307h-183l-115 177h-5l-115 -177h-183zM339 610v-139c0 -204 106 -303 255 -303s255 99 255 303v139c0 203 -106 308 -255 308s-255 -105 -255 -308zM95 471v136c0 309 188 500 500 500c313 0 499 -192 499 -500v-136
c0 -306 -188 -491 -501 -491c-312 0 -498 185 -498 491zM487 -264c0 63 48 111 107 111c62 0 109 -48 109 -111c0 -61 -47 -110 -109 -110c-59 0 -107 49 -107 110z" />
    <glyph glyph-name="Ocircumflexacute.sc" horiz-adv-x="1189" 
d="M339 610v-139c0 -204 106 -303 255 -303s255 99 255 303v139c0 203 -106 308 -255 308s-255 -105 -255 -308zM95 471v136c0 309 188 500 500 500c313 0 499 -192 499 -500v-136c0 -306 -188 -491 -501 -491c-312 0 -498 185 -498 491zM983 1441h-169l197 285h215z
M295 1217l223 307h154l224 -307h-183l-115 177h-5l-115 -177h-183z" />
    <glyph glyph-name="Otildedieresis.sc" horiz-adv-x="1189" 
d="M709 1209c-135 0 -173 124 -244 124c-55 0 -65 -69 -65 -103h-141c0 122 68 235 197 235c135 0 175 -125 248 -125c49 0 70 57 72 107h141c0 -117 -75 -238 -208 -238zM417 1542c-60 0 -106 45 -106 106c0 64 46 110 106 110c62 0 107 -46 107 -110
c0 -61 -45 -106 -107 -106zM787 1542c-60 0 -105 45 -105 106c0 64 45 110 105 110c62 0 109 -46 109 -110c0 -61 -47 -106 -109 -106zM339 610v-139c0 -204 106 -303 255 -303s255 99 255 303v139c0 203 -106 308 -255 308s-255 -105 -255 -308zM95 471v136
c0 309 188 500 500 500c313 0 499 -192 499 -500v-136c0 -306 -188 -491 -501 -491c-312 0 -498 185 -498 491z" />
    <glyph glyph-name="Omacron.sc" horiz-adv-x="1189" 
d="M339 610v-139c0 -204 106 -303 255 -303s255 99 255 303v139c0 203 -106 308 -255 308s-255 -105 -255 -308zM95 471v136c0 309 188 500 500 500c313 0 499 -192 499 -500v-136c0 -306 -188 -491 -501 -491c-312 0 -498 185 -498 491zM880 1261h-572v140h572v-140z" />
    <glyph glyph-name="Oogonek.sc" horiz-adv-x="1189" 
d="M707 -7c-35 -11 -76 -13 -109 -13c-318 0 -503 185 -503 491v136c0 309 188 500 500 500c313 0 499 -192 499 -500v-136c0 -177 -70 -287 -140 -367c-48 -52 -150 -125 -150 -237c0 -75 51 -102 111 -102c21 0 56 4 82 10v-140c-20 -10 -73 -23 -136 -23
c-145 0 -230 77 -230 192c0 73 32 139 77 186zM339 610v-139c0 -204 106 -303 255 -303s255 99 255 303v139c0 203 -106 308 -255 308s-255 -105 -255 -308z" />
    <glyph glyph-name="Oogonekmacron.sc" horiz-adv-x="1189" 
d="M707 -7c-35 -11 -76 -13 -109 -13c-318 0 -503 185 -503 491v136c0 309 188 500 500 500c313 0 499 -192 499 -500v-136c0 -177 -70 -287 -140 -367c-48 -52 -150 -125 -150 -237c0 -75 51 -102 111 -102c21 0 56 4 82 10v-140c-20 -10 -73 -23 -136 -23
c-145 0 -230 77 -230 192c0 73 32 139 77 186zM339 610v-139c0 -204 106 -303 255 -303s255 99 255 303v139c0 203 -106 308 -255 308s-255 -105 -255 -308zM881 1261h-572v140h572v-140z" />
    <glyph glyph-name="Ohorn.sc" horiz-adv-x="1213" 
d="M1094 471c0 -306 -188 -491 -501 -491c-312 0 -498 185 -498 491v136c0 309 188 500 500 500c157 0 241 -58 348 -58c97 0 114 49 114 110v97h186v-122c0 -138 -83 -229 -227 -229l-3 -3c44 -67 81 -177 81 -295v-136zM339 610v-140c0 -204 106 -303 255 -303
s257 99 257 303v140c0 203 -108 308 -257 308s-255 -105 -255 -308z" />
    <glyph glyph-name="Ohorndotbelow.sc" horiz-adv-x="1213" 
d="M1094 471c0 -306 -188 -491 -501 -491c-312 0 -498 185 -498 491v136c0 309 188 500 500 500c157 0 241 -58 348 -58c97 0 114 49 114 110v97h186v-122c0 -138 -83 -229 -227 -229l-3 -3c44 -67 81 -177 81 -295v-136zM339 610v-140c0 -204 106 -303 255 -303
s257 99 257 303v140c0 203 -108 308 -257 308s-255 -105 -255 -308zM488 -264c0 63 48 111 107 111c62 0 109 -48 109 -111c0 -61 -47 -110 -109 -110c-59 0 -107 49 -107 110z" />
    <glyph glyph-name="Ohornhookabove.sc" horiz-adv-x="1213" 
d="M1094 471c0 -306 -188 -491 -501 -491c-312 0 -498 185 -498 491v136c0 309 188 500 500 500c157 0 241 -58 348 -58c97 0 114 49 114 110v97h186v-122c0 -138 -83 -229 -227 -229l-3 -3c44 -67 81 -177 81 -295v-136zM339 610v-140c0 -204 106 -303 255 -303
s257 99 257 303v140c0 203 -108 308 -257 308s-255 -105 -255 -308zM450 1448v111c21 10 60 18 108 18c130 0 213 -76 213 -185c0 -99 -65 -157 -156 -197l-69 89c65 28 91 56 91 98c0 46 -41 84 -103 84c-34 0 -66 -10 -84 -18z" />
    <glyph glyph-name="Ohorntilde.sc" horiz-adv-x="1213" 
d="M1094 471c0 -306 -188 -491 -501 -491c-312 0 -498 185 -498 491v136c0 309 188 500 500 500c157 0 241 -58 348 -58c97 0 114 49 114 110v97h186v-122c0 -138 -83 -229 -227 -229l-3 -3c44 -67 81 -177 81 -295v-136zM339 610v-140c0 -204 106 -303 255 -303
s257 99 257 303v140c0 203 -108 308 -257 308s-255 -105 -255 -308zM709 1209c-135 0 -173 124 -244 124c-55 0 -65 -69 -65 -103h-141c0 122 68 235 197 235c135 0 175 -125 248 -125c49 0 70 57 72 107h141c0 -117 -75 -238 -208 -238z" />
    <glyph glyph-name="Ohorngrave.sc" horiz-adv-x="1213" 
d="M1094 471c0 -306 -188 -491 -501 -491c-312 0 -498 185 -498 491v136c0 309 188 500 500 500c157 0 241 -58 348 -58c97 0 114 49 114 110v97h186v-122c0 -138 -83 -229 -227 -229l-3 -3c44 -67 81 -177 81 -295v-136zM339 610v-140c0 -204 106 -303 255 -303
s257 99 257 303v140c0 203 -108 308 -257 308s-255 -105 -255 -308zM692 1217h-169l-243 285h215z" />
    <glyph glyph-name="Ohornacute.sc" horiz-adv-x="1213" 
d="M1094 471c0 -306 -188 -491 -501 -491c-312 0 -498 185 -498 491v136c0 309 188 500 500 500c157 0 241 -58 348 -58c97 0 114 49 114 110v97h186v-122c0 -138 -83 -229 -227 -229l-3 -3c44 -67 81 -177 81 -295v-136zM339 610v-140c0 -204 106 -303 255 -303
s257 99 257 303v140c0 203 -108 308 -257 308s-255 -105 -255 -308zM667 1217h-169l197 285h215z" />
    <glyph glyph-name="P.sc" horiz-adv-x="1062" 
d="M142 1087h468c252 0 393 -163 393 -367c0 -207 -143 -364 -396 -364h-225v-356h-240v1087zM381 907v-373h132c153 0 246 45 246 186c0 120 -75 187 -198 187h-180z" />
    <glyph glyph-name="Pdotaccent.sc" horiz-adv-x="1062" 
d="M408 1341c0 69 54 123 120 123c69 0 123 -54 123 -123c0 -68 -54 -120 -123 -120c-66 0 -120 52 -120 120zM142 1087h468c252 0 393 -163 393 -367c0 -207 -143 -364 -396 -364h-225v-356h-240v1087zM381 907v-373h132c153 0 246 45 246 186c0 120 -75 187 -198 187h-180
z" />
    <glyph glyph-name="Pacute.sc" horiz-adv-x="1062" 
d="M602 1217h-169l197 285h215zM142 1087h468c252 0 393 -163 393 -367c0 -207 -143 -364 -396 -364h-225v-356h-240v1087zM381 907v-373h132c153 0 246 45 246 186c0 120 -75 187 -198 187h-180z" />
    <glyph glyph-name="Q.sc" horiz-adv-x="1193" 
d="M98 476v133c0 306 194 498 499 498s500 -193 500 -498v-133c0 -165 -57 -295 -158 -381l145 -200h-236l-82 110c-50 -16 -107 -25 -169 -25c-305 0 -499 191 -499 496zM333 610v-137c0 -204 104 -304 243 -314c29 0 54 3 78 12l-117 158h213l54 -54c35 40 57 120 57 198
v137c0 205 -113 309 -264 309c-152 0 -264 -104 -264 -309z" />
    <glyph glyph-name="R.sc" horiz-adv-x="1115" 
d="M609 1087c277 0 410 -152 410 -348c0 -179 -124 -273 -209 -305l231 -434h-267l-201 400h-194v-400h-237v1087h467zM379 570h192c124 0 200 56 200 166c0 116 -83 174 -196 174h-196v-340z" />
    <glyph glyph-name="Rcaron.sc" horiz-adv-x="1115" 
d="M229 1524h183l116 -177h4l116 177h183l-224 -307h-154zM609 1087c277 0 410 -152 410 -348c0 -179 -124 -273 -209 -305l231 -434h-267l-201 400h-194v-400h-237v1087h467zM379 570h192c124 0 200 56 200 166c0 116 -83 174 -196 174h-196v-340z" />
    <glyph glyph-name="Rlinebelow.sc" horiz-adv-x="1115" 
d="M816 -348h-572v140h572v-140zM609 1087c277 0 410 -152 410 -348c0 -179 -124 -273 -209 -305l231 -434h-267l-201 400h-194v-400h-237v1087h467zM379 570h192c124 0 200 56 200 166c0 116 -83 174 -196 174h-196v-340z" />
    <glyph glyph-name="Rdotbelowmacron.sc" horiz-adv-x="1115" 
d="M424 -264c0 63 48 111 107 111c62 0 109 -48 109 -111c0 -61 -47 -110 -109 -110c-59 0 -107 49 -107 110zM816 1261h-572v140h572v-140zM609 1087c277 0 410 -152 410 -348c0 -179 -124 -273 -209 -305l231 -434h-267l-201 400h-194v-400h-237v1087h467zM379 570h192
c124 0 200 56 200 166c0 116 -83 174 -196 174h-196v-340z" />
    <glyph glyph-name="Rdblgrave.sc" horiz-adv-x="1115" 
d="M609 1087c277 0 410 -152 410 -348c0 -179 -124 -273 -209 -305l231 -434h-267l-201 400h-194v-400h-237v1087h467zM379 570h192c124 0 200 56 200 166c0 116 -83 174 -196 174h-196v-340zM309 1217l-237 286h187l197 -286h-147zM623 1217l-237 286h187l196 -286h-146z
" />
    <glyph glyph-name="Rinvertedbreve.sc" horiz-adv-x="1115" 
d="M609 1087c277 0 410 -152 410 -348c0 -179 -124 -273 -209 -305l231 -434h-267l-201 400h-194v-400h-237v1087h467zM379 570h192c124 0 200 56 200 166c0 116 -83 174 -196 174h-196v-340zM222 1240c-1 146 100 296 308 296s306 -151 307 -296h-144
c0 84 -49 164 -163 164s-163 -80 -163 -164h-145z" />
    <glyph glyph-name="Racute.sc" horiz-adv-x="1115" 
d="M602 1217h-169l197 285h215zM609 1087c277 0 410 -152 410 -348c0 -179 -124 -273 -209 -305l231 -434h-267l-201 400h-194v-400h-237v1087h467zM379 570h192c124 0 200 56 200 166c0 116 -83 174 -196 174h-196v-340z" />
    <glyph glyph-name="Rdotbelow.sc" horiz-adv-x="1115" 
d="M424 -264c0 63 48 111 107 111c62 0 109 -48 109 -111c0 -61 -47 -110 -109 -110c-59 0 -107 49 -107 110zM609 1087c277 0 410 -152 410 -348c0 -179 -124 -273 -209 -305l231 -434h-267l-201 400h-194v-400h-237v1087h467zM379 570h192c124 0 200 56 200 166
c0 116 -83 174 -196 174h-196v-340z" />
    <glyph glyph-name="Rdotaccent.sc" horiz-adv-x="1115" 
d="M408 1341c0 69 54 123 120 123c69 0 123 -54 123 -123c0 -68 -54 -120 -123 -120c-66 0 -120 52 -120 120zM609 1087c277 0 410 -152 410 -348c0 -179 -124 -273 -209 -305l231 -434h-267l-201 400h-194v-400h-237v1087h467zM379 570h192c124 0 200 56 200 166
c0 116 -83 174 -196 174h-196v-340z" />
    <glyph glyph-name="Rcommaaccent.sc" horiz-adv-x="1115" 
d="M523 -489h-166l85 335h195zM609 1087c277 0 410 -152 410 -348c0 -179 -124 -273 -209 -305l231 -434h-267l-201 400h-194v-400h-237v1087h467zM379 570h192c124 0 200 56 200 166c0 116 -83 174 -196 174h-196v-340z" />
    <glyph glyph-name="S.sc" horiz-adv-x="1070" 
d="M72 311h231c6 -80 85 -151 233 -151c137 0 211 57 211 141c0 74 -59 111 -177 136l-175 38c-160 32 -296 117 -296 302c0 213 193 332 435 332c255 0 430 -133 433 -325h-224c-7 76 -74 146 -210 146c-120 0 -194 -51 -194 -136c0 -63 54 -105 157 -125l177 -38
c170 -33 312 -111 312 -308c0 -212 -178 -343 -462 -343c-339 0 -449 179 -451 331z" />
    <glyph glyph-name="Scaron.sc" horiz-adv-x="1070" 
d="M232 1524h183l116 -177h4l116 177h183l-224 -307h-154zM72 311h231c6 -80 85 -151 233 -151c137 0 211 57 211 141c0 74 -59 111 -177 136l-175 38c-160 32 -296 117 -296 302c0 213 193 332 435 332c255 0 430 -133 433 -325h-224c-7 76 -74 146 -210 146
c-120 0 -194 -51 -194 -136c0 -63 54 -105 157 -125l177 -38c170 -33 312 -111 312 -308c0 -212 -178 -343 -462 -343c-339 0 -449 179 -451 331z" />
    <glyph glyph-name="Scedilla.sc" horiz-adv-x="1070" 
d="M547 -469c-65 -3 -122 7 -148 15v117c27 -8 79 -14 113 -14c53 0 113 14 113 68c0 57 -57 62 -137 62h-54v94l37 108c-298 17 -397 186 -399 330h231c6 -80 85 -151 233 -151c137 0 211 57 211 141c0 74 -59 111 -177 136l-175 38c-160 32 -296 117 -296 302
c0 213 193 332 435 332c255 0 430 -133 433 -325h-224c-7 76 -74 146 -210 146c-120 0 -194 -51 -194 -136c0 -63 54 -105 157 -125l177 -38c170 -33 312 -111 312 -308c0 -188 -140 -312 -368 -338l-33 -96c121 0 200 -58 200 -165c0 -132 -101 -189 -237 -193z" />
    <glyph glyph-name="Sdotaccent.sc" horiz-adv-x="1070" 
d="M411 1341c0 69 54 123 120 123c69 0 123 -54 123 -123c0 -68 -54 -120 -123 -120c-66 0 -120 52 -120 120zM72 311h231c6 -80 85 -151 233 -151c137 0 211 57 211 141c0 74 -59 111 -177 136l-175 38c-160 32 -296 117 -296 302c0 213 193 332 435 332
c255 0 430 -133 433 -325h-224c-7 76 -74 146 -210 146c-120 0 -194 -51 -194 -136c0 -63 54 -105 157 -125l177 -38c170 -33 312 -111 312 -308c0 -212 -178 -343 -462 -343c-339 0 -449 179 -451 331z" />
    <glyph glyph-name="Sdotbelow.sc" horiz-adv-x="1070" 
d="M416 -264c0 63 48 111 107 111c62 0 109 -48 109 -111c0 -61 -47 -110 -109 -110c-59 0 -107 49 -107 110zM72 311h231c6 -80 85 -151 233 -151c137 0 211 57 211 141c0 74 -59 111 -177 136l-175 38c-160 32 -296 117 -296 302c0 213 193 332 435 332
c255 0 430 -133 433 -325h-224c-7 76 -74 146 -210 146c-120 0 -194 -51 -194 -136c0 -63 54 -105 157 -125l177 -38c170 -33 312 -111 312 -308c0 -212 -178 -343 -462 -343c-339 0 -449 179 -451 331z" />
    <glyph glyph-name="Scommaaccent.sc" horiz-adv-x="1070" 
d="M515 -489h-166l85 335h195zM72 311h231c6 -80 85 -151 233 -151c137 0 211 57 211 141c0 74 -59 111 -177 136l-175 38c-160 32 -296 117 -296 302c0 213 193 332 435 332c255 0 430 -133 433 -325h-224c-7 76 -74 146 -210 146c-120 0 -194 -51 -194 -136
c0 -63 54 -105 157 -125l177 -38c170 -33 312 -111 312 -308c0 -212 -178 -343 -462 -343c-339 0 -449 179 -451 331z" />
    <glyph glyph-name="Sdotbelowdotaccent.sc" horiz-adv-x="1070" 
d="M416 -264c0 63 48 111 107 111c62 0 109 -48 109 -111c0 -61 -47 -110 -109 -110c-59 0 -107 49 -107 110zM411 1341c0 69 54 123 120 123c69 0 123 -54 123 -123c0 -68 -54 -120 -123 -120c-66 0 -120 52 -120 120zM72 311h231c6 -80 85 -151 233 -151
c137 0 211 57 211 141c0 74 -59 111 -177 136l-175 38c-160 32 -296 117 -296 302c0 213 193 332 435 332c255 0 430 -133 433 -325h-224c-7 76 -74 146 -210 146c-120 0 -194 -51 -194 -136c0 -63 54 -105 157 -125l177 -38c170 -33 312 -111 312 -308
c0 -212 -178 -343 -462 -343c-339 0 -449 179 -451 331z" />
    <glyph glyph-name="Scarondotaccent.sc" horiz-adv-x="1070" 
d="M232 1524h183l116 -177h4l116 177h183l-224 -307h-154zM411 1705c0 69 54 123 120 123c69 0 123 -54 123 -123c0 -68 -54 -120 -123 -120c-66 0 -120 52 -120 120zM72 311h231c6 -80 85 -151 233 -151c137 0 211 57 211 141c0 74 -59 111 -177 136l-175 38
c-160 32 -296 117 -296 302c0 213 193 332 435 332c255 0 430 -133 433 -325h-224c-7 76 -74 146 -210 146c-120 0 -194 -51 -194 -136c0 -63 54 -105 157 -125l177 -38c170 -33 312 -111 312 -308c0 -212 -178 -343 -462 -343c-339 0 -449 179 -451 331z" />
    <glyph glyph-name="Scircumflex.sc" horiz-adv-x="1070" 
d="M233 1217l223 307h154l224 -307h-183l-115 177h-5l-115 -177h-183zM72 311h231c6 -80 85 -151 233 -151c137 0 211 57 211 141c0 74 -59 111 -177 136l-175 38c-160 32 -296 117 -296 302c0 213 193 332 435 332c255 0 430 -133 433 -325h-224c-7 76 -74 146 -210 146
c-120 0 -194 -51 -194 -136c0 -63 54 -105 157 -125l177 -38c170 -33 312 -111 312 -308c0 -212 -178 -343 -462 -343c-339 0 -449 179 -451 331z" />
    <glyph glyph-name="Sacutedotaccent.sc" horiz-adv-x="1070" 
d="M700 1217h-169l197 285h215zM224 1383c0 69 54 123 120 123c69 0 123 -54 123 -123c0 -68 -54 -120 -123 -120c-66 0 -120 52 -120 120zM72 311h231c6 -80 85 -151 233 -151c137 0 211 57 211 141c0 74 -59 111 -177 136l-175 38c-160 32 -296 117 -296 302
c0 213 193 332 435 332c255 0 430 -133 433 -325h-224c-7 76 -74 146 -210 146c-120 0 -194 -51 -194 -136c0 -63 54 -105 157 -125l177 -38c170 -33 312 -111 312 -308c0 -212 -178 -343 -462 -343c-339 0 -449 179 -451 331z" />
    <glyph glyph-name="Sacute.sc" horiz-adv-x="1070" 
d="M605 1217h-169l197 285h215zM72 311h231c6 -80 85 -151 233 -151c137 0 211 57 211 141c0 74 -59 111 -177 136l-175 38c-160 32 -296 117 -296 302c0 213 193 332 435 332c255 0 430 -133 433 -325h-224c-7 76 -74 146 -210 146c-120 0 -194 -51 -194 -136
c0 -63 54 -105 157 -125l177 -38c170 -33 312 -111 312 -308c0 -212 -178 -343 -462 -343c-339 0 -449 179 -451 331z" />
    <glyph glyph-name="T.sc" horiz-adv-x="958" 
d="M599 0h-240v898h-325v189h890v-189h-325v-898z" />
    <glyph glyph-name="Tcircumflexbelow.sc" horiz-adv-x="958" 
d="M599 0h-240v898h-325v189h890v-189h-325v-898zM183 -396l219 281h156l219 -281h-179l-115 167h-6l-115 -167h-179z" />
    <glyph glyph-name="Tdotbelow.sc" horiz-adv-x="958" 
d="M599 0h-240v898h-325v189h890v-189h-325v-898zM370 -264c0 63 48 111 107 111c62 0 109 -48 109 -111c0 -61 -47 -110 -109 -110c-59 0 -107 49 -107 110z" />
    <glyph glyph-name="Tcommaaccent.sc" horiz-adv-x="958" 
d="M599 0h-240v898h-325v189h890v-189h-325v-898zM471 -489h-166l85 335h195z" />
    <glyph glyph-name="Tdotaccent.sc" horiz-adv-x="958" 
d="M599 0h-240v898h-325v189h890v-189h-325v-898zM356 1341c0 69 54 123 120 123c69 0 123 -54 123 -123c0 -68 -54 -120 -123 -120c-66 0 -120 52 -120 120z" />
    <glyph glyph-name="Tcedilla.sc" horiz-adv-x="958" 
d="M484 -484c-66 -2 -122 8 -148 15v117c27 -8 79 -13 113 -13c53 0 113 13 113 67c0 58 -58 63 -137 63h-54v94l53 141h-65v898h-325v189h890v-189h-325v-898h-31l-47 -125c121 0 200 -59 200 -166c0 -132 -102 -189 -237 -193z" />
    <glyph glyph-name="Tlinebelow.sc" horiz-adv-x="958" 
d="M599 0h-240v898h-325v189h890v-189h-325v-898zM764 -348h-572v140h572v-140z" />
    <glyph glyph-name="Tcaron.sc" horiz-adv-x="958" 
d="M599 0h-240v898h-325v189h890v-189h-325v-898zM177 1524h183l116 -177h4l116 177h183l-224 -307h-154z" />
    <glyph glyph-name="Tbar.sc" horiz-adv-x="958" 
d="M808 468h-209v-468h-240v468h-209v135h210v295h-325v189h890v-189h-326v-295h209v-135z" />
    <glyph glyph-name="U.sc" horiz-adv-x="1198" 
d="M368 1087v-687c0 -148 93 -227 231 -227s231 81 231 227v687h240v-711c0 -239 -185 -396 -471 -396s-471 158 -471 398v709h240z" />
    <glyph glyph-name="Ugrave.sc" horiz-adv-x="1198" 
d="M696 1217h-169l-243 285h215zM368 1087v-687c0 -148 93 -227 231 -227s231 81 231 227v687h240v-711c0 -239 -185 -396 -471 -396s-471 158 -471 398v709h240z" />
    <glyph glyph-name="Udblgrave.sc" horiz-adv-x="1198" 
d="M378 1217l-237 286h187l197 -286h-147zM692 1217l-237 286h187l196 -286h-146zM368 1087v-687c0 -148 93 -227 231 -227s231 81 231 227v687h240v-711c0 -239 -185 -396 -471 -396s-471 158 -471 398v709h240z" />
    <glyph glyph-name="Uacute.sc" horiz-adv-x="1198" 
d="M671 1217h-169l197 285h215zM368 1087v-687c0 -148 93 -227 231 -227s231 81 231 227v687h240v-711c0 -239 -185 -396 -471 -396s-471 158 -471 398v709h240z" />
    <glyph glyph-name="Uhungarumlaut.sc" horiz-adv-x="1198" 
d="M484 1217h-146l198 285h186zM798 1217h-147l199 285h186zM368 1087v-687c0 -148 93 -227 231 -227s231 81 231 227v687h240v-711c0 -239 -185 -396 -471 -396s-471 158 -471 398v709h240z" />
    <glyph glyph-name="Ucircumflex.sc" horiz-adv-x="1198" 
d="M299 1217l223 307h154l224 -307h-183l-115 177h-5l-115 -177h-183zM368 1087v-687c0 -148 93 -227 231 -227s231 81 231 227v687h240v-711c0 -239 -185 -396 -471 -396s-471 158 -471 398v709h240z" />
    <glyph glyph-name="Ucaron.sc" horiz-adv-x="1198" 
d="M299 1524h183l116 -177h4l116 177h183l-224 -307h-154zM368 1087v-687c0 -148 93 -227 231 -227s231 81 231 227v687h240v-711c0 -239 -185 -396 -471 -396s-471 158 -471 398v709h240z" />
    <glyph glyph-name="Ucircumflexbelow.sc" horiz-adv-x="1198" 
d="M368 1087v-687c0 -148 93 -227 231 -227s231 81 231 227v687h240v-711c0 -239 -185 -396 -471 -396s-471 158 -471 398v709h240zM301 -396l219 281h156l219 -281h-179l-115 167h-6l-115 -167h-179z" />
    <glyph glyph-name="Udieresis.sc" horiz-adv-x="1198" 
d="M422 1226c-60 0 -106 45 -106 106c0 64 46 110 106 110c62 0 107 -46 107 -110c0 -61 -45 -106 -107 -106zM792 1226c-60 0 -105 45 -105 106c0 64 45 110 105 110c62 0 109 -46 109 -110c0 -61 -47 -106 -109 -106zM368 1087v-687c0 -148 93 -227 231 -227
s231 81 231 227v687h240v-711c0 -239 -185 -396 -471 -396s-471 158 -471 398v709h240z" />
    <glyph glyph-name="Udieresisgrave.sc" horiz-adv-x="1198" 
d="M696 1541h-169l-243 285h215zM421 1226c-60 0 -106 45 -106 106c0 64 46 110 106 110c62 0 107 -46 107 -110c0 -61 -45 -106 -107 -106zM791 1226c-60 0 -105 45 -105 106c0 64 45 110 105 110c62 0 109 -46 109 -110c0 -61 -47 -106 -109 -106zM368 1087v-687
c0 -148 93 -227 231 -227s231 81 231 227v687h240v-711c0 -239 -185 -396 -471 -396s-471 158 -471 398v709h240z" />
    <glyph glyph-name="Udieresisacute.sc" horiz-adv-x="1198" 
d="M675 1541h-169l197 285h215zM421 1226c-60 0 -106 45 -106 106c0 64 46 110 106 110c62 0 107 -46 107 -110c0 -61 -45 -106 -107 -106zM791 1226c-60 0 -105 45 -105 106c0 64 45 110 105 110c62 0 109 -46 109 -110c0 -61 -47 -106 -109 -106zM368 1087v-687
c0 -148 93 -227 231 -227s231 81 231 227v687h240v-711c0 -239 -185 -396 -471 -396s-471 158 -471 398v709h240z" />
    <glyph glyph-name="Udieresismacron.sc" horiz-adv-x="1198" 
d="M421 1226c-60 0 -106 45 -106 106c0 64 46 110 106 110c62 0 107 -46 107 -110c0 -61 -45 -106 -107 -106zM791 1226c-60 0 -105 45 -105 106c0 64 45 110 105 110c62 0 109 -46 109 -110c0 -61 -47 -106 -109 -106zM885 1577h-572v140h572v-140zM368 1087v-687
c0 -148 93 -227 231 -227s231 81 231 227v687h240v-711c0 -239 -185 -396 -471 -396s-471 158 -471 398v709h240z" />
    <glyph glyph-name="Udieresiscaron.sc" horiz-adv-x="1198" 
d="M298 1833h183l116 -177h4l116 177h183l-224 -307h-154zM421 1226c-60 0 -106 45 -106 106c0 64 46 110 106 110c62 0 107 -46 107 -110c0 -61 -45 -106 -107 -106zM791 1226c-60 0 -105 45 -105 106c0 64 45 110 105 110c62 0 109 -46 109 -110c0 -61 -47 -106 -109 -106
zM368 1087v-687c0 -148 93 -227 231 -227s231 81 231 227v687h240v-711c0 -239 -185 -396 -471 -396s-471 158 -471 398v709h240z" />
    <glyph glyph-name="Udieresisbelow.sc" horiz-adv-x="1198" 
d="M368 1087v-687c0 -148 93 -227 231 -227s231 81 231 227v687h240v-711c0 -239 -185 -396 -471 -396s-471 158 -471 398v709h240zM414 -379c-60 0 -106 45 -106 106c0 64 46 110 106 110c62 0 107 -46 107 -110c0 -61 -45 -106 -107 -106zM784 -379
c-60 0 -105 45 -105 106c0 64 45 110 105 110c62 0 109 -46 109 -110c0 -61 -47 -106 -109 -106z" />
    <glyph glyph-name="Utildebelow.sc" horiz-adv-x="1198" 
d="M716 -378c-130 0 -168 120 -235 120c-50 0 -60 -64 -60 -98h-136c0 117 63 225 187 225c130 0 171 -120 239 -120c44 0 64 52 67 103h136c0 -113 -70 -230 -198 -230zM368 1087v-687c0 -148 93 -227 231 -227s231 81 231 227v687h240v-711c0 -239 -185 -396 -471 -396
s-471 158 -471 398v709h240z" />
    <glyph glyph-name="Uhookabove.sc" horiz-adv-x="1198" 
d="M454 1448v111c21 10 60 18 108 18c130 0 213 -76 213 -185c0 -99 -65 -157 -156 -197l-69 89c65 28 91 56 91 98c0 46 -41 84 -103 84c-34 0 -66 -10 -84 -18zM368 1087v-687c0 -148 93 -227 231 -227s231 81 231 227v687h240v-711c0 -239 -185 -396 -471 -396
s-471 158 -471 398v709h240z" />
    <glyph glyph-name="Ubreve.sc" horiz-adv-x="1198" 
d="M295 1503h143c0 -82 49 -161 161 -161c113 0 162 79 162 161h141c-1 -142 -97 -291 -303 -291c-205 0 -304 149 -304 291zM368 1087v-687c0 -148 93 -227 231 -227s231 81 231 227v687h240v-711c0 -239 -185 -396 -471 -396s-471 158 -471 398v709h240z" />
    <glyph glyph-name="Uinvertedbreve.sc" horiz-adv-x="1198" 
d="M368 1087v-687c0 -148 93 -227 231 -227s231 81 231 227v687h240v-711c0 -239 -185 -396 -471 -396s-471 158 -471 398v709h240zM291 1240c-1 146 100 296 308 296s306 -151 307 -296h-144c0 84 -49 164 -163 164s-163 -80 -163 -164h-145z" />
    <glyph glyph-name="Utildeacute.sc" horiz-adv-x="1198" 
d="M672 1541h-169l197 285h215zM710 1209c-135 0 -173 124 -244 124c-55 0 -65 -69 -65 -103h-141c0 122 68 235 197 235c135 0 175 -125 248 -125c49 0 70 57 72 107h141c0 -117 -75 -238 -208 -238zM368 1087v-687c0 -148 93 -227 231 -227s231 81 231 227v687h240v-711
c0 -239 -185 -396 -471 -396s-471 158 -471 398v709h240z" />
    <glyph glyph-name="Udotbelow.sc" horiz-adv-x="1198" 
d="M491 -264c0 63 48 111 107 111c62 0 109 -48 109 -111c0 -61 -47 -110 -109 -110c-59 0 -107 49 -107 110zM368 1087v-687c0 -148 93 -227 231 -227s231 81 231 227v687h240v-711c0 -239 -185 -396 -471 -396s-471 158 -471 398v709h240z" />
    <glyph glyph-name="Utilde.sc" horiz-adv-x="1198" 
d="M713 1209c-135 0 -173 124 -244 124c-55 0 -65 -69 -65 -103h-141c0 122 68 235 197 235c135 0 175 -125 248 -125c49 0 70 57 72 107h141c0 -117 -75 -238 -208 -238zM368 1087v-687c0 -148 93 -227 231 -227s231 81 231 227v687h240v-711c0 -239 -185 -396 -471 -396
s-471 158 -471 398v709h240z" />
    <glyph glyph-name="Umacron.sc" horiz-adv-x="1198" 
d="M884 1261h-572v140h572v-140zM368 1087v-687c0 -148 93 -227 231 -227s231 81 231 227v687h240v-711c0 -239 -185 -396 -471 -396s-471 158 -471 398v709h240z" />
    <glyph glyph-name="Umacrondieresis.sc" horiz-adv-x="1198" 
d="M885 1261h-572v140h572v-140zM421 1542c-60 0 -106 45 -106 106c0 64 46 110 106 110c62 0 107 -46 107 -110c0 -61 -45 -106 -107 -106zM791 1542c-60 0 -105 45 -105 106c0 64 45 110 105 110c62 0 109 -46 109 -110c0 -61 -47 -106 -109 -106zM368 1087v-687
c0 -148 93 -227 231 -227s231 81 231 227v687h240v-711c0 -239 -185 -396 -471 -396s-471 158 -471 398v709h240z" />
    <glyph glyph-name="Uring.sc" horiz-adv-x="1198" 
d="M368 1087v-687c0 -148 93 -227 231 -227s231 81 231 227v687h240v-711c0 -239 -185 -396 -471 -396s-471 158 -471 398v709h240zM599 1211c-116 0 -207 85 -207 201s91 201 207 201c117 0 207 -85 207 -201s-91 -201 -207 -201zM503 1412c0 -55 41 -98 96 -98
s96 43 96 98s-41 97 -96 97s-96 -42 -96 -97z" />
    <glyph glyph-name="Uogonek.sc" horiz-adv-x="1198" 
d="M864 -388c-143 0 -230 75 -230 192c0 75 34 132 76 186c-34 -6 -71 -10 -112 -10c-284 0 -470 158 -470 398v709h241v-687c0 -148 92 -227 230 -227s231 81 231 227v687h240v-711c0 -135 -54 -214 -116 -278c-61 -63 -147 -129 -147 -232c0 -74 51 -101 111 -101
c21 0 56 4 82 10v-140c-20 -10 -73 -23 -136 -23z" />
    <glyph glyph-name="Uhorn.sc" horiz-adv-x="1284" 
d="M599 -19c-286 0 -471 158 -471 398v708h240v-686c0 -147 93 -227 231 -227s231 81 231 227v686h241c72 0 93 36 93 97v102h185v-126c0 -129 -75 -231 -224 -231h-55v-551c0 -240 -185 -397 -471 -397z" />
    <glyph glyph-name="Uhorngrave.sc" horiz-adv-x="1284" 
d="M599 -19c-286 0 -471 158 -471 398v708h240v-686c0 -147 93 -227 231 -227s231 81 231 227v686h241c72 0 93 36 93 97v102h185v-126c0 -129 -75 -231 -224 -231h-55v-551c0 -240 -185 -397 -471 -397zM696 1217h-169l-243 285h215z" />
    <glyph glyph-name="Uhornacute.sc" horiz-adv-x="1284" 
d="M599 -19c-286 0 -471 158 -471 398v708h240v-686c0 -147 93 -227 231 -227s231 81 231 227v686h241c72 0 93 36 93 97v102h185v-126c0 -129 -75 -231 -224 -231h-55v-551c0 -240 -185 -397 -471 -397zM671 1217h-169l197 285h215z" />
    <glyph glyph-name="Uhorndotbelow.sc" horiz-adv-x="1284" 
d="M492 -264c0 63 48 111 107 111c62 0 109 -48 109 -111c0 -61 -47 -110 -109 -110c-59 0 -107 49 -107 110zM599 -19c-286 0 -471 158 -471 398v708h240v-686c0 -147 93 -227 231 -227s231 81 231 227v686h241c72 0 93 36 93 97v102h185v-126c0 -129 -75 -231 -224 -231
h-55v-551c0 -240 -185 -397 -471 -397z" />
    <glyph glyph-name="Uhornhookabove.sc" horiz-adv-x="1284" 
d="M599 -19c-286 0 -471 158 -471 398v708h240v-686c0 -147 93 -227 231 -227s231 81 231 227v686h241c72 0 93 36 93 97v102h185v-126c0 -129 -75 -231 -224 -231h-55v-551c0 -240 -185 -397 -471 -397zM454 1448v111c21 10 60 18 108 18c130 0 213 -76 213 -185
c0 -99 -65 -157 -156 -197l-69 89c65 28 91 56 91 98c0 46 -41 84 -103 84c-34 0 -66 -10 -84 -18z" />
    <glyph glyph-name="Uhorntilde.sc" horiz-adv-x="1284" 
d="M599 -19c-286 0 -471 158 -471 398v708h240v-686c0 -147 93 -227 231 -227s231 81 231 227v686h241c72 0 93 36 93 97v102h185v-126c0 -129 -75 -231 -224 -231h-55v-551c0 -240 -185 -397 -471 -397zM713 1209c-135 0 -173 124 -244 124c-55 0 -65 -69 -65 -103h-141
c0 122 68 235 197 235c135 0 175 -125 248 -125c49 0 70 57 72 107h141c0 -117 -75 -238 -208 -238z" />
    <glyph glyph-name="V.sc" horiz-adv-x="1108" 
d="M701 0h-292l-381 1087h277l250 -841h12l246 841h267z" />
    <glyph glyph-name="Vtilde.sc" horiz-adv-x="1108" 
d="M701 0h-292l-381 1087h277l250 -841h12l246 841h267zM667 1209c-135 0 -173 124 -244 124c-55 0 -65 -69 -65 -103h-141c0 122 68 235 197 235c135 0 175 -125 248 -125c49 0 70 57 72 107h141c0 -117 -75 -238 -208 -238z" />
    <glyph glyph-name="Vdotbelow.sc" horiz-adv-x="1108" 
d="M445 -264c0 63 48 111 107 111c62 0 109 -48 109 -111c0 -61 -47 -110 -109 -110c-59 0 -107 49 -107 110zM701 0h-292l-381 1087h277l250 -841h12l246 841h267z" />
    <glyph glyph-name="W.sc" horiz-adv-x="1531" 
d="M551 0h-222l-303 1086h257l168 -773h12l200 773h206l199 -773h13l166 773h257l-302 -1086h-223l-209 740h-10z" />
    <glyph glyph-name="Wgrave.sc" horiz-adv-x="1531" 
d="M551 0h-222l-303 1086h257l168 -773h12l200 773h206l199 -773h13l166 773h257l-302 -1086h-223l-209 740h-10zM862 1217h-169l-243 285h215z" />
    <glyph glyph-name="Wacute.sc" horiz-adv-x="1531" 
d="M551 0h-222l-303 1086h257l168 -773h12l200 773h206l199 -773h13l166 773h257l-302 -1086h-223l-209 740h-10zM837 1217h-169l197 285h215z" />
    <glyph glyph-name="Wdotaccent.sc" horiz-adv-x="1531" 
d="M551 0h-222l-303 1086h257l168 -773h12l200 773h206l199 -773h13l166 773h257l-302 -1086h-223l-209 740h-10zM643 1341c0 69 54 123 120 123c69 0 123 -54 123 -123c0 -68 -54 -120 -123 -120c-66 0 -120 52 -120 120z" />
    <glyph glyph-name="Wdotbelow.sc" horiz-adv-x="1531" 
d="M551 0h-222l-303 1086h257l168 -773h12l200 773h206l199 -773h13l166 773h257l-302 -1086h-223l-209 740h-10zM657 -264c0 63 48 111 107 111c62 0 109 -48 109 -111c0 -61 -47 -110 -109 -110c-59 0 -107 49 -107 110z" />
    <glyph glyph-name="Wdieresis.sc" horiz-adv-x="1531" 
d="M551 0h-222l-303 1086h257l168 -773h12l200 773h206l199 -773h13l166 773h257l-302 -1086h-223l-209 740h-10zM587 1226c-60 0 -106 45 -106 106c0 64 46 110 106 110c62 0 107 -46 107 -110c0 -61 -45 -106 -107 -106zM957 1226c-60 0 -105 45 -105 106
c0 64 45 110 105 110c62 0 109 -46 109 -110c0 -61 -47 -106 -109 -106z" />
    <glyph glyph-name="Wcircumflex.sc" horiz-adv-x="1531" 
d="M551 0h-222l-303 1086h257l168 -773h12l200 773h206l199 -773h13l166 773h257l-302 -1086h-223l-209 740h-10zM465 1217l223 307h154l224 -307h-183l-115 177h-5l-115 -177h-183z" />
    <glyph glyph-name="X.sc" horiz-adv-x="1074" 
d="M1053 1087l-366 -545l361 -542h-274l-240 377h-11l-240 -377h-259l354 547l-352 540h283l232 -384h11l231 384h270z" />
    <glyph glyph-name="Xdotaccent.sc" horiz-adv-x="1074" 
d="M412 1341c0 69 54 123 120 123c69 0 123 -54 123 -123c0 -68 -54 -120 -123 -120c-66 0 -120 52 -120 120zM1053 1087l-366 -545l361 -542h-274l-240 377h-11l-240 -377h-259l354 547l-352 540h283l232 -384h11l231 384h270z" />
    <glyph glyph-name="Xdieresis.sc" horiz-adv-x="1074" 
d="M1053 1087l-366 -545l361 -542h-274l-240 377h-11l-240 -377h-259l354 547l-352 540h283l232 -384h11l231 384h270zM360 1226c-60 0 -106 45 -106 106c0 64 46 110 106 110c62 0 107 -46 107 -110c0 -61 -45 -106 -107 -106zM730 1226c-60 0 -105 45 -105 106
c0 64 45 110 105 110c62 0 109 -46 109 -110c0 -61 -47 -106 -109 -106z" />
    <glyph glyph-name="Y.sc" horiz-adv-x="1025" 
d="M632 0h-240v403l-386 684h265l240 -457h9l241 457h258l-387 -679v-408z" />
    <glyph glyph-name="Ygrave.sc" horiz-adv-x="1025" 
d="M609 1217h-169l-243 285h215zM632 0h-240v403l-386 684h265l240 -457h9l241 457h258l-387 -679v-408z" />
    <glyph glyph-name="Yacute.sc" horiz-adv-x="1025" 
d="M584 1217h-169l197 285h215zM632 0h-240v403l-386 684h265l240 -457h9l241 457h258l-387 -679v-408z" />
    <glyph glyph-name="Ydotaccent.sc" horiz-adv-x="1025" 
d="M390 1341c0 69 54 123 120 123c69 0 123 -54 123 -123c0 -68 -54 -120 -123 -120c-66 0 -120 52 -120 120zM632 0h-240v403l-386 684h265l240 -457h9l241 457h258l-387 -679v-408z" />
    <glyph glyph-name="Ydotbelow.sc" horiz-adv-x="1025" 
d="M406 -264c0 63 48 111 107 111c62 0 109 -48 109 -111c0 -61 -47 -110 -109 -110c-59 0 -107 49 -107 110zM632 0h-240v403l-386 684h265l240 -457h9l241 457h258l-387 -679v-408z" />
    <glyph glyph-name="Ydieresis.sc" horiz-adv-x="1025" 
d="M632 0h-240v403l-386 684h265l240 -457h9l241 457h258l-387 -679v-408zM334 1226c-60 0 -106 45 -106 106c0 64 46 110 106 110c62 0 107 -46 107 -110c0 -61 -45 -106 -107 -106zM704 1226c-60 0 -105 45 -105 106c0 64 45 110 105 110c62 0 109 -46 109 -110
c0 -61 -47 -106 -109 -106z" />
    <glyph glyph-name="Ytilde.sc" horiz-adv-x="1025" 
d="M632 0h-240v403l-386 684h265l240 -457h9l241 457h258l-387 -679v-408zM626 1209c-135 0 -173 124 -244 124c-55 0 -65 -69 -65 -103h-141c0 122 68 235 197 235c135 0 175 -125 248 -125c49 0 70 57 72 107h141c0 -117 -75 -238 -208 -238z" />
    <glyph glyph-name="Ycircumflex.sc" horiz-adv-x="1025" 
d="M212 1217l223 307h154l224 -307h-183l-115 177h-5l-115 -177h-183zM632 0h-240v403l-386 684h265l240 -457h9l241 457h258l-387 -679v-408z" />
    <glyph glyph-name="Ymacron.sc" horiz-adv-x="1025" 
d="M632 0h-240v403l-386 684h265l240 -457h9l241 457h258l-387 -679v-408zM798 1261h-572v140h572v-140z" />
    <glyph glyph-name="Yhookabove.sc" horiz-adv-x="1025" 
d="M632 0h-240v403l-386 684h265l240 -457h9l241 457h258l-387 -679v-408zM367 1448v111c21 10 60 18 108 18c130 0 213 -76 213 -185c0 -99 -65 -157 -156 -197l-69 89c65 28 91 56 91 98c0 46 -41 84 -103 84c-34 0 -66 -10 -84 -18z" />
    <glyph glyph-name="Z.sc" horiz-adv-x="1042" 
d="M93 0v148l550 740v13h-536v186h826v-148l-548 -742v-11h564v-186h-856z" />
    <glyph glyph-name="Zacute.sc" horiz-adv-x="1042" 
d="M592 1217h-169l197 285h215zM93 0v148l550 740v13h-536v186h826v-148l-548 -742v-11h564v-186h-856z" />
    <glyph glyph-name="Zcaron.sc" horiz-adv-x="1042" 
d="M219 1524h183l116 -177h4l116 177h183l-224 -307h-154zM93 0v148l550 740v13h-536v186h826v-148l-548 -742v-11h564v-186h-856z" />
    <glyph glyph-name="Zcircumflex.sc" horiz-adv-x="1042" 
d="M220 1217l223 307h154l224 -307h-183l-115 177h-5l-115 -177h-183zM93 0v148l550 740v13h-536v186h826v-148l-548 -742v-11h564v-186h-856z" />
    <glyph glyph-name="Zlinebelow.sc" horiz-adv-x="1042" 
d="M806 -348h-572v140h572v-140zM93 0v148l550 740v13h-536v186h826v-148l-548 -742v-11h564v-186h-856z" />
    <glyph glyph-name="Zdotbelow.sc" horiz-adv-x="1042" 
d="M414 -264c0 63 48 111 107 111c62 0 109 -48 109 -111c0 -61 -47 -110 -109 -110c-59 0 -107 49 -107 110zM93 0v148l550 740v13h-536v186h826v-148l-548 -742v-11h564v-186h-856z" />
    <glyph glyph-name="Zdotaccent.sc" horiz-adv-x="1042" 
d="M398 1341c0 69 54 123 120 123c69 0 123 -54 123 -123c0 -68 -54 -120 -123 -120c-66 0 -120 52 -120 120zM93 0v148l550 740v13h-536v186h826v-148l-548 -742v-11h564v-186h-856z" />
    <glyph glyph-name="AE.sc" horiz-adv-x="1649" 
d="M736 903l-225 -458h286v458h-61zM797 272h-364l-142 -272h-263l559 1087h954v-184h-514v-267h483v-174h-483v-278h514v-184h-744v272z" />
    <glyph glyph-name="AEmacron.sc" horiz-adv-x="1649" 
d="M736 903l-225 -458h286v458h-61zM797 272h-364l-142 -272h-263l559 1087h954v-184h-514v-267h483v-174h-483v-278h514v-184h-744v272zM1446 1261h-572v140h572v-140z" />
    <glyph glyph-name="AEacute.sc" horiz-adv-x="1649" 
d="M1232 1217h-169l197 285h215zM736 903l-225 -458h286v458h-61zM797 272h-364l-142 -272h-263l559 1087h954v-184h-514v-267h483v-174h-483v-278h514v-184h-744v272z" />
    <glyph glyph-name="OE.sc" horiz-adv-x="1706" 
d="M347 610v-140c0 -204 107 -303 256 -303s257 93 257 297v154c0 203 -108 300 -257 300s-256 -105 -256 -308zM559 -20c-287 0 -464 190 -464 493v133c0 324 192 501 466 501c136 0 250 -45 309 -133h14v113h714v-184h-508v-267h478v-174h-478v-278h508v-184h-714v115h-14
c-58 -83 -168 -135 -311 -135z" />
    <glyph glyph-name="Eth.sc" horiz-adv-x="1247" 
d="M647 0h-429v453h-140v197h140v437h429c372 0 517 -221 517 -541c0 -319 -144 -546 -517 -546zM457 188h155c191 0 304 92 304 358c0 204 -70 360 -304 360h-155v-256h202v-197h-202v-265z" />
    <glyph glyph-name="Thorn.sc" horiz-adv-x="1061" 
d="M142 1087h239v-180h220c252 0 394 -145 394 -349c0 -208 -144 -348 -396 -348h-217v-210h-240v1087zM381 727v-339h152c124 0 218 34 218 170c0 116 -75 169 -199 169h-171z" />
    <glyph glyph-name="Alphagreek.sc" horiz-adv-x="1118" 
d="M278 0h-244l383 1087h286l381 -1087h-257l-86 270h-376zM559 870h-10l-137 -430h282z" />
    <glyph glyph-name="Betagreek.sc" horiz-adv-x="1112" 
d="M142 0v1087h489c208 0 344 -100 344 -267c0 -134 -86 -214 -199 -238v-10c135 -12 257 -99 257 -264c0 -196 -169 -308 -401 -308h-490zM382 917v-279h146c146 0 210 53 210 142c0 85 -60 137 -165 137h-191zM382 482v-312h164c171 0 242 54 242 153
c0 98 -70 159 -201 159h-205z" />
    <glyph glyph-name="Gammagreek.sc" horiz-adv-x="936" 
d="M384 0h-242v1087h727v-189h-485v-898z" />
    <glyph glyph-name="Deltagreek.sc" horiz-adv-x="1129" 
d="M64 0v119l358 968h287l357 -968v-119h-1002zM554 862l-241 -693h491l-239 693h-11z" />
    <glyph glyph-name="Epsilongreek.sc" horiz-adv-x="1001" 
d="M893 186v-187h-751v1087h751v-186h-511v-265h480v-174h-480v-275h511z" />
    <glyph glyph-name="Zetagreek.sc" horiz-adv-x="1042" 
d="M93 0v150l547 740v10h-533v187h826v-149l-545 -741v-10h561v-187h-856z" />
    <glyph glyph-name="Etagreek.sc" horiz-adv-x="1236" 
d="M1094 0h-242v459h-468v-459h-242v1087h242v-438h468v438h242v-1087z" />
    <glyph glyph-name="Thetagreek.sc" horiz-adv-x="1240" 
d="M808 453h-377v182h377v-182zM337 614v-147c0 -192 118 -293 283 -293c164 0 282 98 282 293v147c0 198 -117 299 -282 299c-169 0 -283 -106 -283 -299zM95 472v135c0 313 204 500 525 500c322 0 524 -185 524 -500v-135c0 -312 -204 -492 -525 -492
c-322 0 -524 182 -524 492z" />
    <glyph glyph-name="Iotagreek.sc" horiz-adv-x="526" 
d="M384 0h-242v1087h242v-1087z" />
    <glyph glyph-name="Kappagreek.sc" horiz-adv-x="1117" 
d="M1084 1087l-408 -469l425 -618h-290l-313 464l-114 -122v-342h-242v1087h242v-479h11l425 479h264z" />
    <glyph glyph-name="Lambdagreek.sc" horiz-adv-x="1097" 
d="M538 842l-256 -842h-245l369 1087h287l368 -1087h-259l-253 842h-11z" />
    <glyph glyph-name="Mugreek.sc" horiz-adv-x="1428" 
d="M360 0h-215v1087h246l320 -674h8l320 674h246v-1087h-219v704h-10l-266 -559h-152l-268 559h-10v-704z" />
    <glyph glyph-name="Nugreek.sc" horiz-adv-x="1214" 
d="M367 0h-225v1087h199l497 -697h8v697h225v-1087h-197l-499 702h-8v-702z" />
    <glyph glyph-name="Xigreek.sc" horiz-adv-x="1036" 
d="M108 895v192h819v-192h-819zM181 458v179h673v-179h-673zM108 0v192h819v-192h-819z" />
    <glyph glyph-name="Omicrongreek.sc" horiz-adv-x="1190" 
d="M342 610v-139c0 -202 105 -301 253 -301s253 99 253 301v139c0 202 -105 307 -253 307s-253 -105 -253 -307zM95 472v135c0 309 189 500 501 500c313 0 498 -192 498 -500v-135c0 -306 -187 -492 -500 -492c-312 0 -499 186 -499 492z" />
    <glyph glyph-name="Pigreek.sc" horiz-adv-x="1219" 
d="M1077 0h-242v897h-451v-897h-242v1087h935v-1087z" />
    <glyph glyph-name="Rhogreek.sc" horiz-adv-x="1063" 
d="M142 1087h468c252 0 394 -163 394 -367c0 -207 -144 -364 -396 -364h-224v-356h-242v1087zM383 906v-372h130c152 0 244 45 244 186c0 119 -74 186 -197 186h-177z" />
    <glyph glyph-name="Sigmagreek.sc" horiz-adv-x="1025" 
d="M93 133l307 414l-302 391v149h827v-187h-516v-10l250 -326v-24l-259 -343v-10h532v-187h-839v133z" />
    <glyph glyph-name="Taugreek.sc" horiz-adv-x="959" 
d="M600 0h-242v896h-324v191h890v-191h-324v-896z" />
    <glyph glyph-name="Upsilongreek.sc" horiz-adv-x="1027" 
d="M634 0h-241v402l-386 685h267l238 -457h8l240 457h260l-386 -680v-407z" />
    <glyph glyph-name="Phigreek.sc" horiz-adv-x="1421" 
d="M820 -55h-219v87c-330 7 -506 202 -506 489v38c0 287 176 479 506 488v92h219v-92c330 -9 505 -202 505 -490v-35c0 -286 -175 -483 -505 -490v-87zM605 207v665c-172 -6 -269 -120 -269 -307v-53c0 -193 103 -298 269 -305zM816 207c166 7 270 112 270 305v53
c0 187 -98 301 -270 307v-665z" />
    <glyph glyph-name="Chigreek.sc" horiz-adv-x="1053" 
d="M1042 1087l-365 -545l360 -542h-277l-237 376h-11l-238 -376h-261l353 547l-351 540h285l230 -383h11l229 383h272z" />
    <glyph glyph-name="Psigreek.sc" horiz-adv-x="1347" 
d="M559 0v228c-273 10 -434 127 -434 394v465h229v-466c0 -147 65 -203 205 -209v675h229v-675c140 7 206 62 206 209v466h229v-465c0 -267 -162 -384 -435 -394v-228h-229z" />
    <glyph glyph-name="Omegagreek.sc" horiz-adv-x="1247" 
d="M700 0v233c99 30 179 165 179 329v59c0 197 -108 296 -256 296c-149 0 -255 -101 -255 -296v-59c0 -162 78 -298 179 -329v-233h-449v195h202v12c-100 56 -178 193 -178 357v63c0 308 194 480 501 480c309 0 502 -172 502 -480v-63c0 -165 -79 -302 -178 -357v-12h202
v-195h-449z" />
    <glyph glyph-name="Alphatonosgreek.sc" horiz-adv-x="1203" 
d="M362 0h-243l382 1087h287l380 -1087h-257l-86 270h-376zM643 870h-10l-136 -430h281zM58 817l67 270h209l-117 -270h-159z" />
    <glyph glyph-name="Epsilontonosgreek.sc" horiz-adv-x="1293" 
d="M1185 186v-187h-751v1087h751v-186h-511v-265h480v-174h-480v-275h511zM46 817l67 270h210l-118 -270h-159z" />
    <glyph glyph-name="Etatonosgreek.sc" horiz-adv-x="1528" 
d="M1386 0h-242v459h-468v-459h-242v1087h242v-438h468v438h242v-1087zM46 817l67 270h210l-118 -270h-159z" />
    <glyph glyph-name="Iotatonosgreek.sc" horiz-adv-x="818" 
d="M676 0h-242v1087h242v-1087zM46 817l67 270h210l-118 -270h-159z" />
    <glyph glyph-name="Iotadieresisgreek.sc" horiz-adv-x="526" 
d="M384 0h-242v1087h242v-1087zM112 1173c-50 0 -89 38 -89 87c0 51 39 89 89 89c53 0 94 -38 94 -89c0 -49 -41 -87 -94 -87zM409 1173c-50 0 -90 38 -90 87c0 51 40 89 90 89c53 0 94 -38 94 -89c0 -49 -41 -87 -94 -87z" />
    <glyph glyph-name="Omicrontonosgreek.sc" horiz-adv-x="1392" 
d="M544 610v-139c0 -202 105 -301 253 -301s253 99 253 301v139c0 202 -105 307 -253 307s-253 -105 -253 -307zM298 472v135c0 309 188 500 500 500c313 0 498 -192 498 -500v-135c0 -306 -187 -492 -500 -492s-498 186 -498 492zM46 817l67 270h210l-118 -270h-159z" />
    <glyph glyph-name="Upsilontonosgreek.sc" horiz-adv-x="1416" 
d="M1024 0h-241v402l-386 685h266l239 -457h8l239 457h260l-385 -680v-407zM46 817l67 270h210l-118 -270h-159z" />
    <glyph glyph-name="Upsilondieresisgreek.sc" horiz-adv-x="1027" 
d="M634 0h-241v402l-386 685h267l238 -457h8l240 457h260l-386 -680v-407zM363 1173c-51 0 -90 38 -90 87c0 51 39 89 90 89c53 0 94 -38 94 -89c0 -49 -41 -87 -94 -87zM660 1173c-51 0 -90 38 -90 87c0 51 39 89 90 89c53 0 93 -38 93 -89c0 -49 -40 -87 -93 -87z" />
    <glyph glyph-name="Omegatonosgreek.sc" horiz-adv-x="1419" 
d="M873 0v233c98 30 178 165 178 329v59c0 197 -108 296 -255 296c-150 0 -256 -101 -256 -296v-59c0 -162 78 -298 179 -329v-233h-449v195h203v12c-101 56 -179 193 -179 357v63c0 308 194 480 502 480s501 -172 501 -480v-63c0 -165 -79 -302 -178 -357v-12h202v-195
h-448zM46 817l67 270h210l-118 -270h-159z" />
    <glyph glyph-name="Acyrillic.sc" horiz-adv-x="1135" 
d="M286 0h-243l382 1087h287l381 -1087h-258l-86 270h-376zM568 870h-11l-137 -430h282z" />
    <glyph glyph-name="Becyrillic.sc" horiz-adv-x="1091" 
d="M392 898v-219h220c253 0 396 -144 396 -335c0 -193 -141 -344 -393 -344h-465v1087h752v-189h-510zM391 181h182c118 0 188 59 188 162s-70 162 -188 162h-182v-324z" />
    <glyph glyph-name="Vecyrillic.sc" horiz-adv-x="1129" 
d="M150 0v1087h490c207 0 344 -100 344 -267c0 -134 -86 -214 -200 -238v-10c136 -12 258 -99 258 -264c0 -196 -170 -308 -401 -308h-491zM391 917v-279h145c146 0 210 53 210 142c0 85 -60 137 -164 137h-191zM391 482v-312h163c172 0 242 54 242 153
c0 98 -70 159 -200 159h-205z" />
    <glyph glyph-name="Gecyrillic.sc" horiz-adv-x="968" 
d="M392 0h-242v1087h740v-189h-498v-898z" />
    <glyph glyph-name="Decyrillic.sc" horiz-adv-x="1282" 
d="M840 190v707h-354l-10 -246c-9 -229 -19 -369 -84 -451v-10h448zM261 -228h-215v418h93c93 61 108 181 118 493l14 404h807v-897h143v-418h-215v228h-745v-228z" />
    <glyph glyph-name="Iecyrillic.sc" horiz-adv-x="1017" 
d="M901 187v-187h-751v1087h751v-187h-510v-264h480v-174h-480v-275h510z" />
    <glyph glyph-name="Iocyrillic.sc" horiz-adv-x="1017" 
d="M901 187v-187h-751v1087h751v-187h-510v-264h480v-174h-480v-275h510zM368 1173c-51 0 -89 38 -89 87c0 51 38 89 89 89c52 0 94 -38 94 -89c0 -49 -42 -87 -94 -87zM665 1173c-51 0 -90 38 -90 87c0 51 39 89 90 89c53 0 93 -38 93 -89c0 -49 -40 -87 -93 -87z" />
    <glyph glyph-name="Zhecyrillic.sc" horiz-adv-x="1662" 
d="M1169 570l457 -570h-285l-382 467h-10v-467h-233v467h-10l-381 -467h-281l453 563l-461 524h280l390 -446h10v446h233v-446h10l391 446h274z" />
    <glyph glyph-name="Zecyrillic.sc" horiz-adv-x="1064" 
d="M382 471v176h143c108 0 181 54 181 141s-75 144 -182 144c-117 0 -192 -69 -196 -158h-224c7 190 155 333 425 333c254 0 413 -126 413 -294c0 -127 -94 -217 -227 -236v-13c151 -13 261 -116 261 -253c0 -202 -176 -332 -450 -332c-266 0 -435 142 -441 340h221
c6 -93 91 -161 223 -161c126 0 207 61 207 158c0 100 -82 155 -212 155h-142z" />
    <glyph glyph-name="Iicyrillic.sc" horiz-adv-x="1253" 
d="M868 0v731h-10l-486 -731h-222v1087h234v-731h11l486 731h221v-1087h-234z" />
    <glyph glyph-name="Iishortcyrillic.sc" horiz-adv-x="1253" 
d="M868 0v731h-10l-486 -731h-222v1087h234v-731h11l486 731h221v-1087h-234zM351 1418h138c0 -74 47 -124 147 -124s147 50 147 124h137c0 -139 -100 -237 -284 -237c-183 0 -285 97 -285 237z" />
    <glyph glyph-name="Kacyrillic.sc" horiz-adv-x="1138" 
d="M811 0l-408 467h-11v-467h-242v1087h242v-446h11l417 446h279l-485 -516l489 -571h-292z" />
    <glyph glyph-name="Elcyrillic.sc" horiz-adv-x="1190" 
d="M246 683l7 404h786v-1087h-242v897h-324l-7 -248c-14 -479 -74 -661 -325 -661c-42 0 -74 7 -85 12v198c6 -2 24 -6 43 -6c116 0 140 138 147 491z" />
    <glyph glyph-name="Emcyrillic.sc" horiz-adv-x="1441" 
d="M366 0h-216v1087h248l320 -674h7l319 674h246v-1087h-217v704h-10l-267 -559h-152l-268 559h-10v-704z" />
    <glyph glyph-name="Encyrillic.sc" horiz-adv-x="1253" 
d="M1102 0h-242v459h-468v-459h-242v1087h242v-438h468v438h242v-1087z" />
    <glyph glyph-name="Ocyrillic.sc" horiz-adv-x="1207" 
d="M351 610v-139c0 -202 104 -301 253 -301c148 0 253 99 253 301v139c0 202 -105 307 -253 307c-149 0 -253 -105 -253 -307zM104 472v135c0 309 188 500 501 500s498 -192 498 -500v-135c0 -306 -187 -492 -500 -492s-499 186 -499 492z" />
    <glyph glyph-name="Pecyrillic.sc" horiz-adv-x="1236" 
d="M1085 0h-242v897h-451v-897h-242v1087h935v-1087z" />
    <glyph glyph-name="Ercyrillic.sc" horiz-adv-x="1084" 
d="M150 1087h469c252 0 393 -163 393 -367c0 -207 -143 -364 -396 -364h-224v-356h-242v1087zM391 906v-372h130c153 0 245 45 245 186c0 119 -75 186 -197 186h-178z" />
    <glyph glyph-name="Escyrillic.sc" horiz-adv-x="1146" 
d="M350 603v-123c0 -198 88 -307 243 -307c136 0 221 86 223 205h233v-24c0 -222 -193 -374 -458 -374c-311 0 -487 191 -487 501v122c0 311 176 504 487 504c266 0 458 -155 458 -385v-24h-233c-2 126 -87 216 -223 216c-155 0 -243 -111 -243 -311z" />
    <glyph glyph-name="Tecyrillic.sc" horiz-adv-x="976" 
d="M608 0h-241v896h-324v191h889v-191h-324v-896z" />
    <glyph glyph-name="Ucyrillic.sc" horiz-adv-x="1042" 
d="M776 1087h251l-368 -783c-101 -216 -199 -316 -385 -316c-62 0 -107 10 -114 12v188c8 -3 43 -9 84 -9c68 0 122 26 171 102l-399 806h264l251 -560h9z" />
    <glyph glyph-name="Efcyrillic.sc" horiz-adv-x="1452" 
d="M840 -8h-234v123c-323 11 -508 164 -508 428v9c0 266 186 422 508 433v110h234v-110c326 -9 513 -162 513 -427v-11c0 -266 -187 -422 -513 -433v-122zM333 543c0 -161 100 -242 278 -248v510c-177 -7 -278 -91 -278 -253v-9zM1117 558c0 161 -101 242 -281 247v-511
c179 7 281 91 281 253v11z" />
    <glyph glyph-name="Xacyrillic.sc" horiz-adv-x="1070" 
d="M1050 1087l-364 -545l360 -542h-277l-238 376h-10l-239 -376h-261l354 547l-352 540h285l231 -383h10l229 383h272z" />
    <glyph glyph-name="Tsecyrillic.sc" horiz-adv-x="1294" 
d="M1090 190h143v-418h-215v228h-170h-698v1087h242v-897h456v897h242v-897z" />
    <glyph glyph-name="Checyrillic.sc" horiz-adv-x="1197" 
d="M1047 0h-242v462h-10c-25 -13 -128 -65 -261 -65c-258 0 -406 136 -406 380v310h242v-299c0 -134 72 -201 214 -201c117 0 205 55 221 66v434h242v-1087z" />
    <glyph glyph-name="Shacyrillic.sc" horiz-adv-x="1699" 
d="M150 0v1087h242v-897h336v897h242v-897h337v897h242v-1087h-1399z" />
    <glyph glyph-name="Shchacyrillic.sc" horiz-adv-x="1753" 
d="M1692 -228h-215v228h-1327v1087h242v-897h336v897h242v-897h337v897h242v-897h143v-418z" />
    <glyph glyph-name="Hardsigncyrillic.sc" horiz-adv-x="1241" 
d="M772 0h-469v897h-250v190h492v-356h224c253 0 396 -157 396 -363c0 -205 -141 -368 -393 -368zM722 181c123 0 197 67 197 185c0 119 -74 187 -197 187h-179v-372h179z" />
    <glyph glyph-name="Yericyrillic.sc" horiz-adv-x="1501" 
d="M1010 368c0 -205 -141 -368 -393 -368h-467v1087h242v-356h222c253 0 396 -157 396 -363zM567 553h-177v-372h177c122 0 197 67 197 185c0 119 -75 187 -197 187zM1351 0h-242v1087h242v-1087z" />
    <glyph glyph-name="Softsigncyrillic.sc" horiz-adv-x="1088" 
d="M619 0h-469v1087h242v-356h224c253 0 396 -157 396 -363c0 -205 -141 -368 -393 -368zM569 181c122 0 197 67 197 185c0 119 -75 187 -197 187h-179v-372h179z" />
    <glyph glyph-name="Ereversedcyrillic.sc" horiz-adv-x="1151" 
d="M558 -20c-294 0 -460 177 -460 374v9h233c5 -100 76 -190 223 -190c144 0 239 87 246 271v20h-406v173h406v3c-8 181 -103 274 -244 274c-147 0 -219 -100 -225 -195h-233v3c0 210 172 385 460 385c306 0 488 -189 488 -500v-131c0 -313 -180 -496 -488 -496z" />
    <glyph glyph-name="IUcyrillic.sc" horiz-adv-x="1625" 
d="M1274 471v139c0 202 -101 307 -244 307s-244 -105 -244 -307v-139c0 -202 101 -301 244 -301s244 99 244 301zM392 649h153c16 284 195 458 486 458c308 0 490 -192 490 -500v-135c0 -306 -184 -492 -492 -492c-301 0 -480 181 -485 479h-152v-459h-242v1087h242v-438z
" />
    <glyph glyph-name="IAcyrillic.sc" horiz-adv-x="1135" 
d="M558 564h189v344h-189c-128 0 -202 -60 -202 -172s74 -172 202 -172zM743 388h-166l-234 -388h-265l263 428c-146 46 -230 160 -230 307c0 199 142 352 406 352h468v-1087h-242v388z" />
    <glyph glyph-name="Djecyrillic.sc" horiz-adv-x="1344" 
d="M618 605c54 37 164 65 252 65c241 0 383 -127 383 -342c0 -207 -144 -341 -362 -341c-52 0 -103 6 -123 13v177c16 -4 50 -6 82 -6c95 0 161 62 161 151c0 107 -67 164 -192 164c-77 0 -166 -28 -210 -67v-419h-242v896h-324v191h889v-191h-323v-291h9z" />
    <glyph glyph-name="Gjecyrillic.sc" horiz-adv-x="968" 
d="M392 0h-242v1087h740v-189h-498v-898zM595 1197h-164l175 234h203z" />
    <glyph glyph-name="Ecyrillic.sc" horiz-adv-x="1151" 
d="M1052 719h-233c-6 95 -77 195 -225 195c-140 0 -236 -93 -245 -277h408v-173h-409c4 -197 100 -291 249 -291c147 0 218 90 223 190h232v-9c0 -197 -165 -374 -460 -374c-307 0 -488 183 -488 496v131c0 311 183 500 489 500c287 0 459 -175 459 -385v-3z" />
    <glyph glyph-name="Dzecyrillic.sc" horiz-adv-x="1089" 
d="M81 312h232c7 -80 85 -152 231 -152c137 0 210 57 210 141c0 74 -59 111 -176 136l-174 37c-161 32 -296 118 -296 303c0 213 192 332 436 332c255 0 429 -134 432 -326h-226c-7 77 -73 147 -208 147c-119 0 -192 -52 -192 -135c0 -63 54 -105 157 -125l175 -37
c169 -34 311 -112 311 -309c0 -213 -176 -344 -461 -344c-338 0 -448 179 -451 332z" />
    <glyph glyph-name="Icyrillic.sc" horiz-adv-x="543" 
d="M392 0h-242v1087h242v-1087z" />
    <glyph glyph-name="Yicyrillic.sc" horiz-adv-x="535" 
d="M388 0h-242v1087h242v-1087zM116 1173c-50 0 -89 38 -89 87c0 51 39 89 89 89c53 0 94 -38 94 -89c0 -49 -41 -87 -94 -87zM414 1173c-51 0 -90 38 -90 87c0 51 39 89 90 89c52 0 93 -38 93 -89c0 -49 -41 -87 -93 -87z" />
    <glyph glyph-name="Jecyrillic.sc" horiz-adv-x="974" 
d="M53 322h233c2 -83 54 -139 150 -139c107 0 153 61 153 177v727h242v-730c0 -248 -146 -377 -393 -377c-258 0 -385 160 -385 342z" />
    <glyph glyph-name="Ljecyrillic.sc" horiz-adv-x="1721" 
d="M466 649c-15 -479 -75 -661 -325 -661c-44 0 -75 7 -85 12v198c8 -3 25 -6 43 -6c115 0 142 138 147 491l6 404h773v-356h224c253 0 395 -157 395 -363c0 -205 -141 -368 -393 -368h-468v897h-310zM1201 553h-179v-372h179c123 0 197 67 197 185c0 119 -74 187 -197 187z
" />
    <glyph glyph-name="Njecyrillic.sc" horiz-adv-x="1798" 
d="M860 683v404h242v-404h222c254 0 397 -141 397 -338s-142 -345 -395 -345h-466v493h-468v-493h-242v1087h242v-404h468zM1282 505h-184v-324h184c120 0 193 55 193 162c0 109 -73 162 -193 162z" />
    <glyph glyph-name="Tshecyrillic.sc" horiz-adv-x="1390" 
d="M618 605c51 35 161 65 248 65c244 0 383 -135 383 -371v-299h-242v287c0 131 -65 198 -194 198c-73 0 -160 -29 -204 -67v-418h-242v896h-324v191h889v-191h-323v-291h9z" />
    <glyph glyph-name="Kjecyrillic.sc" horiz-adv-x="1138" 
d="M811 0l-408 467h-11v-467h-242v1087h242v-446h11l417 446h279l-485 -516l489 -571h-292zM678 1197h-163l174 234h203z" />
    <glyph glyph-name="Ushortcyrillic.sc" horiz-adv-x="1042" 
d="M679 1411h138c0 -139 -101 -237 -285 -237c-183 0 -285 98 -285 237h138c0 -74 47 -123 147 -123s147 49 147 123zM776 1087h251l-368 -783c-101 -216 -199 -316 -385 -316c-62 0 -107 10 -114 12v188c8 -3 43 -9 84 -9c68 0 122 26 171 102l-399 806h264l251 -560h9z
" />
    <glyph glyph-name="Dzhecyrillic.sc" horiz-adv-x="1244" 
d="M852 1087h242v-1087h-364v-228h-215v228h-365v1087h242v-897h460v897z" />
    <glyph glyph-name="Geupturncyrillic.sc" horiz-adv-x="968" 
d="M675 1315h215v-228v-189h-498v-898h-242v1087h525v228z" />
    <glyph glyph-name="zero.sc" horiz-adv-x="1092" 
d="M343 567v-47c0 -232 81 -355 203 -355s204 124 204 355v47c0 232 -82 355 -204 355s-203 -122 -203 -355zM103 519v49c0 320 163 539 445 539c284 0 441 -217 441 -539v-49c0 -305 -151 -539 -445 -539c-284 0 -441 219 -441 539z" />
    <glyph glyph-name="one.sc" horiz-adv-x="842" 
d="M623 0h-238v870h-9c-53 -31 -194 -127 -264 -180v216c58 45 209 144 273 181h238v-1087z" />
    <glyph glyph-name="two.sc" horiz-adv-x="1017" 
d="M334 758h-227v12c0 166 128 337 400 337c242 0 399 -132 399 -305c0 -152 -104 -245 -203 -346l-256 -261v-11h478v-184h-806v142l421 421c62 61 129 129 129 217c0 84 -71 145 -167 145c-105 0 -168 -72 -168 -154v-13z" />
    </font>
</defs>
</svg>
