<?xml version="1.0" standalone="no"?>
<!DOCTYPE svg PUBLIC "-//W3C//DTD SVG 1.1//EN" "https://www.w3.org/Graphics/SVG/1.1/DTD/svg11.dtd" >
<svg xmlns="https://www.w3.org/2000/svg" xmlns:xlink="https://www.w3.org/1999/xlink" version="1.1">
<metadata>
Created by FontForge 20190801 at Sat Aug  8 01:54:47 2015
 By Jimmy Wärting
(c) 2014 Apple Inc. All rights reserved.
</metadata>
<defs>
<font id="SFCompactDisplay-Black" horiz-adv-x="1800" >
  <font-face 
    font-family="SF Compact Display"
    font-weight="900"
    font-stretch="normal"
    units-per-em="2048"
    panose-1="2 11 10 4 3 2 2 6 2 4"
    ascent="1638"
    descent="-410"
    x-height="1078"
    cap-height="1365"
    bbox="-677 -574 2242 1981"
    underline-thickness="50"
    underline-position="-100"
    stemh="335"
    stemv="420"
    unicode-range="U+0020-1F189"
  />
<missing-glyph horiz-adv-x="2048" 
d="M100 -494v128h1848v-128h-1848zM100 -31v128h1848v-128h-1848zM100 432v129h1848v-129h-1848zM100 896v128h1848v-128h-1848zM100 1359v128h1848v-128h-1848zM100 1822v128h1848v-128h-1848z" />
    <glyph glyph-name=".notdef" horiz-adv-x="2048" 
d="M100 -494v128h1848v-128h-1848zM100 -31v128h1848v-128h-1848zM100 432v129h1848v-129h-1848zM100 896v128h1848v-128h-1848zM100 1359v128h1848v-128h-1848zM100 1822v128h1848v-128h-1848z" />
    <glyph glyph-name=".null" horiz-adv-x="0" 
 />
    <glyph glyph-name="nonmarkingreturn" horiz-adv-x="0" 
 />
    <glyph glyph-name="space" unicode=" " horiz-adv-x="392" 
 />
    <glyph glyph-name="A" unicode="A" horiz-adv-x="1356" 
d="M415 0h-415l414 1365h532l410 -1365h-448l-59 258h-373zM676 1018h-21l-110 -465h237z" />
    <glyph glyph-name="Agrave" unicode="&#xc0;" horiz-adv-x="1354" 
d="M415 0h-415l414 1365h532l410 -1365h-448l-59 258h-373zM676 1018h-21l-110 -465h237zM825 1493h-268l-286 318h321z" />
    <glyph glyph-name="Aacute" unicode="&#xc1;" horiz-adv-x="1354" 
d="M415 0h-415l414 1365h532l410 -1365h-448l-59 258h-373zM676 1018h-21l-110 -465h237zM797 1493h-268l233 318h321z" />
    <glyph glyph-name="Adieresis" unicode="&#xc4;" horiz-adv-x="1356" 
d="M415 0h-415l414 1365h532l410 -1365h-448l-59 258h-373zM676 1018h-21l-110 -465h237zM474 1448c-74 0 -129 57 -129 132s55 135 129 135c76 0 138 -60 138 -135s-62 -132 -138 -132zM879 1448c-74 0 -131 57 -131 132s57 135 131 135c76 0 136 -60 136 -135
s-60 -132 -136 -132z" />
    <glyph glyph-name="Adieresismacron" unicode="&#x1de;" horiz-adv-x="1356" 
d="M415 0h-415l414 1365h532l410 -1365h-448l-59 258h-373zM676 1018h-21l-110 -465h237zM472 1448c-74 0 -129 57 -129 132s55 135 129 135c76 0 138 -60 138 -135s-62 -132 -138 -132zM877 1448c-74 0 -131 57 -131 132s57 135 131 135c76 0 136 -60 136 -135
s-60 -132 -136 -132zM998 1777h-640v168h640v-168z" />
    <glyph glyph-name="Aring" unicode="&#xc5;" horiz-adv-x="1356" 
d="M415 0h-415l414 1365h532l410 -1365h-448l-59 258h-373zM676 1018h-21l-110 -465h237zM678 1425c-144 0 -252 97 -252 242c0 144 107 239 252 239s251 -95 251 -239c0 -145 -107 -242 -251 -242zM595 1665c0 -48 34 -81 82 -81s83 33 83 81s-35 82 -83 82
s-82 -34 -82 -82z" />
    <glyph glyph-name="Aringacute" unicode="&#x1fa;" horiz-adv-x="1356" 
d="M415 0h-415l414 1365h532l410 -1365h-448l-59 258h-373zM676 1018h-21l-110 -465h237zM512 1803l58 137h361l-87 -137h-332zM678 1397c-113 0 -199 77 -199 189c0 111 85 186 199 186c113 0 198 -75 198 -186c0 -112 -85 -189 -198 -189zM616 1584c0 -34 26 -59 61 -59
s62 25 62 59c0 35 -27 60 -62 60s-61 -25 -61 -60z" />
    <glyph glyph-name="Atilde" unicode="&#xc3;" horiz-adv-x="1354" 
d="M415 0h-415l414 1365h532l410 -1365h-448l-59 258h-373zM676 1018h-21l-110 -465h237zM797 1467c-141 0 -170 108 -231 108c-35 0 -62 -34 -65 -82h-182c0 114 77 247 231 247c139 0 185 -108 248 -108c40 0 59 43 59 93h182c0 -151 -103 -258 -242 -258z" />
    <glyph glyph-name="Abrevegrave" unicode="&#x1eb0;" horiz-adv-x="1356" 
d="M415 0h-415l414 1365h532l410 -1365h-448l-59 258h-373zM676 1018h-21l-110 -465h237zM998 1753c0 -190 -124 -292 -320 -292s-325 101 -325 292h187c0 -76 46 -115 138 -115s137 39 137 115h183zM810 1756h-238l-226 189h291z" />
    <glyph glyph-name="Adotmacron" unicode="&#x1e0;" horiz-adv-x="1356" 
d="M415 0h-415l414 1365h532l410 -1365h-448l-59 258h-373zM676 1018h-21l-110 -465h237zM528 1579c0 83 66 146 150 146s150 -63 150 -146s-66 -143 -150 -143s-150 60 -150 143zM998 1777h-640v168h640v-168z" />
    <glyph glyph-name="Aringbelow" unicode="&#x1e00;" horiz-adv-x="1356" 
d="M415 0h-415l414 1365h532l410 -1365h-448l-59 258h-373zM676 1018h-21l-110 -465h237zM678 -574c-144 0 -252 97 -252 242c0 144 107 239 252 239s251 -95 251 -239c0 -145 -107 -242 -251 -242zM595 -334c0 -48 34 -81 82 -81s83 33 83 81s-35 82 -83 82
s-82 -34 -82 -82z" />
    <glyph glyph-name="Acircumflex" unicode="&#xc2;" horiz-adv-x="1356" 
d="M415 0h-415l414 1365h532l410 -1365h-448l-59 258h-373zM676 1018h-21l-110 -465h237zM279 1493l257 253h284l257 -253h-284l-107 109h-16l-107 -109h-284z" />
    <glyph glyph-name="Acircumflexdotbelow" unicode="&#x1eac;" horiz-adv-x="1356" 
d="M415 0h-415l414 1365h532l410 -1365h-448l-59 258h-373zM676 1018h-21l-110 -465h237zM279 1493l257 253h284l257 -253h-284l-107 109h-16l-107 -109h-284zM524 -244c0 83 68 150 150 150c83 0 150 -67 150 -150s-67 -150 -150 -150c-82 0 -150 67 -150 150z" />
    <glyph glyph-name="Acircumflexacute" unicode="&#x1ea4;" horiz-adv-x="1356" 
d="M415 0h-415l414 1365h532l410 -1365h-448l-59 258h-373zM676 1018h-21l-110 -465h237zM279 1493l257 253h284l257 -253h-284l-107 109h-16l-107 -109h-284zM975 1658l233 255h248l-245 -255h-236z" />
    <glyph glyph-name="Acircumflextilde" unicode="&#x1eaa;" horiz-adv-x="1356" 
d="M415 0h-415l414 1365h532l410 -1365h-448l-59 258h-373zM676 1018h-21l-110 -465h237zM328 1493l228 190h244l228 -190h-255l-93 94h-4l-93 -94h-255zM548 1743h-151c0 104 66 196 172 196c110 0 152 -80 205 -80c39 0 51 16 51 69h152c0 -126 -80 -211 -190 -211
c-112 0 -150 80 -193 80c-39 0 -46 -34 -46 -54z" />
    <glyph glyph-name="Acircumflexgrave" unicode="&#x1ea6;" horiz-adv-x="1356" 
d="M415 0h-415l414 1365h532l410 -1365h-448l-59 258h-373zM676 1018h-21l-110 -465h237zM279 1493l257 253h284l257 -253h-284l-107 109h-16l-107 -109h-284zM1281 1658h-236l-245 255h248z" />
    <glyph glyph-name="Acircumflexhookabove" unicode="&#x1ea8;" horiz-adv-x="1356" 
d="M415 0h-415l414 1365h532l410 -1365h-448l-59 258h-373zM676 1018h-21l-110 -465h237zM279 1493l257 253h284l257 -253h-284l-107 109h-16l-107 -109h-284zM885 1825v109c13 5 53 11 95 11c109 0 202 -37 202 -159c0 -82 -63 -139 -116 -170l-86 89c27 18 38 35 38 60
c0 38 -32 65 -78 65c-29 0 -41 -2 -55 -5z" />
    <glyph glyph-name="Abreve" unicode="&#x102;" horiz-adv-x="1356" 
d="M415 0h-415l414 1365h532l410 -1365h-448l-59 258h-373zM676 1018h-21l-110 -465h237zM353 1753h187c0 -76 46 -115 138 -115s137 39 137 115h183c0 -190 -124 -292 -320 -292s-325 101 -325 292z" />
    <glyph glyph-name="Abreveacute" unicode="&#x1eae;" horiz-adv-x="1356" 
d="M415 0h-415l414 1365h532l410 -1365h-448l-59 258h-373zM676 1018h-21l-110 -465h237zM998 1753c0 -190 -124 -292 -320 -292s-325 101 -325 292h187c0 -76 46 -115 138 -115s137 39 137 115h183zM546 1756l173 189h291l-226 -189h-238z" />
    <glyph glyph-name="Abrevetilde" unicode="&#x1eb4;" horiz-adv-x="1356" 
d="M415 0h-415l414 1365h532l410 -1365h-448l-59 258h-373zM676 1018h-21l-110 -465h237zM985 1671c0 -162 -155 -232 -307 -232c-147 0 -302 70 -302 232h171c0 -56 56 -90 131 -90s132 34 132 90h175zM542 1737h-163c0 110 72 208 184 208c116 0 158 -86 217 -86
c39 0 51 16 51 75h164c0 -132 -86 -223 -202 -223c-118 0 -156 86 -205 86c-39 0 -46 -40 -46 -60z" />
    <glyph glyph-name="Abrevehookabove" unicode="&#x1eb2;" horiz-adv-x="1356" 
d="M415 0h-415l414 1365h532l410 -1365h-448l-59 258h-373zM676 1018h-21l-110 -465h237zM985 1671c0 -162 -155 -232 -307 -232c-147 0 -302 70 -302 232h171c0 -56 56 -90 131 -90s132 34 132 90h175zM494 1799v117c11 5 45 11 88 11c113 0 192 -55 192 -138
c0 -69 -53 -122 -101 -138l-91 89c6 0 25 12 25 31c0 27 -25 39 -59 39c-23 0 -42 -5 -54 -11z" />
    <glyph glyph-name="Abrevedotbelow" unicode="&#x1eb6;" horiz-adv-x="1356" 
d="M415 0h-415l414 1365h532l410 -1365h-448l-59 258h-373zM676 1018h-21l-110 -465h237zM353 1753h187c0 -76 46 -115 138 -115s137 39 137 115h183c0 -190 -124 -292 -320 -292s-325 101 -325 292zM528 -244c0 83 68 150 150 150c83 0 150 -67 150 -150
s-67 -150 -150 -150c-82 0 -150 67 -150 150z" />
    <glyph glyph-name="Ainvertedbreve" unicode="&#x202;" horiz-adv-x="1356" 
d="M415 0h-415l414 1365h532l410 -1365h-448l-59 258h-373zM676 1018h-21l-110 -465h237zM678 1608c-92 0 -138 -39 -138 -115h-187c0 191 129 292 325 292s320 -102 320 -292h-183c0 76 -45 115 -137 115z" />
    <glyph glyph-name="Acaron" unicode="&#x1cd;" horiz-adv-x="1356" 
d="M415 0h-415l414 1365h532l410 -1365h-448l-59 258h-373zM676 1018h-21l-110 -465h237zM279 1744h284l107 -109h16l107 109h284l-257 -253h-284z" />
    <glyph glyph-name="Adotaccent" unicode="&#x226;" horiz-adv-x="1356" 
d="M415 0h-415l414 1365h532l410 -1365h-448l-59 258h-373zM676 1018h-21l-110 -465h237zM501 1663c0 98 79 172 177 172s177 -74 177 -172s-79 -171 -177 -171s-177 73 -177 171z" />
    <glyph glyph-name="Adotbelow" unicode="&#x1ea0;" horiz-adv-x="1356" 
d="M415 0h-415l414 1365h532l410 -1365h-448l-59 258h-373zM676 1018h-21l-110 -465h237zM524 -244c0 83 68 150 150 150c83 0 150 -67 150 -150s-67 -150 -150 -150c-82 0 -150 67 -150 150z" />
    <glyph glyph-name="Ahookabove" unicode="&#x1ea2;" horiz-adv-x="1354" 
d="M415 0h-415l414 1365h532l410 -1365h-448l-59 258h-373zM676 1018h-21l-110 -465h237zM493 1669v144c22 11 71 23 126 23c158 0 246 -76 246 -206c0 -112 -73 -166 -148 -206l-107 113c37 15 67 39 67 78c0 47 -45 65 -99 65c-23 0 -62 -5 -85 -11z" />
    <glyph glyph-name="Adblgrave" unicode="&#x200;" horiz-adv-x="1354" 
d="M415 0h-415l414 1365h532l410 -1365h-448l-59 258h-373zM676 1018h-21l-110 -465h237zM604 1494h-258l-346 248h311zM1064 1494h-258l-346 248h311z" />
    <glyph glyph-name="Amacron" unicode="&#x100;" horiz-adv-x="1356" 
d="M415 0h-415l414 1365h532l410 -1365h-448l-59 258h-373zM676 1018h-21l-110 -465h237zM997 1493h-640v168h640v-168z" />
    <glyph glyph-name="Aogonek" unicode="&#x104;" horiz-adv-x="1356" 
d="M415 0h-415l414 1365h532l389 -1296c-94 -50 -127 -111 -127 -158c0 -46 38 -90 122 -90c25 0 63 4 71 6v-198c-29 -12 -112 -23 -171 -23c-150 0 -274 67 -274 207c0 85 41 140 70 169v18h-118l-59 258h-373zM676 1018h-21l-110 -465h237z" />
    <glyph glyph-name="B" unicode="B" horiz-adv-x="1315" 
d="M115 0v1365h659c262 0 442 -122 442 -335c0 -185 -130 -279 -258 -295v-19c135 -4 316 -98 316 -326c0 -253 -223 -390 -473 -390h-686zM530 1085v-256h130c106 0 150 63 150 129c0 74 -55 127 -152 127h-128zM530 581v-301h143c124 0 176 70 176 153
c0 86 -56 148 -178 148h-141z" />
    <glyph glyph-name="Blinebelow" unicode="&#x1e06;" horiz-adv-x="1315" 
d="M115 0v1365h659c262 0 442 -122 442 -335c0 -185 -130 -279 -258 -295v-19c135 -4 316 -98 316 -326c0 -253 -223 -390 -473 -390h-686zM530 1085v-256h130c106 0 150 63 150 129c0 74 -55 127 -152 127h-128zM530 581v-301h143c124 0 176 70 176 153
c0 86 -56 148 -178 148h-141zM978 -389h-640v203h640v-203z" />
    <glyph glyph-name="Bdotbelow" unicode="&#x1e04;" horiz-adv-x="1315" 
d="M115 0v1365h659c262 0 442 -122 442 -335c0 -185 -130 -279 -258 -295v-19c135 -4 316 -98 316 -326c0 -253 -223 -390 -473 -390h-686zM530 1085v-256h130c106 0 150 63 150 129c0 74 -55 127 -152 127h-128zM530 581v-301h143c124 0 176 70 176 153
c0 86 -56 148 -178 148h-141zM508 -244c0 83 68 150 150 150c83 0 150 -67 150 -150s-67 -150 -150 -150c-82 0 -150 67 -150 150z" />
    <glyph glyph-name="Bdotaccent" unicode="&#x1e02;" horiz-adv-x="1315" 
d="M115 0v1365h659c262 0 442 -122 442 -335c0 -185 -130 -279 -258 -295v-19c135 -4 316 -98 316 -326c0 -253 -223 -390 -473 -390h-686zM530 1085v-256h130c106 0 150 63 150 129c0 74 -55 127 -152 127h-128zM530 581v-301h143c124 0 176 70 176 153
c0 86 -56 148 -178 148h-141zM481 1663c0 98 79 172 177 172s177 -74 177 -172s-79 -171 -177 -171s-177 73 -177 171z" />
    <glyph glyph-name="C" unicode="C" horiz-adv-x="1328" 
d="M489 745v-127c0 -196 73 -301 199 -301c124 0 188 100 188 230h397v-61c0 -309 -245 -509 -589 -509c-404 0 -625 254 -625 644v123c0 391 221 643 625 643c344 0 589 -199 589 -510v-59h-397c0 130 -64 229 -188 229c-126 0 -199 -105 -199 -302z" />
    <glyph glyph-name="Cacute" unicode="&#x106;" horiz-adv-x="1328" 
d="M489 745v-127c0 -196 73 -301 199 -301c124 0 188 100 188 230h397v-61c0 -309 -245 -509 -589 -509c-404 0 -625 254 -625 644v123c0 391 221 643 625 643c344 0 589 -199 589 -510v-59h-397c0 130 -64 229 -188 229c-126 0 -199 -105 -199 -302zM784 1493h-268l233 318
h321z" />
    <glyph glyph-name="Ccaron" unicode="&#x10c;" horiz-adv-x="1328" 
d="M489 745v-127c0 -196 73 -301 199 -301c124 0 188 100 188 230h397v-61c0 -309 -245 -509 -589 -509c-404 0 -625 254 -625 644v123c0 391 221 643 625 643c344 0 589 -199 589 -510v-59h-397c0 130 -64 229 -188 229c-126 0 -199 -105 -199 -302zM265 1744h284l107 -109
h16l107 109h284l-257 -253h-284z" />
    <glyph glyph-name="Ccircumflex" unicode="&#x108;" horiz-adv-x="1328" 
d="M489 745v-127c0 -196 73 -301 199 -301c124 0 188 100 188 230h397v-61c0 -309 -245 -509 -589 -509c-404 0 -625 254 -625 644v123c0 391 221 643 625 643c344 0 589 -199 589 -510v-59h-397c0 130 -64 229 -188 229c-126 0 -199 -105 -199 -302zM265 1493l257 253h284
l257 -253h-284l-107 109h-16l-107 -109h-284z" />
    <glyph glyph-name="Cdotaccent" unicode="&#x10a;" horiz-adv-x="1328" 
d="M489 745v-127c0 -196 73 -301 199 -301c124 0 188 100 188 230h397v-61c0 -309 -245 -509 -589 -509c-404 0 -625 254 -625 644v123c0 391 221 643 625 643c344 0 589 -199 589 -510v-59h-397c0 130 -64 229 -188 229c-126 0 -199 -105 -199 -302zM487 1663
c0 98 79 172 177 172s177 -74 177 -172s-79 -171 -177 -171s-177 73 -177 171z" />
    <glyph glyph-name="Ccedilla" unicode="&#xc7;" horiz-adv-x="1328" 
d="M662 -477c-76 0 -121 9 -141 16v149c27 -8 66 -13 105 -13c49 0 99 4 99 39c0 28 -8 49 -106 49h-58v134l33 84c-347 36 -535 280 -535 640v123c0 391 221 643 625 643c344 0 589 -199 589 -510v-59h-397c0 130 -64 229 -188 229c-126 0 -199 -105 -199 -302v-127
c0 -196 73 -301 199 -301c124 0 188 100 188 230h397v-61c0 -272 -189 -459 -469 -500l-34 -80c106 0 169 -74 169 -177c0 -145 -105 -206 -277 -206z" />
    <glyph glyph-name="Ccedillaacute" unicode="&#x1e08;" horiz-adv-x="1328" 
d="M662 -477c-76 0 -121 9 -141 16v149c27 -8 66 -13 105 -13c49 0 99 4 99 39c0 28 -8 49 -106 49h-58v134l33 84c-347 36 -535 280 -535 640v123c0 391 221 643 625 643c344 0 589 -199 589 -510v-59h-397c0 130 -64 229 -188 229c-126 0 -199 -105 -199 -302v-127
c0 -196 73 -301 199 -301c124 0 188 100 188 230h397v-61c0 -272 -189 -459 -469 -500l-34 -80c106 0 169 -74 169 -177c0 -145 -105 -206 -277 -206zM784 1493h-268l233 318h321z" />
    <glyph glyph-name="D" unicode="D" horiz-adv-x="1386" 
d="M115 1365h593c443 0 627 -268 627 -674c0 -413 -191 -691 -627 -691h-593v1365zM535 1042v-719h96c139 0 274 31 274 356c0 178 -37 363 -274 363h-96z" />
    <glyph glyph-name="Ddotaccent" unicode="&#x1e0a;" horiz-adv-x="1386" 
d="M115 1365h593c443 0 627 -268 627 -674c0 -413 -191 -691 -627 -691h-593v1365zM535 1042v-719h96c139 0 274 31 274 356c0 178 -37 363 -274 363h-96zM451 1663c0 98 79 172 177 172s177 -74 177 -172s-79 -171 -177 -171s-177 73 -177 171z" />
    <glyph glyph-name="Dcircumflexbelow" unicode="&#x1e12;" horiz-adv-x="1386" 
d="M115 1365h593c443 0 627 -268 627 -674c0 -413 -191 -691 -627 -691h-593v1365zM535 1042v-719h96c139 0 274 31 274 356c0 178 -37 363 -274 363h-96zM229 -373l257 253h284l257 -253h-284l-107 109h-16l-107 -109h-284z" />
    <glyph glyph-name="Dcommaaccent" unicode="&#x1e10;" horiz-adv-x="1386" 
d="M115 1365h593c443 0 627 -268 627 -674c0 -413 -191 -691 -627 -691h-593v1365zM535 1042v-719h96c139 0 274 31 274 356c0 178 -37 363 -274 363h-96zM656 -489h-248l85 335h277z" />
    <glyph glyph-name="Dlinebelow" unicode="&#x1e0e;" horiz-adv-x="1386" 
d="M115 1365h593c443 0 627 -268 627 -674c0 -413 -191 -691 -627 -691h-593v1365zM535 1042v-719h96c139 0 274 31 274 356c0 178 -37 363 -274 363h-96zM948 -389h-640v203h640v-203z" />
    <glyph glyph-name="Dcaron" unicode="&#x10e;" horiz-adv-x="1386" 
d="M115 1365h593c443 0 627 -268 627 -674c0 -413 -191 -691 -627 -691h-593v1365zM535 1042v-719h96c139 0 274 31 274 356c0 178 -37 363 -274 363h-96zM229 1744h284l107 -109h16l107 109h284l-257 -253h-284z" />
    <glyph glyph-name="Ddotbelow" unicode="&#x1e0c;" horiz-adv-x="1386" 
d="M115 1365h593c443 0 627 -268 627 -674c0 -413 -191 -691 -627 -691h-593v1365zM535 1042v-719h96c139 0 274 31 274 356c0 178 -37 363 -274 363h-96zM478 -244c0 83 68 150 150 150c83 0 150 -67 150 -150s-67 -150 -150 -150c-82 0 -150 67 -150 150z" />
    <glyph glyph-name="Dcroat" unicode="&#x110;" horiz-adv-x="1490" 
d="M812 0h-593v505h-171v360h171v500h593c443 0 627 -268 627 -674c0 -413 -191 -691 -627 -691zM638 334h94c139 0 274 31 274 356c0 178 -37 364 -274 364h-94v-189h152v-360h-152v-171z" />
    <glyph glyph-name="E" unicode="E" horiz-adv-x="1173" 
d="M1088 323v-323h-973v1365h973v-323h-558v-215h521v-292h-521v-212h558z" />
    <glyph glyph-name="Egrave" unicode="&#xc8;" horiz-adv-x="1173" 
d="M1088 323v-323h-973v1365h973v-323h-558v-215h521v-292h-521v-212h558zM735 1493h-268l-286 318h321z" />
    <glyph glyph-name="Edblgrave" unicode="&#x204;" horiz-adv-x="1173" 
d="M1088 323v-323h-973v1365h973v-323h-558v-215h521v-292h-521v-212h558zM514 1494h-258l-346 248h311zM974 1494h-258l-346 248h311z" />
    <glyph glyph-name="Eacute" unicode="&#xc9;" horiz-adv-x="1173" 
d="M1088 323v-323h-973v1365h973v-323h-558v-215h521v-292h-521v-212h558zM707 1493h-268l233 318h321z" />
    <glyph glyph-name="Ecircumflex" unicode="&#xca;" horiz-adv-x="1173" 
d="M1088 323v-323h-973v1365h973v-323h-558v-215h521v-292h-521v-212h558zM188 1493l257 253h284l257 -253h-284l-107 109h-16l-107 -109h-284z" />
    <glyph glyph-name="Ecircumflexhookabove" unicode="&#x1ec2;" horiz-adv-x="1173" 
d="M1088 323v-323h-973v1365h973v-323h-558v-215h521v-292h-521v-212h558zM188 1493l257 253h284l257 -253h-284l-107 109h-16l-107 -109h-284zM794 1825v109c13 5 53 11 95 11c109 0 202 -37 202 -159c0 -82 -63 -139 -116 -170l-86 89c27 18 38 35 38 60
c0 38 -32 65 -78 65c-29 0 -41 -2 -55 -5z" />
    <glyph glyph-name="Ecircumflexgrave" unicode="&#x1ec0;" horiz-adv-x="1173" 
d="M1088 323v-323h-973v1365h973v-323h-558v-215h521v-292h-521v-212h558zM188 1493l257 253h284l257 -253h-284l-107 109h-16l-107 -109h-284zM1190 1658h-236l-245 255h248z" />
    <glyph glyph-name="Ecircumflextilde" unicode="&#x1ec4;" horiz-adv-x="1173" 
d="M1088 323v-323h-973v1365h973v-323h-558v-215h521v-292h-521v-212h558zM237 1493l228 190h244l228 -190h-255l-93 94h-4l-93 -94h-255zM457 1743h-151c0 104 66 196 172 196c110 0 152 -80 205 -80c39 0 51 16 51 69h152c0 -126 -80 -211 -190 -211
c-112 0 -150 80 -193 80c-39 0 -46 -34 -46 -54z" />
    <glyph glyph-name="Ecircumflexdotbelow" unicode="&#x1ec6;" horiz-adv-x="1173" 
d="M1088 323v-323h-973v1365h973v-323h-558v-215h521v-292h-521v-212h558zM188 1493l257 253h284l257 -253h-284l-107 109h-16l-107 -109h-284zM437 -244c0 83 68 150 150 150c83 0 150 -67 150 -150s-67 -150 -150 -150c-82 0 -150 67 -150 150z" />
    <glyph glyph-name="Ecircumflexacute" unicode="&#x1ebe;" horiz-adv-x="1173" 
d="M1088 323v-323h-973v1365h973v-323h-558v-215h521v-292h-521v-212h558zM188 1493l257 253h284l257 -253h-284l-107 109h-16l-107 -109h-284zM884 1658l233 255h248l-245 -255h-236z" />
    <glyph glyph-name="Edieresis" unicode="&#xcb;" horiz-adv-x="1173" 
d="M1088 323v-323h-973v1365h973v-323h-558v-215h521v-292h-521v-212h558zM381 1448c-74 0 -129 57 -129 132s55 135 129 135c76 0 138 -60 138 -135s-62 -132 -138 -132zM786 1448c-74 0 -131 57 -131 132s57 135 131 135c76 0 136 -60 136 -135s-60 -132 -136 -132z" />
    <glyph glyph-name="Edotbelow" unicode="&#x1eb8;" horiz-adv-x="1173" 
d="M1088 323v-323h-973v1365h973v-323h-558v-215h521v-292h-521v-212h558zM437 -244c0 83 68 150 150 150c83 0 150 -67 150 -150s-67 -150 -150 -150c-82 0 -150 67 -150 150z" />
    <glyph glyph-name="Einvertedbreve" unicode="&#x206;" horiz-adv-x="1173" 
d="M1088 323v-323h-973v1365h973v-323h-558v-215h521v-292h-521v-212h558zM587 1608c-92 0 -138 -39 -138 -115h-187c0 191 129 292 325 292s320 -102 320 -292h-183c0 76 -45 115 -137 115z" />
    <glyph glyph-name="Ehookabove" unicode="&#x1eba;" horiz-adv-x="1173" 
d="M1088 323v-323h-973v1365h973v-323h-558v-215h521v-292h-521v-212h558zM403 1669v144c22 11 71 23 126 23c158 0 246 -76 246 -206c0 -112 -73 -166 -148 -206l-107 113c37 15 67 39 67 78c0 47 -45 65 -99 65c-23 0 -62 -5 -85 -11z" />
    <glyph glyph-name="Ecaron" unicode="&#x11a;" horiz-adv-x="1173" 
d="M1088 323v-323h-973v1365h973v-323h-558v-215h521v-292h-521v-212h558zM188 1744h284l107 -109h16l107 109h284l-257 -253h-284z" />
    <glyph glyph-name="Emacron" unicode="&#x112;" horiz-adv-x="1173" 
d="M1088 323v-323h-973v1365h973v-323h-558v-215h521v-292h-521v-212h558zM907 1493h-640v168h640v-168z" />
    <glyph glyph-name="Emacrongrave" unicode="&#x1e14;" horiz-adv-x="1173" 
d="M1088 323v-323h-973v1365h973v-323h-558v-215h521v-292h-521v-212h558zM719 1756h-238l-226 189h291zM907 1493h-640v168h640v-168z" />
    <glyph glyph-name="Emacronacute" unicode="&#x1e16;" horiz-adv-x="1173" 
d="M1088 323v-323h-973v1365h973v-323h-558v-215h521v-292h-521v-212h558zM455 1756l173 189h291l-226 -189h-238zM907 1493h-640v168h640v-168z" />
    <glyph glyph-name="Etilde" unicode="&#x1ebc;" horiz-adv-x="1173" 
d="M1088 323v-323h-973v1365h973v-323h-558v-215h521v-292h-521v-212h558zM707 1467c-141 0 -170 108 -231 108c-35 0 -62 -34 -65 -82h-182c0 114 77 247 231 247c139 0 185 -108 248 -108c40 0 59 43 59 93h182c0 -151 -103 -258 -242 -258z" />
    <glyph glyph-name="Ecircumflexbelow" unicode="&#x1e18;" horiz-adv-x="1173" 
d="M1088 323v-323h-973v1365h973v-323h-558v-215h521v-292h-521v-212h558zM188 -373l257 253h284l257 -253h-284l-107 109h-16l-107 -109h-284z" />
    <glyph glyph-name="Ebreve" unicode="&#x114;" horiz-adv-x="1173" 
d="M1088 323v-323h-973v1365h973v-323h-558v-215h521v-292h-521v-212h558zM262 1753h187c0 -76 46 -115 138 -115s137 39 137 115h183c0 -190 -124 -292 -320 -292s-325 101 -325 292z" />
    <glyph glyph-name="Etildebelow" unicode="&#x1e1a;" horiz-adv-x="1173" 
d="M1088 323v-323h-973v1365h973v-323h-558v-215h521v-292h-521v-212h558zM731 -392c-145 0 -187 111 -256 111c-49 0 -63 -55 -63 -83h-202c0 143 88 267 238 267c143 0 188 -111 269 -111c42 0 69 29 69 95h202c0 -163 -109 -279 -257 -279z" />
    <glyph glyph-name="Edotaccent" unicode="&#x116;" horiz-adv-x="1173" 
d="M1088 323v-323h-973v1365h973v-323h-558v-215h521v-292h-521v-212h558zM410 1663c0 98 79 172 177 172s177 -74 177 -172s-79 -171 -177 -171s-177 73 -177 171z" />
    <glyph glyph-name="Ecedilla" unicode="&#x228;" horiz-adv-x="1173" 
d="M585 -477c-76 0 -121 9 -141 16v149c27 -8 66 -13 105 -13c49 0 99 4 99 39c0 28 -8 49 -106 49h-58v134l40 103h-409v1365h973v-323h-558v-215h521v-292h-521v-212h558v-323h-355l-40 -94c106 0 169 -74 169 -177c0 -145 -105 -206 -277 -206z" />
    <glyph glyph-name="Ecedillabreve" unicode="&#x1e1c;" horiz-adv-x="1173" 
d="M585 -477c-76 0 -121 9 -141 16v149c27 -8 66 -13 105 -13c49 0 99 4 99 39c0 28 -8 49 -106 49h-58v134l40 103h-409v1365h973v-323h-558v-215h521v-292h-521v-212h558v-323h-355l-40 -94c106 0 169 -74 169 -177c0 -145 -105 -206 -277 -206zM262 1753h187
c0 -76 46 -115 138 -115s137 39 137 115h183c0 -190 -124 -292 -320 -292s-325 101 -325 292z" />
    <glyph glyph-name="Eogonek" unicode="&#x118;" horiz-adv-x="1173" 
d="M1088 -371c-37 -11 -112 -23 -172 -23c-145 0 -273 67 -273 207c0 69 33 128 80 168v19h-608v1365h973v-323h-558v-215h521v-292h-521v-212h558v-248c-88 -18 -184 -77 -184 -163c0 -58 53 -91 120 -91c20 0 49 3 64 6v-198z" />
    <glyph glyph-name="F" unicode="F" horiz-adv-x="1130" 
d="M535 0h-420v1365h970v-328h-550v-250h497v-316h-497v-471z" />
    <glyph glyph-name="Fdotaccent" unicode="&#x1e1e;" horiz-adv-x="1130" 
d="M535 0h-420v1365h970v-328h-550v-250h497v-316h-497v-471zM388 1663c0 98 79 172 177 172s177 -74 177 -172s-79 -171 -177 -171s-177 73 -177 171z" />
    <glyph glyph-name="G" unicode="G" horiz-adv-x="1353" 
d="M1294 894h-405c-8 80 -72 157 -193 157c-140 0 -212 -104 -212 -293v-144c0 -153 39 -301 223 -301c132 0 194 86 194 165v16h-170v278h563v-256c0 -268 -164 -539 -599 -539c-460 0 -636 301 -636 635v151c0 358 220 624 640 624c409 0 595 -254 595 -493z" />
    <glyph glyph-name="Gacute" unicode="&#x1f4;" horiz-adv-x="1353" 
d="M1294 894h-405c-8 80 -72 157 -193 157c-140 0 -212 -104 -212 -293v-144c0 -153 39 -301 223 -301c132 0 194 86 194 165v16h-170v278h563v-256c0 -268 -164 -539 -599 -539c-460 0 -636 301 -636 635v151c0 358 220 624 640 624c409 0 595 -254 595 -493zM797 1493
h-268l233 318h321z" />
    <glyph glyph-name="Gcaron" unicode="&#x1e6;" horiz-adv-x="1353" 
d="M1294 894h-405c-8 80 -72 157 -193 157c-140 0 -212 -104 -212 -293v-144c0 -153 39 -301 223 -301c132 0 194 86 194 165v16h-170v278h563v-256c0 -268 -164 -539 -599 -539c-460 0 -636 301 -636 635v151c0 358 220 624 640 624c409 0 595 -254 595 -493zM278 1744h284
l107 -109h16l107 109h284l-257 -253h-284z" />
    <glyph glyph-name="Gcircumflex" unicode="&#x11c;" horiz-adv-x="1353" 
d="M1294 894h-405c-8 80 -72 157 -193 157c-140 0 -212 -104 -212 -293v-144c0 -153 39 -301 223 -301c132 0 194 86 194 165v16h-170v278h563v-256c0 -268 -164 -539 -599 -539c-460 0 -636 301 -636 635v151c0 358 220 624 640 624c409 0 595 -254 595 -493zM278 1493
l257 253h284l257 -253h-284l-107 109h-16l-107 -109h-284z" />
    <glyph glyph-name="Gbreve" unicode="&#x11e;" horiz-adv-x="1353" 
d="M1294 894h-405c-8 80 -72 157 -193 157c-140 0 -212 -104 -212 -293v-144c0 -153 39 -301 223 -301c132 0 194 86 194 165v16h-170v278h563v-256c0 -268 -164 -539 -599 -539c-460 0 -636 301 -636 635v151c0 358 220 624 640 624c409 0 595 -254 595 -493zM352 1753h187
c0 -76 46 -115 138 -115s137 39 137 115h183c0 -190 -124 -292 -320 -292s-325 101 -325 292z" />
    <glyph glyph-name="Gmacron" unicode="&#x1e20;" horiz-adv-x="1353" 
d="M1294 894h-405c-8 80 -72 157 -193 157c-140 0 -212 -104 -212 -293v-144c0 -153 39 -301 223 -301c132 0 194 86 194 165v16h-170v278h563v-256c0 -268 -164 -539 -599 -539c-460 0 -636 301 -636 635v151c0 358 220 624 640 624c409 0 595 -254 595 -493zM997 1493
h-640v168h640v-168z" />
    <glyph glyph-name="Gdotaccent" unicode="&#x120;" horiz-adv-x="1353" 
d="M1294 894h-405c-8 80 -72 157 -193 157c-140 0 -212 -104 -212 -293v-144c0 -153 39 -301 223 -301c132 0 194 86 194 165v16h-170v278h563v-256c0 -268 -164 -539 -599 -539c-460 0 -636 301 -636 635v151c0 358 220 624 640 624c409 0 595 -254 595 -493zM500 1663
c0 98 79 172 177 172s177 -74 177 -172s-79 -171 -177 -171s-177 73 -177 171z" />
    <glyph glyph-name="Gcommaaccent" unicode="&#x122;" horiz-adv-x="1353" 
d="M1294 894h-405c-8 80 -72 157 -193 157c-140 0 -212 -104 -212 -293v-144c0 -153 39 -301 223 -301c132 0 194 86 194 165v16h-170v278h563v-256c0 -268 -164 -539 -599 -539c-460 0 -636 301 -636 635v151c0 358 220 624 640 624c409 0 595 -254 595 -493zM705 -489
h-248l85 335h277z" />
    <glyph glyph-name="H" unicode="H" horiz-adv-x="1465" 
d="M1350 0h-420v517h-395v-517h-420v1365h420v-515h395v515h420v-1365z" />
    <glyph glyph-name="Hdieresis" unicode="&#x1e26;" horiz-adv-x="1465" 
d="M1350 0h-420v517h-395v-517h-420v1365h420v-515h395v515h420v-1365zM529 1448c-74 0 -129 57 -129 132s55 135 129 135c76 0 138 -60 138 -135s-62 -132 -138 -132zM934 1448c-74 0 -131 57 -131 132s57 135 131 135c76 0 136 -60 136 -135s-60 -132 -136 -132z" />
    <glyph glyph-name="Hcaron" unicode="&#x21e;" horiz-adv-x="1465" 
d="M1350 0h-420v517h-395v-517h-420v1365h420v-515h395v515h420v-1365zM335 1744h284l107 -109h16l107 109h284l-257 -253h-284z" />
    <glyph glyph-name="Hcircumflex" unicode="&#x124;" horiz-adv-x="1465" 
d="M1350 0h-420v517h-395v-517h-420v1365h420v-515h395v515h420v-1365zM334 1493l257 253h284l257 -253h-284l-107 109h-16l-107 -109h-284z" />
    <glyph glyph-name="Hdotbelow" unicode="&#x1e24;" horiz-adv-x="1465" 
d="M1350 0h-420v517h-395v-517h-420v1365h420v-515h395v515h420v-1365zM579 -244c0 83 68 150 150 150c83 0 150 -67 150 -150s-67 -150 -150 -150c-82 0 -150 67 -150 150z" />
    <glyph glyph-name="Hdotaccent" unicode="&#x1e22;" horiz-adv-x="1465" 
d="M1350 0h-420v517h-395v-517h-420v1365h420v-515h395v515h420v-1365zM556 1663c0 98 79 172 177 172s177 -74 177 -172s-79 -171 -177 -171s-177 73 -177 171z" />
    <glyph glyph-name="Hbrevebelow" unicode="&#x1e2a;" horiz-adv-x="1465" 
d="M882 -110h207c0 -209 -138 -360 -356 -360s-361 150 -361 360h212c0 -84 46 -164 149 -164s149 80 149 164zM1350 0h-420v517h-395v-517h-420v1365h420v-515h395v515h420v-1365z" />
    <glyph glyph-name="Hcedilla" unicode="&#x1e28;" horiz-adv-x="1465" 
d="M387 -477c-76 0 -121 9 -141 16v149c27 -8 66 -13 105 -13c49 0 99 4 99 39c0 28 -8 49 -106 49h-58v134l40 103h-211v1365h420v-515h395v515h420v-1365h-420v517h-395v-517l-40 -94c106 0 169 -74 169 -177c0 -145 -105 -206 -277 -206z" />
    <glyph glyph-name="Hbar" unicode="&#x126;" horiz-adv-x="1462" 
d="M535 850h395v138h-395v-138zM535 517v-517h-420v988h-68v228h68v149h420v-149h395v149h420v-149h65v-228h-65v-988h-420v517h-395z" />
    <glyph glyph-name="I" unicode="I" horiz-adv-x="650" 
d="M535 0h-420v1365h420v-1365z" />
    <glyph glyph-name="Idotaccent" unicode="&#x130;" horiz-adv-x="650" 
d="M535 0h-420v1365h420v-1365zM148 1663c0 98 79 172 177 172s177 -74 177 -172s-79 -171 -177 -171s-177 73 -177 171z" />
    <glyph glyph-name="Igrave" unicode="&#xcc;" horiz-adv-x="650" 
d="M535 0h-420v1365h420v-1365zM473 1493h-268l-286 318h321z" />
    <glyph glyph-name="Idblgrave" unicode="&#x208;" horiz-adv-x="650" 
d="M535 0h-420v1365h420v-1365zM252 1494h-258l-346 248h311zM712 1494h-258l-346 248h311z" />
    <glyph glyph-name="Iacute" unicode="&#xcd;" horiz-adv-x="650" 
d="M535 0h-420v1365h420v-1365zM445 1493h-268l233 318h321z" />
    <glyph glyph-name="Icircumflex" unicode="&#xce;" horiz-adv-x="650" 
d="M535 0h-420v1365h420v-1365zM-74 1493l257 253h284l257 -253h-284l-107 109h-16l-107 -109h-284z" />
    <glyph glyph-name="Icaron" unicode="&#x1cf;" horiz-adv-x="650" 
d="M535 0h-420v1365h420v-1365zM-74 1744h284l107 -109h16l107 109h284l-257 -253h-284z" />
    <glyph glyph-name="Idieresis" unicode="&#xcf;" horiz-adv-x="650" 
d="M535 0h-420v1365h420v-1365zM119 1448c-74 0 -129 57 -129 132s55 135 129 135c76 0 138 -60 138 -135s-62 -132 -138 -132zM524 1448c-74 0 -131 57 -131 132s57 135 131 135c76 0 136 -60 136 -135s-60 -132 -136 -132z" />
    <glyph glyph-name="Idieresisacute" unicode="&#x1e2e;" horiz-adv-x="650" 
d="M535 0h-420v1365h420v-1365zM193 1756l173 189h291l-226 -189h-238zM119 1448c-74 0 -129 57 -129 132s55 135 129 135c76 0 138 -60 138 -135s-62 -132 -138 -132zM524 1448c-74 0 -131 57 -131 132s57 135 131 135c76 0 136 -60 136 -135s-60 -132 -136 -132z" />
    <glyph glyph-name="Ibreve" unicode="&#x12c;" horiz-adv-x="650" 
d="M535 0h-420v1365h420v-1365zM0 1753h187c0 -76 46 -115 138 -115s137 39 137 115h183c0 -190 -124 -292 -320 -292s-325 101 -325 292z" />
    <glyph glyph-name="Idotbelow" unicode="&#x1eca;" horiz-adv-x="650" 
d="M535 0h-420v1365h420v-1365zM175 -244c0 83 68 150 150 150c83 0 150 -67 150 -150s-67 -150 -150 -150c-82 0 -150 67 -150 150z" />
    <glyph glyph-name="Iinvertedbreve" unicode="&#x20a;" horiz-adv-x="650" 
d="M535 0h-420v1365h420v-1365zM325 1608c-92 0 -138 -39 -138 -115h-187c0 191 129 292 325 292s320 -102 320 -292h-183c0 76 -45 115 -137 115z" />
    <glyph glyph-name="Imacron" unicode="&#x12a;" horiz-adv-x="650" 
d="M535 0h-420v1365h420v-1365zM645 1493h-640v168h640v-168z" />
    <glyph glyph-name="Itildebelow" unicode="&#x1e2c;" horiz-adv-x="650" 
d="M535 0h-420v1365h420v-1365zM469 -392c-145 0 -187 111 -256 111c-49 0 -63 -55 -63 -83h-202c0 143 88 267 238 267c143 0 188 -111 269 -111c42 0 69 29 69 95h202c0 -163 -109 -279 -257 -279z" />
    <glyph glyph-name="Ihookabove" unicode="&#x1ec8;" horiz-adv-x="650" 
d="M535 0h-420v1365h420v-1365zM141 1669v144c22 11 71 23 126 23c158 0 246 -76 246 -206c0 -112 -73 -166 -148 -206l-107 113c37 15 67 39 67 78c0 47 -45 65 -99 65c-23 0 -62 -5 -85 -11z" />
    <glyph glyph-name="Itilde" unicode="&#x128;" horiz-adv-x="650" 
d="M535 0h-420v1365h420v-1365zM445 1467c-141 0 -170 108 -231 108c-35 0 -62 -34 -65 -82h-182c0 114 77 247 231 247c139 0 185 -108 248 -108c40 0 59 43 59 93h182c0 -151 -103 -258 -242 -258z" />
    <glyph glyph-name="Iogonek" unicode="&#x12e;" horiz-adv-x="649" 
d="M555 -366c-24 -11 -99 -29 -178 -29c-190 0 -270 104 -270 216c0 80 47 132 88 163v16h-80v1365h420v-1281c-147 -67 -163 -134 -163 -177c0 -59 49 -89 112 -89c25 0 62 5 71 9v-193z" />
    <glyph glyph-name="J" unicode="J" horiz-adv-x="1217" 
d="M27 508h401c0 -102 50 -164 138 -164c97 0 130 59 130 159v862h421v-869c0 -348 -209 -519 -546 -519c-393 0 -544 269 -544 531z" />
    <glyph glyph-name="Jcircumflex" unicode="&#x134;" horiz-adv-x="1217" 
d="M27 508h401c0 -102 50 -164 138 -164c97 0 130 59 130 159v862h421v-869c0 -348 -209 -519 -546 -519c-393 0 -544 269 -544 531zM510 1493l257 253h284l257 -253h-284l-107 109h-16l-107 -109h-284z" />
    <glyph glyph-name="K" unicode="K" horiz-adv-x="1372" 
d="M1389 1365l-453 -598l465 -767h-486l-285 493l-95 -120v-373h-420v1365h420v-535h19l397 535h438z" />
    <glyph glyph-name="Kacute" unicode="&#x1e30;" horiz-adv-x="1372" 
d="M1389 1365l-453 -598l465 -767h-486l-285 493l-95 -120v-373h-420v1365h420v-535h19l397 535h438zM806 1493h-268l233 318h321z" />
    <glyph glyph-name="Kcaron" unicode="&#x1e8;" horiz-adv-x="1372" 
d="M1389 1365l-453 -598l465 -767h-486l-285 493l-95 -120v-373h-420v1365h420v-535h19l397 535h438zM287 1744h284l107 -109h16l107 109h284l-257 -253h-284z" />
    <glyph glyph-name="Kdotbelow" unicode="&#x1e32;" horiz-adv-x="1372" 
d="M1389 1365l-453 -598l465 -767h-486l-285 493l-95 -120v-373h-420v1365h420v-535h19l397 535h438zM536 -244c0 83 68 150 150 150c83 0 150 -67 150 -150s-67 -150 -150 -150c-82 0 -150 67 -150 150z" />
    <glyph glyph-name="Klinebelow" unicode="&#x1e34;" horiz-adv-x="1372" 
d="M1389 1365l-453 -598l465 -767h-486l-285 493l-95 -120v-373h-420v1365h420v-535h19l397 535h438zM1006 -389h-640v203h640v-203z" />
    <glyph glyph-name="Kcommaaccent" unicode="&#x136;" horiz-adv-x="1372" 
d="M1389 1365l-453 -598l465 -767h-486l-285 493l-95 -120v-373h-420v1365h420v-535h19l397 535h438zM714 -489h-248l85 335h277z" />
    <glyph glyph-name="L" unicode="L" horiz-adv-x="1065" 
d="M1036 344v-344h-921v1365h420v-1021h501z" />
    <glyph glyph-name="Lacute" unicode="&#x139;" horiz-adv-x="1065" 
d="M1036 344v-344h-921v1365h420v-1021h501zM445 1493h-268l233 318h321z" />
    <glyph glyph-name="Lcircumflexbelow" unicode="&#x1e3c;" horiz-adv-x="1065" 
d="M1036 344v-344h-921v1365h420v-1021h501zM139 -373l257 253h284l257 -253h-284l-107 109h-16l-107 -109h-284z" />
    <glyph glyph-name="Ldotbelow" unicode="&#x1e36;" horiz-adv-x="1065" 
d="M1036 344v-344h-921v1365h420v-1021h501zM388 -244c0 83 68 150 150 150c83 0 150 -67 150 -150s-67 -150 -150 -150c-82 0 -150 67 -150 150z" />
    <glyph glyph-name="Ldotbelowmacron" unicode="&#x1e38;" horiz-adv-x="1065" 
d="M1036 344v-344h-921v1365h420v-1021h501zM388 -244c0 83 68 150 150 150c83 0 150 -67 150 -150s-67 -150 -150 -150c-82 0 -150 67 -150 150zM645 1493h-640v168h640v-168z" />
    <glyph glyph-name="Llinebelow" unicode="&#x1e3a;" horiz-adv-x="1065" 
d="M1036 344v-344h-921v1365h420v-1021h501zM858 -389h-640v203h640v-203z" />
    <glyph glyph-name="Lcommaaccent" unicode="&#x13b;" horiz-adv-x="1065" 
d="M1036 344v-344h-921v1365h420v-1021h501zM566 -489h-248l85 335h277z" />
    <glyph glyph-name="Lcaron" unicode="&#x13d;" horiz-adv-x="1065" 
d="M705 1435h302l-50 -488h-252v488zM1036 344v-344h-921v1365h420v-1021h501z" />
    <glyph glyph-name="Lslash" unicode="&#x141;" horiz-adv-x="1110" 
d="M1081 0h-921v476l-107 -59v326l107 59v563h419v-331l231 128v-328l-231 -127v-363h502v-344z" />
    <glyph glyph-name="M" unicode="M" horiz-adv-x="1703" 
d="M486 0h-371v1365h439l292 -609h14l293 609h435v-1365h-377v761h-19l-232 -502h-220l-234 502h-20v-761z" />
    <glyph glyph-name="Macute" unicode="&#x1e3e;" horiz-adv-x="1703" 
d="M486 0h-371v1365h439l292 -609h14l293 609h435v-1365h-377v761h-19l-232 -502h-220l-234 502h-20v-761zM972 1493h-268l233 318h321z" />
    <glyph glyph-name="Mdotaccent" unicode="&#x1e40;" horiz-adv-x="1703" 
d="M486 0h-371v1365h439l292 -609h14l293 609h435v-1365h-377v761h-19l-232 -502h-220l-234 502h-20v-761zM675 1663c0 98 79 172 177 172s177 -74 177 -172s-79 -171 -177 -171s-177 73 -177 171z" />
    <glyph glyph-name="Mdotbelow" unicode="&#x1e42;" horiz-adv-x="1703" 
d="M486 0h-371v1365h439l292 -609h14l293 609h435v-1365h-377v761h-19l-232 -502h-220l-234 502h-20v-761zM699 -244c0 83 68 150 150 150c83 0 150 -67 150 -150s-67 -150 -150 -150c-82 0 -150 67 -150 150z" />
    <glyph glyph-name="N" unicode="N" horiz-adv-x="1411" 
d="M500 0h-385v1365h315l465 -660h16v660h385v-1365h-312l-468 672h-16v-672z" />
    <glyph glyph-name="Ngrave" unicode="&#x1f8;" horiz-adv-x="1411" 
d="M500 0h-385v1365h315l465 -660h16v660h385v-1365h-312l-468 672h-16v-672zM854 1493h-268l-286 318h321z" />
    <glyph glyph-name="Nacute" unicode="&#x143;" horiz-adv-x="1411" 
d="M500 0h-385v1365h315l465 -660h16v660h385v-1365h-312l-468 672h-16v-672zM826 1493h-268l233 318h321z" />
    <glyph glyph-name="Ntilde" unicode="&#xd1;" horiz-adv-x="1411" 
d="M500 0h-385v1365h315l465 -660h16v660h385v-1365h-312l-468 672h-16v-672zM826 1467c-141 0 -170 108 -231 108c-35 0 -62 -34 -65 -82h-182c0 114 77 247 231 247c139 0 185 -108 248 -108c40 0 59 43 59 93h182c0 -151 -103 -258 -242 -258z" />
    <glyph glyph-name="Ndotbelow" unicode="&#x1e46;" horiz-adv-x="1411" 
d="M500 0h-385v1365h315l465 -660h16v660h385v-1365h-312l-468 672h-16v-672zM556 -244c0 83 68 150 150 150c83 0 150 -67 150 -150s-67 -150 -150 -150c-82 0 -150 67 -150 150z" />
    <glyph glyph-name="Ndotaccent" unicode="&#x1e44;" horiz-adv-x="1411" 
d="M500 0h-385v1365h315l465 -660h16v660h385v-1365h-312l-468 672h-16v-672zM529 1663c0 98 79 172 177 172s177 -74 177 -172s-79 -171 -177 -171s-177 73 -177 171z" />
    <glyph glyph-name="Ncaron" unicode="&#x147;" horiz-adv-x="1411" 
d="M500 0h-385v1365h315l465 -660h16v660h385v-1365h-312l-468 672h-16v-672zM307 1744h284l107 -109h16l107 109h284l-257 -253h-284z" />
    <glyph glyph-name="Ncircumflexbelow" unicode="&#x1e4a;" horiz-adv-x="1411" 
d="M500 0h-385v1365h315l465 -660h16v660h385v-1365h-312l-468 672h-16v-672zM307 -373l257 253h284l257 -253h-284l-107 109h-16l-107 -109h-284z" />
    <glyph glyph-name="Nlinebelow" unicode="&#x1e48;" horiz-adv-x="1411" 
d="M500 0h-385v1365h315l465 -660h16v660h385v-1365h-312l-468 672h-16v-672zM1026 -389h-640v203h640v-203z" />
    <glyph glyph-name="Ncommaaccent" unicode="&#x145;" horiz-adv-x="1411" 
d="M500 0h-385v1365h315l465 -660h16v660h385v-1365h-312l-468 672h-16v-672zM734 -489h-248l85 335h277z" />
    <glyph glyph-name="O" unicode="O" horiz-adv-x="1407" 
d="M489 753v-142c0 -197 81 -301 215 -301c133 0 214 104 214 301v142c0 196 -81 301 -214 301c-134 0 -215 -105 -215 -301zM59 613v134c0 388 228 640 645 640c418 0 644 -255 644 -640v-134c0 -383 -226 -636 -644 -636c-417 0 -645 253 -645 636z" />
    <glyph glyph-name="Odieresis" unicode="&#xd6;" horiz-adv-x="1407" 
d="M489 753v-142c0 -197 81 -301 215 -301c133 0 214 104 214 301v142c0 196 -81 301 -214 301c-134 0 -215 -105 -215 -301zM59 613v134c0 388 228 640 645 640c418 0 644 -255 644 -640v-134c0 -383 -226 -636 -644 -636c-417 0 -645 253 -645 636zM500 1448
c-74 0 -129 57 -129 132s55 135 129 135c76 0 138 -60 138 -135s-62 -132 -138 -132zM905 1448c-74 0 -131 57 -131 132s57 135 131 135c76 0 136 -60 136 -135s-60 -132 -136 -132z" />
    <glyph glyph-name="Oslash" unicode="&#xd8;" horiz-adv-x="1407" 
d="M704 -23c-149 0 -273 32 -372 91l-96 -117l-158 128l102 125c-80 106 -121 246 -121 409v134c0 388 228 640 645 640c148 0 273 -32 371 -91l77 94l162 -121l-88 -108c80 -107 122 -249 122 -414v-134c0 -383 -226 -636 -644 -636zM475 605c0 -10 0 -32 1 -41l367 450
c-37 34 -85 51 -141 51c-142 0 -227 -109 -227 -311v-149zM702 294c141 0 228 107 228 311v149c0 11 0 34 -1 45l-370 -453c37 -35 86 -52 143 -52z" />
    <glyph glyph-name="Otilde" unicode="&#xd5;" horiz-adv-x="1407" 
d="M489 753v-142c0 -197 81 -301 215 -301c133 0 214 104 214 301v142c0 196 -81 301 -214 301c-134 0 -215 -105 -215 -301zM59 613v134c0 388 228 640 645 640c418 0 644 -255 644 -640v-134c0 -383 -226 -636 -644 -636c-417 0 -645 253 -645 636zM824 1467
c-141 0 -170 108 -231 108c-35 0 -62 -34 -65 -82h-182c0 114 77 247 231 247c139 0 185 -108 248 -108c40 0 59 43 59 93h182c0 -151 -103 -258 -242 -258z" />
    <glyph glyph-name="Oacute" unicode="&#xd3;" horiz-adv-x="1407" 
d="M489 753v-142c0 -197 81 -301 215 -301c133 0 214 104 214 301v142c0 196 -81 301 -214 301c-134 0 -215 -105 -215 -301zM59 613v134c0 388 228 640 645 640c418 0 644 -255 644 -640v-134c0 -383 -226 -636 -644 -636c-417 0 -645 253 -645 636zM824 1493h-268l233 318
h321z" />
    <glyph glyph-name="Ocircumflex" unicode="&#xd4;" horiz-adv-x="1407" 
d="M489 753v-142c0 -197 81 -301 215 -301c133 0 214 104 214 301v142c0 196 -81 301 -214 301c-134 0 -215 -105 -215 -301zM59 613v134c0 388 228 640 645 640c418 0 644 -255 644 -640v-134c0 -383 -226 -636 -644 -636c-417 0 -645 253 -645 636zM306 1493l257 253h284
l257 -253h-284l-107 109h-16l-107 -109h-284z" />
    <glyph glyph-name="Ograve" unicode="&#xd2;" horiz-adv-x="1407" 
d="M489 753v-142c0 -197 81 -301 215 -301c133 0 214 104 214 301v142c0 196 -81 301 -214 301c-134 0 -215 -105 -215 -301zM59 613v134c0 388 228 640 645 640c418 0 644 -255 644 -640v-134c0 -383 -226 -636 -644 -636c-417 0 -645 253 -645 636zM852 1493h-268
l-286 318h321z" />
    <glyph glyph-name="Ocircumflexhookabove" unicode="&#x1ed4;" horiz-adv-x="1407" 
d="M489 753v-142c0 -197 81 -301 215 -301c133 0 214 104 214 301v142c0 196 -81 301 -214 301c-134 0 -215 -105 -215 -301zM59 613v134c0 388 228 640 645 640c418 0 644 -255 644 -640v-134c0 -383 -226 -636 -644 -636c-417 0 -645 253 -645 636zM305 1493l257 253h284
l257 -253h-284l-107 109h-16l-107 -109h-284zM911 1825v109c13 5 53 11 95 11c109 0 202 -37 202 -159c0 -82 -63 -139 -116 -170l-86 89c27 18 38 35 38 60c0 38 -32 65 -78 65c-29 0 -41 -2 -55 -5z" />
    <glyph glyph-name="Ocircumflexgrave" unicode="&#x1ed2;" horiz-adv-x="1407" 
d="M489 753v-142c0 -197 81 -301 215 -301c133 0 214 104 214 301v142c0 196 -81 301 -214 301c-134 0 -215 -105 -215 -301zM59 613v134c0 388 228 640 645 640c418 0 644 -255 644 -640v-134c0 -383 -226 -636 -644 -636c-417 0 -645 253 -645 636zM305 1493l257 253h284
l257 -253h-284l-107 109h-16l-107 -109h-284zM1307 1658h-236l-245 255h248z" />
    <glyph glyph-name="Odotbelow" unicode="&#x1ecc;" horiz-adv-x="1407" 
d="M489 753v-142c0 -197 81 -301 215 -301c133 0 214 104 214 301v142c0 196 -81 301 -214 301c-134 0 -215 -105 -215 -301zM59 613v134c0 388 228 640 645 640c418 0 644 -255 644 -640v-134c0 -383 -226 -636 -644 -636c-417 0 -645 253 -645 636zM551 -244
c0 83 68 150 150 150c83 0 150 -67 150 -150s-67 -150 -150 -150c-82 0 -150 67 -150 150z" />
    <glyph glyph-name="Odblgrave" unicode="&#x20c;" horiz-adv-x="1407" 
d="M489 753v-142c0 -197 81 -301 215 -301c133 0 214 104 214 301v142c0 196 -81 301 -214 301c-134 0 -215 -105 -215 -301zM59 613v134c0 388 228 640 645 640c418 0 644 -255 644 -640v-134c0 -383 -226 -636 -644 -636c-417 0 -645 253 -645 636zM631 1494h-258
l-346 248h311zM1091 1494h-258l-346 248h311z" />
    <glyph glyph-name="Otildeacute" unicode="&#x1e4c;" horiz-adv-x="1407" 
d="M489 753v-142c0 -197 81 -301 215 -301c133 0 214 104 214 301v142c0 196 -81 301 -214 301c-134 0 -215 -105 -215 -301zM59 613v134c0 388 228 640 645 640c418 0 644 -255 644 -640v-134c0 -383 -226 -636 -644 -636c-417 0 -645 253 -645 636zM592 1756l173 189h271
l-226 -189h-218zM824 1467c-141 0 -170 108 -231 108c-35 0 -62 -34 -65 -82h-182c0 114 77 247 231 247c139 0 185 -108 248 -108c40 0 59 43 59 93h182c0 -151 -103 -258 -242 -258z" />
    <glyph glyph-name="Omacronacute" unicode="&#x1e52;" horiz-adv-x="1407" 
d="M489 753v-142c0 -197 81 -301 215 -301c133 0 214 104 214 301v142c0 196 -81 301 -214 301c-134 0 -215 -105 -215 -301zM59 613v134c0 388 228 640 645 640c418 0 644 -255 644 -640v-134c0 -383 -226 -636 -644 -636c-417 0 -645 253 -645 636zM572 1756l173 189h291
l-226 -189h-238zM1024 1493h-640v168h640v-168z" />
    <glyph glyph-name="Ocircumflextilde" unicode="&#x1ed6;" horiz-adv-x="1407" 
d="M489 753v-142c0 -197 81 -301 215 -301c133 0 214 104 214 301v142c0 196 -81 301 -214 301c-134 0 -215 -105 -215 -301zM59 613v134c0 388 228 640 645 640c418 0 644 -255 644 -640v-134c0 -383 -226 -636 -644 -636c-417 0 -645 253 -645 636zM354 1493l228 190h244
l228 -190h-255l-93 94h-4l-93 -94h-255zM574 1743h-151c0 104 66 196 172 196c110 0 152 -80 205 -80c39 0 51 16 51 69h152c0 -126 -80 -211 -190 -211c-112 0 -150 80 -193 80c-39 0 -46 -34 -46 -54z" />
    <glyph glyph-name="Odotaccentmacron" unicode="&#x230;" horiz-adv-x="1407" 
d="M489 753v-142c0 -197 81 -301 215 -301c133 0 214 104 214 301v142c0 196 -81 301 -214 301c-134 0 -215 -105 -215 -301zM59 613v134c0 388 228 640 645 640c418 0 644 -255 644 -640v-134c0 -383 -226 -636 -644 -636c-417 0 -645 253 -645 636zM554 1579
c0 83 66 146 150 146s150 -63 150 -146s-66 -143 -150 -143s-150 60 -150 143zM1024 1777h-640v168h640v-168z" />
    <glyph glyph-name="Omacrongrave" unicode="&#x1e50;" horiz-adv-x="1407" 
d="M489 753v-142c0 -197 81 -301 215 -301c133 0 214 104 214 301v142c0 196 -81 301 -214 301c-134 0 -215 -105 -215 -301zM59 613v134c0 388 228 640 645 640c418 0 644 -255 644 -640v-134c0 -383 -226 -636 -644 -636c-417 0 -645 253 -645 636zM836 1756h-238
l-226 189h291zM1024 1493h-640v168h640v-168z" />
    <glyph glyph-name="Ocaron" unicode="&#x1d1;" horiz-adv-x="1407" 
d="M489 753v-142c0 -197 81 -301 215 -301c133 0 214 104 214 301v142c0 196 -81 301 -214 301c-134 0 -215 -105 -215 -301zM59 613v134c0 388 228 640 645 640c418 0 644 -255 644 -640v-134c0 -383 -226 -636 -644 -636c-417 0 -645 253 -645 636zM306 1744h284l107 -109
h16l107 109h284l-257 -253h-284z" />
    <glyph glyph-name="Oslashacute" unicode="&#x1fe;" horiz-adv-x="1407" 
d="M704 -23c-149 0 -273 32 -372 91l-96 -117l-158 128l102 125c-80 106 -121 246 -121 409v134c0 388 228 640 645 640c148 0 273 -32 371 -91l77 94l162 -121l-88 -108c80 -107 122 -249 122 -414v-134c0 -383 -226 -636 -644 -636zM475 605c0 -10 0 -32 1 -41l367 450
c-37 34 -85 51 -141 51c-142 0 -227 -109 -227 -311v-149zM702 294c141 0 228 107 228 311v149c0 11 0 34 -1 45l-370 -453c37 -35 86 -52 143 -52zM824 1493h-268l233 318h321z" />
    <glyph glyph-name="Ohungarumlaut" unicode="&#x150;" horiz-adv-x="1407" 
d="M489 753v-142c0 -197 81 -301 215 -301c133 0 214 104 214 301v142c0 196 -81 301 -214 301c-134 0 -215 -105 -215 -301zM59 613v134c0 388 228 640 645 640c418 0 644 -255 644 -640v-134c0 -383 -226 -636 -644 -636c-417 0 -645 253 -645 636zM317 1493l293 248h311
l-346 -248h-258zM777 1493l293 248h311l-346 -248h-258z" />
    <glyph glyph-name="Obreve" unicode="&#x14e;" horiz-adv-x="1407" 
d="M489 753v-142c0 -197 81 -301 215 -301c133 0 214 104 214 301v142c0 196 -81 301 -214 301c-134 0 -215 -105 -215 -301zM59 613v134c0 388 228 640 645 640c418 0 644 -255 644 -640v-134c0 -383 -226 -636 -644 -636c-417 0 -645 253 -645 636zM379 1753h187
c0 -76 46 -115 138 -115s137 39 137 115h183c0 -190 -124 -292 -320 -292s-325 101 -325 292z" />
    <glyph glyph-name="Oinvertedbreve" unicode="&#x20e;" horiz-adv-x="1407" 
d="M489 753v-142c0 -197 81 -301 215 -301c133 0 214 104 214 301v142c0 196 -81 301 -214 301c-134 0 -215 -105 -215 -301zM59 613v134c0 388 228 640 645 640c418 0 644 -255 644 -640v-134c0 -383 -226 -636 -644 -636c-417 0 -645 253 -645 636zM704 1608
c-92 0 -138 -39 -138 -115h-187c0 191 129 292 325 292s320 -102 320 -292h-183c0 76 -45 115 -137 115z" />
    <glyph glyph-name="Ohookabove" unicode="&#x1ece;" horiz-adv-x="1407" 
d="M489 753v-142c0 -197 81 -301 215 -301c133 0 214 104 214 301v142c0 196 -81 301 -214 301c-134 0 -215 -105 -215 -301zM59 613v134c0 388 228 640 645 640c418 0 644 -255 644 -640v-134c0 -383 -226 -636 -644 -636c-417 0 -645 253 -645 636zM520 1669v144
c22 11 71 23 126 23c158 0 246 -76 246 -206c0 -112 -73 -166 -148 -206l-107 113c37 15 67 39 67 78c0 47 -45 65 -99 65c-23 0 -62 -5 -85 -11z" />
    <glyph glyph-name="Odieresismacron" unicode="&#x22a;" horiz-adv-x="1407" 
d="M489 753v-142c0 -197 81 -301 215 -301c133 0 214 104 214 301v142c0 196 -81 301 -214 301c-134 0 -215 -105 -215 -301zM59 613v134c0 388 228 640 645 640c418 0 644 -255 644 -640v-134c0 -383 -226 -636 -644 -636c-417 0 -645 253 -645 636zM498 1448
c-74 0 -129 57 -129 132s55 135 129 135c76 0 138 -60 138 -135s-62 -132 -138 -132zM903 1448c-74 0 -131 57 -131 132s57 135 131 135c76 0 136 -60 136 -135s-60 -132 -136 -132zM1024 1777h-640v168h640v-168z" />
    <glyph glyph-name="Otildemacron" unicode="&#x22c;" horiz-adv-x="1407" 
d="M489 753v-142c0 -197 81 -301 215 -301c133 0 214 104 214 301v142c0 196 -81 301 -214 301c-134 0 -215 -105 -215 -301zM59 613v134c0 388 228 640 645 640c418 0 644 -255 644 -640v-134c0 -383 -226 -636 -644 -636c-417 0 -645 253 -645 636zM824 1467
c-141 0 -170 108 -231 108c-35 0 -62 -34 -65 -82h-182c0 114 77 247 231 247c139 0 185 -108 248 -108c40 0 59 43 59 93h182c0 -151 -103 -258 -242 -258zM1024 1777h-640v168h640v-168z" />
    <glyph glyph-name="Odotaccent" unicode="&#x22e;" horiz-adv-x="1407" 
d="M489 753v-142c0 -197 81 -301 215 -301c133 0 214 104 214 301v142c0 196 -81 301 -214 301c-134 0 -215 -105 -215 -301zM59 613v134c0 388 228 640 645 640c418 0 644 -255 644 -640v-134c0 -383 -226 -636 -644 -636c-417 0 -645 253 -645 636zM527 1663
c0 98 79 172 177 172s177 -74 177 -172s-79 -171 -177 -171s-177 73 -177 171z" />
    <glyph glyph-name="Ocircumflexdotbelow" unicode="&#x1ed8;" horiz-adv-x="1407" 
d="M489 753v-142c0 -197 81 -301 215 -301c133 0 214 104 214 301v142c0 196 -81 301 -214 301c-134 0 -215 -105 -215 -301zM59 613v134c0 388 228 640 645 640c418 0 644 -255 644 -640v-134c0 -383 -226 -636 -644 -636c-417 0 -645 253 -645 636zM306 1493l257 253h284
l257 -253h-284l-107 109h-16l-107 -109h-284zM551 -244c0 83 68 150 150 150c83 0 150 -67 150 -150s-67 -150 -150 -150c-82 0 -150 67 -150 150z" />
    <glyph glyph-name="Ocircumflexacute" unicode="&#x1ed0;" horiz-adv-x="1407" 
d="M489 753v-142c0 -197 81 -301 215 -301c133 0 214 104 214 301v142c0 196 -81 301 -214 301c-134 0 -215 -105 -215 -301zM59 613v134c0 388 228 640 645 640c418 0 644 -255 644 -640v-134c0 -383 -226 -636 -644 -636c-417 0 -645 253 -645 636zM305 1493l257 253h284
l257 -253h-284l-107 109h-16l-107 -109h-284zM1001 1658l233 255h248l-245 -255h-236z" />
    <glyph glyph-name="Otildedieresis" unicode="&#x1e4e;" horiz-adv-x="1407" 
d="M489 753v-142c0 -197 81 -301 215 -301c133 0 214 104 214 301v142c0 196 -81 301 -214 301c-134 0 -215 -105 -215 -301zM59 613v134c0 388 228 640 645 640c418 0 644 -255 644 -640v-134c0 -383 -226 -636 -644 -636c-417 0 -645 253 -645 636zM824 1396
c-141 0 -170 108 -231 108c-35 0 -62 -34 -65 -82h-182c0 114 77 247 231 247c139 0 185 -108 248 -108c40 0 59 43 59 93h182c0 -151 -103 -258 -242 -258zM498 1680c-74 0 -129 57 -129 132s55 135 129 135c76 0 138 -60 138 -135s-62 -132 -138 -132zM903 1680
c-74 0 -131 57 -131 132s57 135 131 135c76 0 136 -60 136 -135s-60 -132 -136 -132z" />
    <glyph glyph-name="Omacron" unicode="&#x14c;" horiz-adv-x="1407" 
d="M489 753v-142c0 -197 81 -301 215 -301c133 0 214 104 214 301v142c0 196 -81 301 -214 301c-134 0 -215 -105 -215 -301zM59 613v134c0 388 228 640 645 640c418 0 644 -255 644 -640v-134c0 -383 -226 -636 -644 -636c-417 0 -645 253 -645 636zM1024 1493h-640v168
h640v-168z" />
    <glyph glyph-name="Oogonek" unicode="&#x1ea;" horiz-adv-x="1407" 
d="M489 753v-142c0 -197 81 -301 215 -301c133 0 214 104 214 301v142c0 196 -81 301 -214 301c-134 0 -215 -105 -215 -301zM651 -16c-346 0 -592 267 -592 629v134c0 388 228 640 645 640c418 0 644 -255 644 -640v-134c0 -274 -124 -399 -222 -497
c-69 -69 -135 -117 -135 -194c0 -71 57 -95 121 -95c22 0 58 3 74 8v-206c-47 -12 -104 -24 -180 -23c-186 3 -273 90 -275 207c-1 69 27 122 76 177l-8 16c-47 -21 -127 -22 -148 -22z" />
    <glyph glyph-name="Oogonekmacron" unicode="&#x1ec;" horiz-adv-x="1407" 
d="M489 753v-142c0 -197 81 -301 215 -301c133 0 214 104 214 301v142c0 196 -81 301 -214 301c-134 0 -215 -105 -215 -301zM651 -16c-346 0 -592 267 -592 629v134c0 388 228 640 645 640c418 0 644 -255 644 -640v-134c0 -274 -124 -399 -222 -497
c-69 -69 -135 -117 -135 -194c0 -71 57 -95 121 -95c22 0 58 3 74 8v-206c-47 -12 -104 -24 -180 -23c-186 3 -273 90 -275 207c-1 69 27 122 76 177l-8 16c-47 -21 -127 -22 -148 -22zM1024 1493h-640v168h640v-168z" />
    <glyph glyph-name="Ohorn" unicode="&#x1a0;" horiz-adv-x="1466" 
d="M1348 613c0 -383 -226 -636 -644 -636c-417 0 -645 253 -645 636v134c0 388 228 640 645 640c169 0 288 -48 422 -48c121 0 131 53 131 113v159h303v-224c0 -165 -107 -301 -285 -301h-2c50 -95 75 -210 75 -339v-134zM489 753v-145c0 -197 81 -301 215 -301
c133 0 216 104 216 301v145c0 196 -83 301 -216 301c-134 0 -215 -105 -215 -301z" />
    <glyph glyph-name="Ohorndotbelow" unicode="&#x1ee2;" horiz-adv-x="1466" 
d="M1348 613c0 -383 -226 -636 -644 -636c-417 0 -645 253 -645 636v134c0 388 228 640 645 640c169 0 288 -48 422 -48c121 0 131 53 131 113v159h303v-224c0 -165 -107 -301 -285 -301h-2c50 -95 75 -210 75 -339v-134zM489 753v-145c0 -197 81 -301 215 -301
c133 0 216 104 216 301v145c0 196 -83 301 -216 301c-134 0 -215 -105 -215 -301zM554 -244c0 83 68 150 150 150c83 0 150 -67 150 -150s-67 -150 -150 -150c-82 0 -150 67 -150 150z" />
    <glyph glyph-name="Ohornhookabove" unicode="&#x1ede;" horiz-adv-x="1466" 
d="M1348 613c0 -383 -226 -636 -644 -636c-417 0 -645 253 -645 636v134c0 388 228 640 645 640c169 0 288 -48 422 -48c121 0 131 53 131 113v159h303v-224c0 -165 -107 -301 -285 -301h-2c50 -95 75 -210 75 -339v-134zM489 753v-145c0 -197 81 -301 215 -301
c133 0 216 104 216 301v145c0 196 -83 301 -216 301c-134 0 -215 -105 -215 -301zM520 1669v144c22 11 71 23 126 23c158 0 246 -76 246 -206c0 -112 -73 -166 -148 -206l-107 113c37 15 67 39 67 78c0 47 -45 65 -99 65c-23 0 -62 -5 -85 -11z" />
    <glyph glyph-name="Ohorntilde" unicode="&#x1ee0;" horiz-adv-x="1466" 
d="M1348 613c0 -383 -226 -636 -644 -636c-417 0 -645 253 -645 636v134c0 388 228 640 645 640c169 0 288 -48 422 -48c121 0 131 53 131 113v159h303v-224c0 -165 -107 -301 -285 -301h-2c50 -95 75 -210 75 -339v-134zM489 753v-145c0 -197 81 -301 215 -301
c133 0 216 104 216 301v145c0 196 -83 301 -216 301c-134 0 -215 -105 -215 -301zM824 1467c-141 0 -170 108 -231 108c-35 0 -62 -34 -65 -82h-182c0 114 77 247 231 247c139 0 185 -108 248 -108c40 0 59 43 59 93h182c0 -151 -103 -258 -242 -258z" />
    <glyph glyph-name="Ohorngrave" unicode="&#x1edc;" horiz-adv-x="1466" 
d="M1348 613c0 -383 -226 -636 -644 -636c-417 0 -645 253 -645 636v134c0 388 228 640 645 640c169 0 288 -48 422 -48c121 0 131 53 131 113v159h303v-224c0 -165 -107 -301 -285 -301h-2c50 -95 75 -210 75 -339v-134zM489 753v-145c0 -197 81 -301 215 -301
c133 0 216 104 216 301v145c0 196 -83 301 -216 301c-134 0 -215 -105 -215 -301zM852 1493h-268l-286 318h321z" />
    <glyph glyph-name="Ohornacute" unicode="&#x1eda;" horiz-adv-x="1466" 
d="M1348 613c0 -383 -226 -636 -644 -636c-417 0 -645 253 -645 636v134c0 388 228 640 645 640c169 0 288 -48 422 -48c121 0 131 53 131 113v159h303v-224c0 -165 -107 -301 -285 -301h-2c50 -95 75 -210 75 -339v-134zM489 753v-145c0 -197 81 -301 215 -301
c133 0 216 104 216 301v145c0 196 -83 301 -216 301c-134 0 -215 -105 -215 -301zM824 1493h-268l233 318h321z" />
    <glyph glyph-name="P" unicode="P" horiz-adv-x="1273" 
d="M115 1365h623c345 0 503 -241 503 -502c0 -266 -163 -494 -509 -494h-198v-369h-419v1365zM532 1055v-384h92c116 0 193 69 193 192c0 126 -77 192 -193 192h-92z" />
    <glyph glyph-name="Pdotaccent" unicode="&#x1e56;" horiz-adv-x="1273" 
d="M115 1365h623c345 0 503 -241 503 -502c0 -266 -163 -494 -509 -494h-198v-369h-419v1365zM532 1055v-384h92c116 0 193 69 193 192c0 126 -77 192 -193 192h-92zM460 1663c0 98 79 172 177 172s177 -74 177 -172s-79 -171 -177 -171s-177 73 -177 171z" />
    <glyph glyph-name="Pacute" unicode="&#x1e54;" horiz-adv-x="1273" 
d="M115 1365h623c345 0 503 -241 503 -502c0 -266 -163 -494 -509 -494h-198v-369h-419v1365zM532 1055v-384h92c116 0 193 69 193 192c0 126 -77 192 -193 192h-92zM757 1493h-268l233 318h321z" />
    <glyph glyph-name="Q" unicode="Q" horiz-adv-x="1414" 
d="M65 617v126c0 384 247 644 645 644c399 0 644 -263 644 -644v-126c0 -204 -70 -371 -197 -484l150 -240h-382l-61 99c-48 -9 -100 -15 -154 -15c-398 0 -645 260 -645 640zM474 748v-142c0 -216 88 -325 220 -333l-104 171h334c13 45 21 99 21 162v142
c0 202 -96 309 -235 309c-140 0 -236 -107 -236 -309z" />
    <glyph glyph-name="R" unicode="R" horiz-adv-x="1334" 
d="M741 1365c357 0 541 -188 541 -470c0 -226 -162 -352 -239 -387l268 -508h-461l-219 455h-105v-455h-411v1365h626zM526 735h151c92 0 172 51 172 162c0 112 -84 167 -172 167h-151v-329z" />
    <glyph glyph-name="Rcaron" unicode="&#x158;" horiz-adv-x="1334" 
d="M741 1365c357 0 541 -188 541 -470c0 -226 -162 -352 -239 -387l268 -508h-461l-219 455h-105v-455h-411v1365h626zM526 735h151c92 0 172 51 172 162c0 112 -84 167 -172 167h-151v-329zM268 1744h284l107 -109h16l107 109h284l-257 -253h-284z" />
    <glyph glyph-name="Rlinebelow" unicode="&#x1e5e;" horiz-adv-x="1334" 
d="M741 1365c357 0 541 -188 541 -470c0 -226 -162 -352 -239 -387l268 -508h-461l-219 455h-105v-455h-411v1365h626zM526 735h151c92 0 172 51 172 162c0 112 -84 167 -172 167h-151v-329zM987 -389h-640v203h640v-203z" />
    <glyph glyph-name="Rdotbelowmacron" unicode="&#x1e5c;" horiz-adv-x="1334" 
d="M741 1365c357 0 541 -188 541 -470c0 -226 -162 -352 -239 -387l268 -508h-461l-219 455h-105v-455h-411v1365h626zM526 735h151c92 0 172 51 172 162c0 112 -84 167 -172 167h-151v-329zM517 -244c0 83 68 150 150 150c83 0 150 -67 150 -150s-67 -150 -150 -150
c-82 0 -150 67 -150 150zM987 1493h-640v168h640v-168z" />
    <glyph glyph-name="Rdblgrave" unicode="&#x210;" horiz-adv-x="1334" 
d="M741 1365c357 0 541 -188 541 -470c0 -226 -162 -352 -239 -387l268 -508h-461l-219 455h-105v-455h-411v1365h626zM526 735h151c92 0 172 51 172 162c0 112 -84 167 -172 167h-151v-329zM594 1494h-258l-346 248h311zM1054 1494h-258l-346 248h311z" />
    <glyph glyph-name="Rinvertedbreve" unicode="&#x212;" horiz-adv-x="1334" 
d="M741 1365c357 0 541 -188 541 -470c0 -226 -162 -352 -239 -387l268 -508h-461l-219 455h-105v-455h-411v1365h626zM526 735h151c92 0 172 51 172 162c0 112 -84 167 -172 167h-151v-329zM667 1608c-92 0 -138 -39 -138 -115h-187c0 191 129 292 325 292
s320 -102 320 -292h-183c0 76 -45 115 -137 115z" />
    <glyph glyph-name="Racute" unicode="&#x154;" horiz-adv-x="1334" 
d="M741 1365c357 0 541 -188 541 -470c0 -226 -162 -352 -239 -387l268 -508h-461l-219 455h-105v-455h-411v1365h626zM526 735h151c92 0 172 51 172 162c0 112 -84 167 -172 167h-151v-329zM787 1493h-268l233 318h321z" />
    <glyph glyph-name="Rdotbelow" unicode="&#x1e5a;" horiz-adv-x="1334" 
d="M741 1365c357 0 541 -188 541 -470c0 -226 -162 -352 -239 -387l268 -508h-461l-219 455h-105v-455h-411v1365h626zM526 735h151c92 0 172 51 172 162c0 112 -84 167 -172 167h-151v-329zM517 -244c0 83 68 150 150 150c83 0 150 -67 150 -150s-67 -150 -150 -150
c-82 0 -150 67 -150 150z" />
    <glyph glyph-name="Rdotaccent" unicode="&#x1e58;" horiz-adv-x="1334" 
d="M741 1365c357 0 541 -188 541 -470c0 -226 -162 -352 -239 -387l268 -508h-461l-219 455h-105v-455h-411v1365h626zM526 735h151c92 0 172 51 172 162c0 112 -84 167 -172 167h-151v-329zM490 1663c0 98 79 172 177 172s177 -74 177 -172s-79 -171 -177 -171
s-177 73 -177 171z" />
    <glyph glyph-name="Rcommaaccent" unicode="&#x156;" horiz-adv-x="1334" 
d="M741 1365c357 0 541 -188 541 -470c0 -226 -162 -352 -239 -387l268 -508h-461l-219 455h-105v-455h-411v1365h626zM526 735h151c92 0 172 51 172 162c0 112 -84 167 -172 167h-151v-329zM695 -489h-248l85 335h277z" />
    <glyph glyph-name="S" unicode="S" horiz-adv-x="1288" 
d="M57 418h394c2 -64 69 -133 200 -133c128 0 172 51 172 107c0 70 -68 94 -191 116l-165 29c-225 40 -388 153 -388 406c0 282 227 444 567 444c386 0 559 -219 559 -432h-380c-2 57 -57 129 -178 129c-107 0 -152 -49 -152 -107c0 -59 67 -89 178 -106l175 -27
c189 -28 385 -125 385 -407c0 -266 -191 -460 -591 -460c-448 0 -584 231 -585 441z" />
    <glyph glyph-name="Scaron" unicode="&#x160;" horiz-adv-x="1288" 
d="M57 418h394c2 -64 69 -133 200 -133c128 0 172 51 172 107c0 70 -68 94 -191 116l-165 29c-225 40 -388 153 -388 406c0 282 227 444 567 444c386 0 559 -219 559 -432h-380c-2 57 -57 129 -178 129c-107 0 -152 -49 -152 -107c0 -59 67 -89 178 -106l175 -27
c189 -28 385 -125 385 -407c0 -266 -191 -460 -591 -460c-448 0 -584 231 -585 441zM245 1744h284l107 -109h16l107 109h284l-257 -253h-284z" />
    <glyph glyph-name="Scedilla" unicode="&#x15e;" horiz-adv-x="1288" 
d="M642 -477c-76 0 -121 9 -141 16v149c27 -8 66 -13 105 -13c49 0 99 4 99 39c0 28 -8 49 -106 49h-58v134l32 82c-393 23 -515 240 -516 439h394c2 -64 69 -133 200 -133c128 0 172 51 172 107c0 70 -68 94 -191 116l-165 29c-225 40 -388 153 -388 406
c0 282 227 444 567 444c386 0 559 -219 559 -432h-380c-2 57 -57 129 -178 129c-107 0 -152 -49 -152 -107c0 -59 67 -89 178 -106l175 -27c189 -28 385 -125 385 -407c0 -232 -146 -410 -449 -451l-34 -80c106 0 169 -74 169 -177c0 -145 -105 -206 -277 -206z" />
    <glyph glyph-name="Sdotaccent" unicode="&#x1e60;" horiz-adv-x="1288" 
d="M57 418h394c2 -64 69 -133 200 -133c128 0 172 51 172 107c0 70 -68 94 -191 116l-165 29c-225 40 -388 153 -388 406c0 282 227 444 567 444c386 0 559 -219 559 -432h-380c-2 57 -57 129 -178 129c-107 0 -152 -49 -152 -107c0 -59 67 -89 178 -106l175 -27
c189 -28 385 -125 385 -407c0 -266 -191 -460 -591 -460c-448 0 -584 231 -585 441zM467 1663c0 98 79 172 177 172s177 -74 177 -172s-79 -171 -177 -171s-177 73 -177 171z" />
    <glyph glyph-name="Sdotbelow" unicode="&#x1e62;" horiz-adv-x="1288" 
d="M57 418h394c2 -64 69 -133 200 -133c128 0 172 51 172 107c0 70 -68 94 -191 116l-165 29c-225 40 -388 153 -388 406c0 282 227 444 567 444c386 0 559 -219 559 -432h-380c-2 57 -57 129 -178 129c-107 0 -152 -49 -152 -107c0 -59 67 -89 178 -106l175 -27
c189 -28 385 -125 385 -407c0 -266 -191 -460 -591 -460c-448 0 -584 231 -585 441zM494 -244c0 83 68 150 150 150c83 0 150 -67 150 -150s-67 -150 -150 -150c-82 0 -150 67 -150 150z" />
    <glyph glyph-name="Scommaaccent" unicode="&#x218;" horiz-adv-x="1288" 
d="M57 418h394c2 -64 69 -133 200 -133c128 0 172 51 172 107c0 70 -68 94 -191 116l-165 29c-225 40 -388 153 -388 406c0 282 227 444 567 444c386 0 559 -219 559 -432h-380c-2 57 -57 129 -178 129c-107 0 -152 -49 -152 -107c0 -59 67 -89 178 -106l175 -27
c189 -28 385 -125 385 -407c0 -266 -191 -460 -591 -460c-448 0 -584 231 -585 441zM672 -489h-248l85 335h277z" />
    <glyph glyph-name="Sdotbelowdotaccent" unicode="&#x1e68;" horiz-adv-x="1288" 
d="M57 418h394c2 -64 69 -133 200 -133c128 0 172 51 172 107c0 70 -68 94 -191 116l-165 29c-225 40 -388 153 -388 406c0 282 227 444 567 444c386 0 559 -219 559 -432h-380c-2 57 -57 129 -178 129c-107 0 -152 -49 -152 -107c0 -59 67 -89 178 -106l175 -27
c189 -28 385 -125 385 -407c0 -266 -191 -460 -591 -460c-448 0 -584 231 -585 441zM494 -244c0 83 68 150 150 150c83 0 150 -67 150 -150s-67 -150 -150 -150c-82 0 -150 67 -150 150zM467 1663c0 98 79 172 177 172s177 -74 177 -172s-79 -171 -177 -171
s-177 73 -177 171z" />
    <glyph glyph-name="Scarondotaccent" unicode="&#x1e66;" horiz-adv-x="1288" 
d="M57 418h394c2 -64 69 -133 200 -133c128 0 172 51 172 107c0 70 -68 94 -191 116l-165 29c-225 40 -388 153 -388 406c0 282 227 444 567 444c386 0 559 -219 559 -432h-380c-2 57 -57 129 -178 129c-107 0 -152 -49 -152 -107c0 -59 67 -89 178 -106l175 -27
c189 -28 385 -125 385 -407c0 -266 -191 -460 -591 -460c-448 0 -584 231 -585 441zM252 1687h290l101 -92h2l101 92h290l-267 -196h-250zM539 1841c0 57 47 104 105 104s105 -47 105 -104s-47 -105 -105 -105s-105 48 -105 105z" />
    <glyph glyph-name="Scircumflex" unicode="&#x15c;" horiz-adv-x="1288" 
d="M57 418h394c2 -64 69 -133 200 -133c128 0 172 51 172 107c0 70 -68 94 -191 116l-165 29c-225 40 -388 153 -388 406c0 282 227 444 567 444c386 0 559 -219 559 -432h-380c-2 57 -57 129 -178 129c-107 0 -152 -49 -152 -107c0 -59 67 -89 178 -106l175 -27
c189 -28 385 -125 385 -407c0 -266 -191 -460 -591 -460c-448 0 -584 231 -585 441zM245 1493l257 253h284l257 -253h-284l-107 109h-16l-107 -109h-284z" />
    <glyph glyph-name="Sacutedotaccent" unicode="&#x1e64;" horiz-adv-x="1288" 
d="M57 418h394c2 -64 69 -133 200 -133c128 0 172 51 172 107c0 70 -68 94 -191 116l-165 29c-225 40 -388 153 -388 406c0 282 227 444 567 444c386 0 559 -219 559 -432h-380c-2 57 -57 129 -178 129c-107 0 -152 -49 -152 -107c0 -59 67 -89 178 -106l175 -27
c189 -28 385 -125 385 -407c0 -266 -191 -460 -591 -460c-448 0 -584 231 -585 441zM898 1493h-268l233 318h321zM211 1638c0 98 79 172 177 172s177 -74 177 -172s-79 -171 -177 -171s-177 73 -177 171z" />
    <glyph glyph-name="Sacute" unicode="&#x15a;" horiz-adv-x="1288" 
d="M57 418h394c2 -64 69 -133 200 -133c128 0 172 51 172 107c0 70 -68 94 -191 116l-165 29c-225 40 -388 153 -388 406c0 282 227 444 567 444c386 0 559 -219 559 -432h-380c-2 57 -57 129 -178 129c-107 0 -152 -49 -152 -107c0 -59 67 -89 178 -106l175 -27
c189 -28 385 -125 385 -407c0 -266 -191 -460 -591 -460c-448 0 -584 231 -585 441zM764 1493h-268l233 318h321z" />
    <glyph glyph-name="T" unicode="T" horiz-adv-x="1128" 
d="M774 0h-420v1029h-347v336h1114v-336h-347v-1029z" />
    <glyph glyph-name="Tcircumflexbelow" unicode="&#x1e70;" horiz-adv-x="1128" 
d="M774 0h-420v1029h-347v336h1114v-336h-347v-1029zM170 -373l257 253h284l257 -253h-284l-107 109h-16l-107 -109h-284z" />
    <glyph glyph-name="Tdotbelow" unicode="&#x1e6c;" horiz-adv-x="1128" 
d="M774 0h-420v1029h-347v336h1114v-336h-347v-1029zM411 -244c0 83 68 150 150 150c83 0 150 -67 150 -150s-67 -150 -150 -150c-82 0 -150 67 -150 150z" />
    <glyph glyph-name="Tcommaaccent" unicode="&#x21a;" horiz-adv-x="1128" 
d="M774 0h-420v1029h-347v336h1114v-336h-347v-1029zM592 -489h-248l85 335h277z" />
    <glyph glyph-name="Tdotaccent" unicode="&#x1e6a;" horiz-adv-x="1128" 
d="M774 0h-420v1029h-347v336h1114v-336h-347v-1029zM387 1663c0 98 79 172 177 172s177 -74 177 -172s-79 -171 -177 -171s-177 73 -177 171z" />
    <glyph glyph-name="Tcedilla" unicode="&#x162;" horiz-adv-x="1128" 
d="M523 -477c-76 0 -121 9 -141 16v149c27 -8 66 -13 105 -13c49 0 99 4 99 39c0 28 -8 49 -106 49h-58v134l40 103h-108v1029h-347v336h1114v-336h-347v-1029h-103l-40 -94c106 0 169 -74 169 -177c0 -145 -105 -206 -277 -206z" />
    <glyph glyph-name="Tlinebelow" unicode="&#x1e6e;" horiz-adv-x="1128" 
d="M774 0h-420v1029h-347v336h1114v-336h-347v-1029zM876 -389h-640v203h640v-203z" />
    <glyph glyph-name="Tcaron" unicode="&#x164;" horiz-adv-x="1128" 
d="M774 0h-420v1029h-347v336h1114v-336h-347v-1029zM166 1744h284l107 -109h16l107 109h284l-257 -253h-284z" />
    <glyph glyph-name="Tbar" unicode="&#x166;" horiz-adv-x="1130" 
d="M999 524h-224v-524h-420v524h-223v228h223v277h-347v336h1114v-336h-347v-277h224v-228z" />
    <glyph glyph-name="U" unicode="U" horiz-adv-x="1408" 
d="M520 1365v-834c0 -151 78 -210 184 -210c105 0 184 62 184 210v834h420v-893c0 -301 -230 -495 -604 -495s-604 194 -604 495v893h420z" />
    <glyph glyph-name="Ugrave" unicode="&#xd9;" horiz-adv-x="1408" 
d="M520 1365v-834c0 -151 78 -210 184 -210c105 0 184 62 184 210v834h420v-893c0 -301 -230 -495 -604 -495s-604 194 -604 495v893h420zM852 1493h-268l-286 318h321z" />
    <glyph glyph-name="Udblgrave" unicode="&#x214;" horiz-adv-x="1408" 
d="M520 1365v-834c0 -151 78 -210 184 -210c105 0 184 62 184 210v834h420v-893c0 -301 -230 -495 -604 -495s-604 194 -604 495v893h420zM631 1494h-258l-346 248h311zM1091 1494h-258l-346 248h311z" />
    <glyph glyph-name="Uacute" unicode="&#xda;" horiz-adv-x="1408" 
d="M520 1365v-834c0 -151 78 -210 184 -210c105 0 184 62 184 210v834h420v-893c0 -301 -230 -495 -604 -495s-604 194 -604 495v893h420zM824 1493h-268l233 318h321z" />
    <glyph glyph-name="Uhungarumlaut" unicode="&#x170;" horiz-adv-x="1408" 
d="M520 1365v-834c0 -151 78 -210 184 -210c105 0 184 62 184 210v834h420v-893c0 -301 -230 -495 -604 -495s-604 194 -604 495v893h420zM317 1493l293 248h311l-346 -248h-258zM777 1493l293 248h311l-346 -248h-258z" />
    <glyph glyph-name="Ucircumflex" unicode="&#xdb;" horiz-adv-x="1408" 
d="M520 1365v-834c0 -151 78 -210 184 -210c105 0 184 62 184 210v834h420v-893c0 -301 -230 -495 -604 -495s-604 194 -604 495v893h420zM305 1493l257 253h284l257 -253h-284l-107 109h-16l-107 -109h-284z" />
    <glyph glyph-name="Ucaron" unicode="&#x1d3;" horiz-adv-x="1408" 
d="M520 1365v-834c0 -151 78 -210 184 -210c105 0 184 62 184 210v834h420v-893c0 -301 -230 -495 -604 -495s-604 194 -604 495v893h420zM305 1744h284l107 -109h16l107 109h284l-257 -253h-284z" />
    <glyph glyph-name="Ucircumflexbelow" unicode="&#x1e76;" horiz-adv-x="1408" 
d="M520 1365v-834c0 -151 78 -210 184 -210c105 0 184 62 184 210v834h420v-893c0 -301 -230 -495 -604 -495s-604 194 -604 495v893h420zM305 -373l257 253h284l257 -253h-284l-107 109h-16l-107 -109h-284z" />
    <glyph glyph-name="Udieresis" unicode="&#xdc;" horiz-adv-x="1408" 
d="M520 1365v-834c0 -151 78 -210 184 -210c105 0 184 62 184 210v834h420v-893c0 -301 -230 -495 -604 -495s-604 194 -604 495v893h420zM498 1448c-74 0 -129 57 -129 132s55 135 129 135c76 0 138 -60 138 -135s-62 -132 -138 -132zM903 1448c-74 0 -131 57 -131 132
s57 135 131 135c76 0 136 -60 136 -135s-60 -132 -136 -132z" />
    <glyph glyph-name="Udieresisgrave" unicode="&#x1db;" horiz-adv-x="1408" 
d="M520 1365v-834c0 -151 78 -210 184 -210c105 0 184 62 184 210v834h420v-893c0 -301 -230 -495 -604 -495s-604 194 -604 495v893h420zM836 1756h-238l-226 189h291zM498 1448c-74 0 -129 57 -129 132s55 135 129 135c76 0 138 -60 138 -135s-62 -132 -138 -132z
M903 1448c-74 0 -131 57 -131 132s57 135 131 135c76 0 136 -60 136 -135s-60 -132 -136 -132z" />
    <glyph glyph-name="Udieresisacute" unicode="&#x1d7;" horiz-adv-x="1408" 
d="M520 1365v-834c0 -151 78 -210 184 -210c105 0 184 62 184 210v834h420v-893c0 -301 -230 -495 -604 -495s-604 194 -604 495v893h420zM572 1756l173 189h291l-226 -189h-238zM498 1448c-74 0 -129 57 -129 132s55 135 129 135c76 0 138 -60 138 -135s-62 -132 -138 -132
zM903 1448c-74 0 -131 57 -131 132s57 135 131 135c76 0 136 -60 136 -135s-60 -132 -136 -132z" />
    <glyph glyph-name="Udieresismacron" unicode="&#x1d5;" horiz-adv-x="1408" 
d="M520 1365v-834c0 -151 78 -210 184 -210c105 0 184 62 184 210v834h420v-893c0 -301 -230 -495 -604 -495s-604 194 -604 495v893h420zM498 1448c-74 0 -129 57 -129 132s55 135 129 135c76 0 138 -60 138 -135s-62 -132 -138 -132zM903 1448c-74 0 -131 57 -131 132
s57 135 131 135c76 0 136 -60 136 -135s-60 -132 -136 -132zM1024 1777h-640v168h640v-168z" />
    <glyph glyph-name="Udieresiscaron" unicode="&#x1d9;" horiz-adv-x="1408" 
d="M520 1365v-834c0 -151 78 -210 184 -210c105 0 184 62 184 210v834h420v-893c0 -301 -230 -495 -604 -495s-604 194 -604 495v893h420zM369 1580c0 75 55 135 129 135c76 0 138 -60 138 -135s-62 -132 -138 -132c-74 0 -129 57 -129 132zM772 1580c0 75 57 135 131 135
c76 0 136 -60 136 -135s-60 -132 -136 -132c-74 0 -131 57 -131 132zM312 1945h290l101 -92h2l101 92h290l-267 -196h-250z" />
    <glyph glyph-name="Udieresisbelow" unicode="&#x1e72;" horiz-adv-x="1408" 
d="M520 1365v-834c0 -151 78 -210 184 -210c105 0 184 62 184 210v834h420v-893c0 -301 -230 -495 -604 -495s-604 194 -604 495v893h420zM481 -379c-83 0 -143 57 -143 141s60 144 143 144c85 0 147 -60 147 -144s-62 -141 -147 -141zM920 -379c-83 0 -140 57 -140 141
s57 144 140 144c85 0 150 -60 150 -144s-65 -141 -150 -141z" />
    <glyph glyph-name="Utildebelow" unicode="&#x1e74;" horiz-adv-x="1408" 
d="M520 1365v-834c0 -151 78 -210 184 -210c105 0 184 62 184 210v834h420v-893c0 -301 -230 -495 -604 -495s-604 194 -604 495v893h420zM848 -392c-145 0 -187 111 -256 111c-49 0 -63 -55 -63 -83h-202c0 143 88 267 238 267c143 0 188 -111 269 -111c42 0 69 29 69 95
h202c0 -163 -109 -279 -257 -279z" />
    <glyph glyph-name="Uhookabove" unicode="&#x1ee6;" horiz-adv-x="1408" 
d="M520 1365v-834c0 -151 78 -210 184 -210c105 0 184 62 184 210v834h420v-893c0 -301 -230 -495 -604 -495s-604 194 -604 495v893h420zM520 1669v144c22 11 71 23 126 23c158 0 246 -76 246 -206c0 -112 -73 -166 -148 -206l-107 113c37 15 67 39 67 78
c0 47 -45 65 -99 65c-23 0 -62 -5 -85 -11z" />
    <glyph glyph-name="Ubreve" unicode="&#x16c;" horiz-adv-x="1408" 
d="M520 1365v-834c0 -151 78 -210 184 -210c105 0 184 62 184 210v834h420v-893c0 -301 -230 -495 -604 -495s-604 194 -604 495v893h420zM379 1753h187c0 -76 46 -115 138 -115s137 39 137 115h183c0 -190 -124 -292 -320 -292s-325 101 -325 292z" />
    <glyph glyph-name="Uinvertedbreve" unicode="&#x216;" horiz-adv-x="1408" 
d="M520 1365v-834c0 -151 78 -210 184 -210c105 0 184 62 184 210v834h420v-893c0 -301 -230 -495 -604 -495s-604 194 -604 495v893h420zM704 1608c-92 0 -138 -39 -138 -115h-187c0 191 129 292 325 292s320 -102 320 -292h-183c0 76 -45 115 -137 115z" />
    <glyph glyph-name="Utildeacute" unicode="&#x1e78;" horiz-adv-x="1408" 
d="M520 1365v-834c0 -151 78 -210 184 -210c105 0 184 62 184 210v834h420v-893c0 -301 -230 -495 -604 -495s-604 194 -604 495v893h420zM592 1756l173 189h271l-226 -189h-218zM824 1467c-141 0 -170 108 -231 108c-35 0 -62 -34 -65 -82h-182c0 114 77 247 231 247
c139 0 185 -108 248 -108c40 0 59 43 59 93h182c0 -151 -103 -258 -242 -258z" />
    <glyph glyph-name="Udotbelow" unicode="&#x1ee4;" horiz-adv-x="1408" 
d="M520 1365v-834c0 -151 78 -210 184 -210c105 0 184 62 184 210v834h420v-893c0 -301 -230 -495 -604 -495s-604 194 -604 495v893h420zM554 -244c0 83 68 150 150 150c83 0 150 -67 150 -150s-67 -150 -150 -150c-82 0 -150 67 -150 150z" />
    <glyph glyph-name="Utilde" unicode="&#x168;" horiz-adv-x="1408" 
d="M520 1365v-834c0 -151 78 -210 184 -210c105 0 184 62 184 210v834h420v-893c0 -301 -230 -495 -604 -495s-604 194 -604 495v893h420zM824 1467c-141 0 -170 108 -231 108c-35 0 -62 -34 -65 -82h-182c0 114 77 247 231 247c139 0 185 -108 248 -108c40 0 59 43 59 93
h182c0 -151 -103 -258 -242 -258z" />
    <glyph glyph-name="Umacron" unicode="&#x16a;" horiz-adv-x="1408" 
d="M520 1365v-834c0 -151 78 -210 184 -210c105 0 184 62 184 210v834h420v-893c0 -301 -230 -495 -604 -495s-604 194 -604 495v893h420zM1024 1493h-640v168h640v-168z" />
    <glyph glyph-name="Umacrondieresis" unicode="&#x1e7a;" horiz-adv-x="1408" 
d="M520 1365v-834c0 -151 78 -210 184 -210c105 0 184 62 184 210v834h420v-893c0 -301 -230 -495 -604 -495s-604 194 -604 495v893h420zM1024 1453h-640v168h640v-168zM498 1680c-74 0 -129 57 -129 132s55 135 129 135c76 0 138 -60 138 -135s-62 -132 -138 -132z
M903 1680c-74 0 -131 57 -131 132s57 135 131 135c76 0 136 -60 136 -135s-60 -132 -136 -132z" />
    <glyph glyph-name="Uring" unicode="&#x16e;" horiz-adv-x="1408" 
d="M520 1365v-834c0 -151 78 -210 184 -210c105 0 184 62 184 210v834h420v-893c0 -301 -230 -495 -604 -495s-604 194 -604 495v893h420zM704 1425c-144 0 -252 97 -252 242c0 144 107 239 252 239s251 -95 251 -239c0 -145 -107 -242 -251 -242zM621 1665
c0 -48 34 -81 82 -81s83 33 83 81s-35 82 -83 82s-82 -34 -82 -82z" />
    <glyph glyph-name="Uogonek" unicode="&#x172;" horiz-adv-x="1408" 
d="M1019 -395c-194 0 -271 101 -271 213c0 63 15 114 47 163c-29 -3 -60 -4 -91 -4c-374 0 -604 194 -604 495v893h420v-834c0 -151 78 -210 184 -210c105 0 184 62 184 210v834h420v-893c0 -144 -53 -264 -149 -349c-65 -65 -159 -114 -159 -207c0 -67 56 -98 120 -98
c25 0 51 5 76 12v-196c-37 -14 -102 -29 -177 -29z" />
    <glyph glyph-name="Uhorn" unicode="&#x1af;" horiz-adv-x="1562" 
d="M704 -20c-374 0 -604 194 -604 495v890h420v-831c0 -151 78 -210 184 -210c105 0 184 62 184 210v831h421c58 0 81 24 81 84v159h303v-224c0 -165 -107 -301 -285 -301h-100v-608c0 -301 -230 -495 -604 -495z" />
    <glyph glyph-name="Uhorngrave" unicode="&#x1eea;" horiz-adv-x="1562" 
d="M704 -20c-374 0 -604 194 -604 495v890h420v-831c0 -151 78 -210 184 -210c105 0 184 62 184 210v831h421c58 0 81 24 81 84v159h303v-224c0 -165 -107 -301 -285 -301h-100v-608c0 -301 -230 -495 -604 -495zM852 1493h-268l-286 318h321z" />
    <glyph glyph-name="Uhornacute" unicode="&#x1ee8;" horiz-adv-x="1562" 
d="M704 -20c-374 0 -604 194 -604 495v890h420v-831c0 -151 78 -210 184 -210c105 0 184 62 184 210v831h421c58 0 81 24 81 84v159h303v-224c0 -165 -107 -301 -285 -301h-100v-608c0 -301 -230 -495 -604 -495zM824 1493h-268l233 318h321z" />
    <glyph glyph-name="Uhorndotbelow" unicode="&#x1ef0;" horiz-adv-x="1562" 
d="M704 -20c-374 0 -604 194 -604 495v890h420v-831c0 -151 78 -210 184 -210c105 0 184 62 184 210v831h421c58 0 81 24 81 84v159h303v-224c0 -165 -107 -301 -285 -301h-100v-608c0 -301 -230 -495 -604 -495zM554 -244c0 83 68 150 150 150c83 0 150 -67 150 -150
s-67 -150 -150 -150c-82 0 -150 67 -150 150z" />
    <glyph glyph-name="Uhornhookabove" unicode="&#x1eec;" horiz-adv-x="1562" 
d="M704 -20c-374 0 -604 194 -604 495v890h420v-831c0 -151 78 -210 184 -210c105 0 184 62 184 210v831h421c58 0 81 24 81 84v159h303v-224c0 -165 -107 -301 -285 -301h-100v-608c0 -301 -230 -495 -604 -495zM520 1669v144c22 11 71 23 126 23c158 0 246 -76 246 -206
c0 -112 -73 -166 -148 -206l-107 113c37 15 67 39 67 78c0 47 -45 65 -99 65c-23 0 -62 -5 -85 -11z" />
    <glyph glyph-name="Uhorntilde" unicode="&#x1eee;" horiz-adv-x="1562" 
d="M704 -20c-374 0 -604 194 -604 495v890h420v-831c0 -151 78 -210 184 -210c105 0 184 62 184 210v831h421c58 0 81 24 81 84v159h303v-224c0 -165 -107 -301 -285 -301h-100v-608c0 -301 -230 -495 -604 -495zM824 1467c-141 0 -170 108 -231 108c-35 0 -62 -34 -65 -82
h-182c0 114 77 247 231 247c139 0 185 -108 248 -108c40 0 59 43 59 93h182c0 -151 -103 -258 -242 -258z" />
    <glyph glyph-name="V" unicode="V" horiz-adv-x="1334" 
d="M947 0h-551l-401 1365h490l191 -935h19l185 935h459z" />
    <glyph glyph-name="Vtilde" unicode="&#x1e7c;" horiz-adv-x="1334" 
d="M947 0h-551l-401 1365h490l191 -935h19l185 935h459zM787 1467c-141 0 -170 108 -231 108c-35 0 -62 -34 -65 -82h-182c0 114 77 247 231 247c139 0 185 -108 248 -108c40 0 59 43 59 93h182c0 -151 -103 -258 -242 -258z" />
    <glyph glyph-name="Vdotbelow" unicode="&#x1e7e;" horiz-adv-x="1334" 
d="M947 0h-551l-401 1365h490l191 -935h19l185 935h459zM514 -244c0 83 68 150 150 150c83 0 150 -67 150 -150s-67 -150 -150 -150c-82 0 -150 67 -150 150z" />
    <glyph glyph-name="W" unicode="W" horiz-adv-x="1865" 
d="M726 0h-395l-336 1365h433l129 -828h19l196 828h323l196 -828h20l126 828h433l-335 -1365h-395l-199 751h-15z" />
    <glyph glyph-name="Wgrave" unicode="&#x1e80;" horiz-adv-x="1865" 
d="M726 0h-395l-336 1365h433l129 -828h19l196 828h323l196 -828h20l126 828h433l-335 -1365h-395l-199 751h-15zM1081 1493h-268l-286 318h321z" />
    <glyph glyph-name="Wacute" unicode="&#x1e82;" horiz-adv-x="1865" 
d="M726 0h-395l-336 1365h433l129 -828h19l196 828h323l196 -828h20l126 828h433l-335 -1365h-395l-199 751h-15zM1053 1493h-268l233 318h321z" />
    <glyph glyph-name="Wdotaccent" unicode="&#x1e86;" horiz-adv-x="1865" 
d="M726 0h-395l-336 1365h433l129 -828h19l196 828h323l196 -828h20l126 828h433l-335 -1365h-395l-199 751h-15zM756 1663c0 98 79 172 177 172s177 -74 177 -172s-79 -171 -177 -171s-177 73 -177 171z" />
    <glyph glyph-name="Wdotbelow" unicode="&#x1e88;" horiz-adv-x="1865" 
d="M726 0h-395l-336 1365h433l129 -828h19l196 828h323l196 -828h20l126 828h433l-335 -1365h-395l-199 751h-15zM780 -244c0 83 68 150 150 150c83 0 150 -67 150 -150s-67 -150 -150 -150c-82 0 -150 67 -150 150z" />
    <glyph glyph-name="Wdieresis" unicode="&#x1e84;" horiz-adv-x="1865" 
d="M726 0h-395l-336 1365h433l129 -828h19l196 828h323l196 -828h20l126 828h433l-335 -1365h-395l-199 751h-15zM729 1448c-74 0 -129 57 -129 132s55 135 129 135c76 0 138 -60 138 -135s-62 -132 -138 -132zM1134 1448c-74 0 -131 57 -131 132s57 135 131 135
c76 0 136 -60 136 -135s-60 -132 -136 -132z" />
    <glyph glyph-name="Wcircumflex" unicode="&#x174;" horiz-adv-x="1865" 
d="M726 0h-395l-336 1365h433l129 -828h19l196 828h323l196 -828h20l126 828h433l-335 -1365h-395l-199 751h-15zM534 1493l257 253h284l257 -253h-284l-107 109h-16l-107 -109h-284z" />
    <glyph glyph-name="X" unicode="X" horiz-adv-x="1279" 
d="M1314 1365l-406 -678l405 -687h-467l-211 395h-16l-209 -395h-443l386 687l-388 678h489l188 -413h17l188 413h467z" />
    <glyph glyph-name="Xdotaccent" unicode="&#x1e8a;" horiz-adv-x="1279" 
d="M1314 1365l-406 -678l405 -687h-467l-211 395h-16l-209 -395h-443l386 687l-388 678h489l188 -413h17l188 413h467zM454 1663c0 98 79 172 177 172s177 -74 177 -172s-79 -171 -177 -171s-177 73 -177 171z" />
    <glyph glyph-name="Xdieresis" unicode="&#x1e8c;" horiz-adv-x="1281" 
d="M1314 1365l-406 -678l405 -687h-467l-211 395h-16l-209 -395h-443l386 687l-388 678h489l188 -413h17l188 413h467zM446 1448c-74 0 -129 57 -129 132s55 135 129 135c76 0 138 -60 138 -135s-62 -132 -138 -132zM851 1448c-74 0 -131 57 -131 132s57 135 131 135
c76 0 136 -60 136 -135s-60 -132 -136 -132z" />
    <glyph glyph-name="Y" unicode="Y" horiz-adv-x="1252" 
d="M836 0h-420v411l-457 954h455l212 -537h15l214 537h438l-457 -941v-424z" />
    <glyph glyph-name="Ygrave" unicode="&#x1ef2;" horiz-adv-x="1251" 
d="M836 0h-420v411l-457 954h455l212 -537h15l214 537h438l-457 -941v-424zM774 1493h-268l-286 318h321z" />
    <glyph glyph-name="Yacute" unicode="&#xdd;" horiz-adv-x="1251" 
d="M836 0h-420v411l-457 954h455l212 -537h15l214 537h438l-457 -941v-424zM746 1493h-268l233 318h321z" />
    <glyph glyph-name="Ydotaccent" unicode="&#x1e8e;" horiz-adv-x="1252" 
d="M836 0h-420v411l-457 954h455l212 -537h15l214 537h438l-457 -941v-424zM449 1663c0 98 79 172 177 172s177 -74 177 -172s-79 -171 -177 -171s-177 73 -177 171z" />
    <glyph glyph-name="Ydotbelow" unicode="&#x1ef4;" horiz-adv-x="1252" 
d="M836 0h-420v411l-457 954h455l212 -537h15l214 537h438l-457 -941v-424zM474 -244c0 83 68 150 150 150c83 0 150 -67 150 -150s-67 -150 -150 -150c-82 0 -150 67 -150 150z" />
    <glyph glyph-name="Ydieresis" unicode="&#x178;" horiz-adv-x="1252" 
d="M836 0h-420v411l-457 954h455l212 -537h15l214 537h438l-457 -941v-424zM423 1448c-74 0 -129 57 -129 132s55 135 129 135c76 0 138 -60 138 -135s-62 -132 -138 -132zM828 1448c-74 0 -131 57 -131 132s57 135 131 135c76 0 136 -60 136 -135s-60 -132 -136 -132z" />
    <glyph glyph-name="Ytilde" unicode="&#x1ef8;" horiz-adv-x="1251" 
d="M836 0h-420v411l-457 954h455l212 -537h15l214 537h438l-457 -941v-424zM746 1467c-141 0 -170 108 -231 108c-35 0 -62 -34 -65 -82h-182c0 114 77 247 231 247c139 0 185 -108 248 -108c40 0 59 43 59 93h182c0 -151 -103 -258 -242 -258z" />
    <glyph glyph-name="Ycircumflex" unicode="&#x176;" horiz-adv-x="1251" 
d="M836 0h-420v411l-457 954h455l212 -537h15l214 537h438l-457 -941v-424zM227 1493l257 253h284l257 -253h-284l-107 109h-16l-107 -109h-284z" />
    <glyph glyph-name="Ymacron" unicode="&#x232;" horiz-adv-x="1252" 
d="M836 0h-420v411l-457 954h455l212 -537h15l214 537h438l-457 -941v-424zM947 1493h-640v168h640v-168z" />
    <glyph glyph-name="Yhookabove" unicode="&#x1ef6;" horiz-adv-x="1251" 
d="M836 0h-420v411l-457 954h455l212 -537h15l214 537h438l-457 -941v-424zM442 1669v144c22 11 71 23 126 23c158 0 246 -76 246 -206c0 -112 -73 -166 -148 -206l-107 113c37 15 67 39 67 78c0 47 -45 65 -99 65c-23 0 -62 -5 -85 -11z" />
    <glyph glyph-name="Z" unicode="Z" horiz-adv-x="1224" 
d="M85 0v262l550 758v19h-545v326h1046v-262l-550 -757v-20h573v-326h-1074z" />
    <glyph glyph-name="Zacute" unicode="&#x179;" horiz-adv-x="1224" 
d="M85 0v262l550 758v19h-545v326h1046v-262l-550 -757v-20h573v-326h-1074zM732 1493h-268l233 318h321z" />
    <glyph glyph-name="Zcaron" unicode="&#x17d;" horiz-adv-x="1224" 
d="M85 0v262l550 758v19h-545v326h1046v-262l-550 -757v-20h573v-326h-1074zM213 1744h284l107 -109h16l107 109h284l-257 -253h-284z" />
    <glyph glyph-name="Zcircumflex" unicode="&#x1e90;" horiz-adv-x="1224" 
d="M85 0v262l550 758v19h-545v326h1046v-262l-550 -757v-20h573v-326h-1074zM213 1493l257 253h284l257 -253h-284l-107 109h-16l-107 -109h-284z" />
    <glyph glyph-name="Zlinebelow" unicode="&#x1e94;" horiz-adv-x="1224" 
d="M85 0v262l550 758v19h-545v326h1046v-262l-550 -757v-20h573v-326h-1074zM932 -389h-640v203h640v-203z" />
    <glyph glyph-name="Zdotbelow" unicode="&#x1e92;" horiz-adv-x="1224" 
d="M85 0v262l550 758v19h-545v326h1046v-262l-550 -757v-20h573v-326h-1074zM462 -244c0 83 68 150 150 150c83 0 150 -67 150 -150s-67 -150 -150 -150c-82 0 -150 67 -150 150z" />
    <glyph glyph-name="Zdotaccent" unicode="&#x17b;" horiz-adv-x="1224" 
d="M85 0v262l550 758v19h-545v326h1046v-262l-550 -757v-20h573v-326h-1074zM435 1663c0 98 79 172 177 172s177 -74 177 -172s-79 -171 -177 -171s-177 73 -177 171z" />
    <glyph glyph-name="AE" unicode="&#xc6;" horiz-adv-x="1957" 
d="M835 1043l-174 -499l236 1v498h-62zM897 234h-354l-90 -234h-454l560 1365h1313v-322h-563v-216h526v-292h-526v-212h563v-323h-975v234z" />
    <glyph glyph-name="AEmacron" unicode="&#x1e2;" horiz-adv-x="1957" 
d="M835 1043l-174 -499l236 1v498h-62zM897 234h-354l-90 -234h-454l560 1365h1313v-322h-563v-216h526v-292h-526v-212h563v-323h-975v234zM1681 1493h-640v168h640v-168z" />
    <glyph glyph-name="AEacute" unicode="&#x1fc;" horiz-adv-x="1957" 
d="M835 1043l-174 -499l236 1v498h-62zM897 234h-354l-90 -234h-454l560 1365h1313v-322h-563v-216h526v-292h-526v-212h563v-323h-975v234zM1481 1493h-268l233 318h321z" />
    <glyph glyph-name="OE" unicode="&#x152;" horiz-adv-x="1979" 
d="M509 753v-145c0 -197 83 -301 217 -301c133 0 215 104 215 301v145c0 196 -82 301 -215 301c-134 0 -217 -105 -217 -301zM619 -23c-353 0 -560 265 -560 639v129c0 424 238 642 560 642c171 0 296 -61 360 -167h22v145h893v-323h-558v-215h521v-292h-521v-212h558v-323
h-893v145h-22c-59 -95 -174 -168 -360 -168z" />
    <glyph glyph-name="Eth" unicode="&#xd0;" horiz-adv-x="1490" 
d="M812 0h-593v505h-171v360h171v500h593c443 0 627 -268 627 -674c0 -413 -191 -691 -627 -691zM638 334h94c139 0 274 31 274 356c0 178 -37 364 -274 364h-94v-189h152v-360h-152v-171z" />
    <glyph glyph-name="Thorn" unicode="&#xde;" horiz-adv-x="1273" 
d="M115 1365h418v-181h205c345 0 503 -241 503 -502c0 -266 -163 -494 -509 -494h-198v-188h-419v1365zM532 874v-384h92c116 0 193 69 193 192c0 126 -77 192 -193 192h-92z" />
    <glyph glyph-name="Alphagreek" unicode="&#x391;" horiz-adv-x="1356" 
d="M415 0h-415l414 1365h532l410 -1365h-448l-59 258h-373zM676 1018h-21l-110 -465h237z" />
    <glyph glyph-name="Betagreek" unicode="&#x392;" horiz-adv-x="1315" 
d="M115 0v1365h659c262 0 442 -122 442 -335c0 -185 -130 -279 -258 -295v-19c135 -4 316 -98 316 -326c0 -253 -223 -390 -473 -390h-686zM530 1085v-256h130c106 0 150 63 150 129c0 74 -55 127 -152 127h-128zM530 581v-301h143c124 0 176 70 176 153
c0 86 -56 148 -178 148h-141z" />
    <glyph glyph-name="Gammagreek" unicode="&#x393;" horiz-adv-x="1110" 
d="M535 0h-420v1365h950v-328h-530v-1037z" />
    <glyph glyph-name="Deltagreek" unicode="&#x394;" horiz-adv-x="1378" 
d="M50 0v193l374 1172h532l372 -1172v-193h-1278zM665 1008l-191 -713h402l-190 713h-21z" />
    <glyph glyph-name="Epsilongreek" unicode="&#x395;" horiz-adv-x="1173" 
d="M1088 323v-323h-973v1365h973v-323h-558v-215h521v-292h-521v-212h558z" />
    <glyph glyph-name="Zetagreek" unicode="&#x396;" horiz-adv-x="1224" 
d="M85 0v262l550 758v19h-545v326h1046v-262l-550 -757v-20h573v-326h-1074z" />
    <glyph glyph-name="Etagreek" unicode="&#x397;" horiz-adv-x="1465" 
d="M1350 0h-420v517h-395v-517h-420v1365h420v-515h395v515h420v-1365z" />
    <glyph glyph-name="Thetagreek" unicode="&#x398;" horiz-adv-x="1507" 
d="M938 525h-369v312h369v-312zM479 763v-162c0 -181 122 -281 275 -281c154 0 274 96 274 281v162c0 186 -118 281 -274 281c-163 0 -275 -97 -275 -281zM59 613v134c0 408 278 640 695 640c418 0 694 -235 694 -640v-134c0 -403 -276 -636 -694 -636
c-417 0 -695 233 -695 636z" />
    <glyph glyph-name="Iotagreek" unicode="&#x399;" horiz-adv-x="650" 
d="M535 0h-420v1365h420v-1365z" />
    <glyph glyph-name="Kappagreek" unicode="&#x39a;" horiz-adv-x="1372" 
d="M1389 1365l-453 -598l465 -767h-486l-285 493l-95 -120v-373h-420v1365h420v-535h19l397 535h438z" />
    <glyph glyph-name="Lambdagreek" unicode="&#x39b;" horiz-adv-x="1346" 
d="M650 958l-226 -958h-419l404 1365h532l400 -1365h-452l-218 958h-21z" />
    <glyph glyph-name="Mugreek" unicode="&#x39c;" horiz-adv-x="1703" 
d="M486 0h-371v1365h439l292 -609h14l293 609h435v-1365h-377v761h-19l-232 -502h-220l-234 502h-20v-761z" />
    <glyph glyph-name="Nugreek" unicode="&#x39d;" horiz-adv-x="1411" 
d="M500 0h-385v1365h315l465 -660h16v660h385v-1365h-312l-468 672h-16v-672z" />
    <glyph glyph-name="Xigreek" unicode="&#x39e;" horiz-adv-x="1205" 
d="M85 1032v333h1035v-333h-1035zM172 530v301h861v-301h-861zM85 0v333h1035v-333h-1035z" />
    <glyph glyph-name="Omicrongreek" unicode="&#x39f;" horiz-adv-x="1407" 
d="M489 753v-142c0 -197 81 -301 215 -301c133 0 214 104 214 301v142c0 196 -81 301 -214 301c-134 0 -215 -105 -215 -301zM59 613v134c0 388 228 640 645 640c418 0 644 -255 644 -640v-134c0 -383 -226 -636 -644 -636c-417 0 -645 253 -645 636z" />
    <glyph glyph-name="Pigreek" unicode="&#x3a0;" horiz-adv-x="1445" 
d="M1330 0h-420v1033h-375v-1033h-420v1365h1215v-1365z" />
    <glyph glyph-name="Rhogreek" unicode="&#x3a1;" horiz-adv-x="1273" 
d="M115 1365h623c345 0 503 -241 503 -502c0 -266 -163 -494 -509 -494h-198v-369h-419v1365zM532 1055v-384h92c116 0 193 69 193 192c0 126 -77 192 -193 192h-92z" />
    <glyph glyph-name="Sigmagreek" unicode="&#x3a3;" horiz-adv-x="1224" 
d="M85 222l319 466l-316 415v262h1058v-326h-519v-19l226 -307v-37l-232 -330v-20h538v-326h-1074v222z" />
    <glyph glyph-name="Taugreek" unicode="&#x3a4;" horiz-adv-x="1128" 
d="M774 0h-420v1029h-347v336h1114v-336h-347v-1029z" />
    <glyph glyph-name="Upsilongreek" unicode="&#x3a5;" horiz-adv-x="1252" 
d="M836 0h-420v411l-457 954h455l212 -537h15l214 537h438l-457 -941v-424z" />
    <glyph glyph-name="Phigreek" unicode="&#x3a6;" horiz-adv-x="1740" 
d="M1261 639v73c0 191 -70 315 -216 322v-714c138 10 216 120 216 319zM695 320v714c-146 -7 -216 -131 -216 -322v-73c0 -199 78 -309 216 -319zM1055 1455v-122c420 -12 626 -262 626 -655c0 -385 -201 -645 -626 -657v-111h-370v111c-425 12 -626 270 -626 656v2
c0 394 206 642 626 654v122h370z" />
    <glyph glyph-name="Chigreek" unicode="&#x3a7;" horiz-adv-x="1279" 
d="M1314 1365l-406 -678l405 -687h-467l-211 395h-16l-209 -395h-443l386 687l-388 678h489l188 -413h17l188 413h467z" />
    <glyph glyph-name="Psigreek" unicode="&#x3a8;" horiz-adv-x="1659" 
d="M635 0v255c-343 13 -535 169 -535 514v596h389v-607c0 -121 42 -176 146 -187v794h389v-794c103 12 146 67 146 187v607h389v-596c0 -345 -192 -501 -535 -514v-255h-389z" />
    <glyph glyph-name="Omegagreek" unicode="&#x3a9;" horiz-adv-x="1511" 
d="M834 0v429c79 29 137 146 137 309v45c0 166 -82 271 -216 271c-133 0 -215 -105 -215 -271v-45c0 -163 58 -280 137 -309v-429h-612v344h240v22c-109 59 -195 207 -195 377v54c0 365 229 590 645 590c417 0 646 -225 646 -590v-54c0 -170 -86 -318 -195 -377v-22h240
v-344h-612z" />
    <glyph glyph-name="Alphatonosgreek" unicode="&#x386;" horiz-adv-x="1554" 
d="M613 0h-415l414 1365h532l410 -1365h-448l-59 258h-373zM874 1018h-21l-110 -465h237zM0 977l90 388h335l-167 -388h-258z" />
    <glyph glyph-name="Epsilontonosgreek" unicode="&#x388;" horiz-adv-x="1593" 
d="M1508 323v-323h-973v1365h973v-323h-558v-215h521v-292h-521v-212h558zM0 977l90 388h335l-167 -388h-258z" />
    <glyph glyph-name="Etatonosgreek" unicode="&#x389;" horiz-adv-x="1885" 
d="M1770 0h-420v517h-395v-517h-420v1365h420v-515h395v515h420v-1365zM0 977l90 388h335l-167 -388h-258z" />
    <glyph glyph-name="Iotatonosgreek" unicode="&#x38a;" horiz-adv-x="1070" 
d="M955 0h-420v1365h420v-1365zM0 977l90 388h335l-167 -388h-258z" />
    <glyph glyph-name="Iotadieresisgreek" unicode="&#x3aa;" horiz-adv-x="650" 
d="M535 0h-420v1365h420v-1365zM119 1448c-74 0 -129 57 -129 132s55 135 129 135c76 0 138 -60 138 -135s-62 -132 -138 -132zM524 1448c-74 0 -131 57 -131 132s57 135 131 135c76 0 136 -60 136 -135s-60 -132 -136 -132z" />
    <glyph glyph-name="Omicrontonosgreek" unicode="&#x38c;" horiz-adv-x="1717" 
d="M799 753v-142c0 -197 81 -301 215 -301c133 0 214 104 214 301v142c0 196 -81 301 -214 301c-134 0 -215 -105 -215 -301zM369 613v134c0 388 228 640 645 640c418 0 644 -255 644 -640v-134c0 -383 -226 -636 -644 -636c-417 0 -645 253 -645 636zM0 977l90 388h335
l-167 -388h-258z" />
    <glyph glyph-name="Upsilontonosgreek" unicode="&#x38e;" horiz-adv-x="1804" 
d="M1388 0h-420v411l-457 954h455l212 -537h15l214 537h438l-457 -941v-424zM0 977l90 388h335l-167 -388h-258z" />
    <glyph glyph-name="Upsilondieresisgreek" unicode="&#x3ab;" horiz-adv-x="1252" 
d="M836 0h-420v411l-457 954h455l212 -537h15l214 537h438l-457 -941v-424zM423 1448c-74 0 -129 57 -129 132s55 135 129 135c76 0 138 -60 138 -135s-62 -132 -138 -132zM828 1448c-74 0 -131 57 -131 132s57 135 131 135c76 0 136 -60 136 -135s-60 -132 -136 -132z" />
    <glyph glyph-name="Omegatonosgreek" unicode="&#x38f;" horiz-adv-x="1781" 
d="M1104 0v429c79 29 137 146 137 309v45c0 166 -82 271 -216 271c-133 0 -215 -105 -215 -271v-45c0 -163 58 -280 137 -309v-429h-612v344h240v22c-109 59 -195 207 -195 377v54c0 365 229 590 645 590c417 0 646 -225 646 -590v-54c0 -170 -86 -318 -195 -377v-22h240
v-344h-612zM0 977l90 388h335l-167 -388h-258z" />
    <glyph glyph-name="Acyrillic" unicode="&#x410;" horiz-adv-x="1376" 
d="M425 0h-415l414 1365h532l410 -1365h-448l-59 258h-373zM686 1018h-21l-110 -465h237z" />
    <glyph glyph-name="Becyrillic" unicode="&#x411;" horiz-adv-x="1302" 
d="M544 1037v-151h198c346 0 509 -200 509 -434c0 -236 -158 -452 -503 -452h-623v1365h980v-328h-561zM542 310h112c104 0 173 49 173 142c0 91 -69 142 -173 142h-112v-284z" />
    <glyph glyph-name="Vecyrillic" unicode="&#x412;" horiz-adv-x="1335" 
d="M125 0v1365h659c262 0 442 -122 442 -335c0 -185 -130 -279 -258 -295v-19c135 -4 316 -98 316 -326c0 -253 -223 -390 -473 -390h-686zM540 1085v-256h130c106 0 150 63 150 129c0 74 -55 127 -152 127h-128zM540 581v-301h143c124 0 176 70 176 153
c0 86 -56 148 -178 148h-141z" />
    <glyph glyph-name="Gecyrillic" unicode="&#x413;" horiz-adv-x="1135" 
d="M545 0h-420v1365h960v-328h-540v-1037z" />
    <glyph glyph-name="Decyrillic" unicode="&#x414;" horiz-adv-x="1550" 
d="M940 333v699h-297l-14 -314c-8 -185 -26 -279 -84 -365v-20h395zM400 -286h-370v619h108c86 61 114 171 125 452l23 580h1064v-1032h160v-619h-370v286h-740v-286z" />
    <glyph glyph-name="Iecyrillic" unicode="&#x415;" horiz-adv-x="1193" 
d="M1098 323v-323h-973v1365h973v-323h-558v-215h521v-292h-521v-212h558z" />
    <glyph glyph-name="Iocyrillic" unicode="&#x401;" horiz-adv-x="1193" 
d="M1098 323v-323h-973v1365h973v-323h-558v-215h521v-292h-521v-212h558zM391 1448c-74 0 -129 57 -129 132s55 135 129 135c76 0 138 -60 138 -135s-62 -132 -138 -132zM796 1448c-74 0 -131 57 -131 132s57 135 131 135c76 0 136 -60 136 -135s-60 -132 -136 -132z" />
    <glyph glyph-name="Zhecyrillic" unicode="&#x416;" horiz-adv-x="2067" 
d="M2077 1365l-457 -648l439 -717h-476l-326 537h-19v-537h-400v537h-19l-326 -537h-466l430 702l-467 663h467l362 -535h19v535h400v-535h19l362 535h458z" />
    <glyph glyph-name="Zecyrillic" unicode="&#x417;" horiz-adv-x="1240" 
d="M447 550v300h163c85 0 144 45 144 109c0 76 -62 127 -155 127c-98 0 -165 -73 -165 -180h-383c11 302 218 481 558 481c323 0 546 -154 546 -377c0 -145 -111 -259 -273 -281v-21c178 -14 307 -142 307 -304c0 -263 -224 -427 -582 -427c-340 0 -567 198 -567 494h377
c0 -113 73 -185 192 -185c98 0 169 54 169 133c0 78 -71 131 -169 131h-162z" />
    <glyph glyph-name="Iicyrillic" unicode="&#x418;" horiz-adv-x="1485" 
d="M960 0v737h-20l-435 -737h-380v1365h400v-735h20l435 735h380v-1365h-400z" />
    <glyph glyph-name="Iishortcyrillic" unicode="&#x419;" horiz-adv-x="1485" 
d="M960 0v737h-20l-435 -737h-380v1365h400v-735h20l435 735h380v-1365h-400zM382 1780h212c0 -87 44 -139 144 -139s144 52 144 139h212c0 -209 -138 -330 -356 -330c-215 0 -356 120 -356 330z" />
    <glyph glyph-name="Kacyrillic" unicode="&#x41a;" horiz-adv-x="1409" 
d="M915 0l-351 537h-19v-537h-420v1365h420v-535h19l387 535h468l-479 -644l465 -721h-490z" />
    <glyph glyph-name="Elcyrillic" unicode="&#x41b;" horiz-adv-x="1410" 
d="M230 785l6 580h1049v-1365h-420v1032h-257l-7 -319c-12 -556 -134 -736 -424 -736c-67 0 -116 10 -142 23v350c14 -6 35 -10 50 -10c107 0 141 107 145 445z" />
    <glyph glyph-name="Emcyrillic" unicode="&#x41c;" horiz-adv-x="1723" 
d="M496 0h-371v1365h439l292 -609h14l293 609h435v-1365h-377v761h-19l-232 -502h-220l-234 502h-20v-761z" />
    <glyph glyph-name="Encyrillic" unicode="&#x41d;" horiz-adv-x="1485" 
d="M1360 0h-420v517h-395v-517h-420v1365h420v-515h395v515h420v-1365z" />
    <glyph glyph-name="Ocyrillic" unicode="&#x41e;" horiz-adv-x="1427" 
d="M499 753v-142c0 -197 81 -301 215 -301c133 0 214 104 214 301v142c0 196 -81 301 -214 301c-134 0 -215 -105 -215 -301zM69 613v134c0 388 228 640 645 640c418 0 644 -255 644 -640v-134c0 -383 -226 -636 -644 -636c-417 0 -645 253 -645 636z" />
    <glyph glyph-name="Pecyrillic" unicode="&#x41f;" horiz-adv-x="1465" 
d="M1340 0h-420v1032h-375v-1032h-420v1365h1215v-1365z" />
    <glyph glyph-name="Ercyrillic" unicode="&#x420;" horiz-adv-x="1293" 
d="M125 1365h623c345 0 503 -241 503 -502c0 -266 -163 -494 -509 -494h-198v-369h-419v1365zM542 1055v-384h92c116 0 193 69 193 192c0 126 -77 192 -193 192h-92z" />
    <glyph glyph-name="Escyrillic" unicode="&#x421;" horiz-adv-x="1348" 
d="M499 745v-127c0 -196 73 -301 199 -301c124 0 188 100 188 230h397v-61c0 -309 -245 -509 -589 -509c-404 0 -625 254 -625 644v123c0 391 221 643 625 643c344 0 589 -199 589 -510v-59h-397c0 130 -64 229 -188 229c-126 0 -199 -105 -199 -302z" />
    <glyph glyph-name="Tecyrillic" unicode="&#x422;" horiz-adv-x="1148" 
d="M784 0h-420v1029h-347v336h1114v-336h-347v-1029z" />
    <glyph glyph-name="Ucyrillic" unicode="&#x423;" horiz-adv-x="1274" 
d="M872 1365h433l-428 -941c-132 -290 -254 -447 -519 -447c-116 0 -190 23 -190 23v318s47 -13 116 -13c60 0 116 15 162 66l-477 994h460l221 -568h19z" />
    <glyph glyph-name="Efcyrillic" unicode="&#x424;" horiz-adv-x="1758" 
d="M1079 -10h-400v148c-388 19 -615 216 -615 552s227 533 615 552v133h400v-133c388 -19 615 -216 615 -552s-227 -533 -615 -552v-148zM469 690c0 -165 83 -236 220 -245v490c-137 -9 -220 -80 -220 -245zM1289 690c0 165 -83 236 -220 245v-490c137 9 220 80 220 245z
" />
    <glyph glyph-name="Xacyrillic" unicode="&#x425;" horiz-adv-x="1299" 
d="M1324 1365l-406 -678l405 -687h-467l-211 395h-16l-209 -395h-443l386 687l-388 678h489l188 -413h17l188 413h467z" />
    <glyph glyph-name="Tsecyrillic" unicode="&#x426;" horiz-adv-x="1540" 
d="M1340 333h160v-619h-370v286h-210h-795v1365h420v-1032h375v1032h420v-1032z" />
    <glyph glyph-name="Checyrillic" unicode="&#x427;" horiz-adv-x="1445" 
d="M1320 0h-420v512h-18c-62 -33 -187 -59 -279 -59c-321 0 -503 187 -503 517v395h420v-365c0 -144 63 -209 203 -209c60 0 139 20 177 46v528h420v-1365z" />
    <glyph glyph-name="Shacyrillic" unicode="&#x428;" horiz-adv-x="2060" 
d="M125 0v1365h420v-1032h275v1032h420v-1032h275v1032h420v-1365h-1810z" />
    <glyph glyph-name="Shchacyrillic" unicode="&#x429;" horiz-adv-x="2135" 
d="M2095 -286h-370v286h-1600v1365h420v-1032h275v1032h420v-1032h275v1032h420v-1032h160v-619z" />
    <glyph glyph-name="Hardsigncyrillic" unicode="&#x42a;" horiz-adv-x="1485" 
d="M930 0h-623v1032h-265v333h684v-389h198c346 0 509 -223 509 -484c0 -256 -158 -492 -503 -492zM816 310c116 0 193 63 193 182c0 117 -77 182 -193 182h-97v-364h97z" />
    <glyph glyph-name="Yericyrillic" unicode="&#x42b;" horiz-adv-x="1860" 
d="M1246 492c0 -256 -158 -492 -503 -492h-618v1365h419v-389h193c346 0 509 -223 509 -484zM629 674h-92v-364h92c116 0 193 63 193 182c0 117 -77 182 -193 182zM1735 0h-420v1365h420v-1365z" />
    <glyph glyph-name="Softsigncyrillic" unicode="&#x42c;" horiz-adv-x="1303" 
d="M748 0h-623v1365h419v-389h198c346 0 509 -223 509 -484c0 -256 -158 -492 -503 -492zM634 310c116 0 193 63 193 182c0 117 -77 182 -193 182h-97v-364h97z" />
    <glyph glyph-name="Ereversedcyrillic" unicode="&#x42d;" horiz-adv-x="1348" 
d="M654 -23c-344 0 -589 200 -589 509v21h399c12 -97 63 -190 186 -190c110 0 181 76 199 220h-381v293h381c-20 142 -90 217 -199 217c-122 0 -171 -88 -185 -179h-400v9c0 311 245 510 589 510c404 0 625 -252 625 -643v-123c0 -390 -221 -644 -625 -644z" />
    <glyph glyph-name="IUcyrillic" unicode="&#x42e;" horiz-adv-x="1992" 
d="M1493 611v142c0 196 -77 301 -204 301c-128 0 -205 -105 -205 -301v-142c0 -197 77 -301 205 -301c127 0 204 104 204 301zM545 850h124c37 329 252 537 620 537c412 0 634 -255 634 -640v-134c0 -383 -222 -636 -634 -636c-370 0 -586 211 -620 540h-124v-517h-420v1365
h420v-515z" />
    <glyph glyph-name="IAcyrillic" unicode="&#x42f;" horiz-adv-x="1363" 
d="M697 726h130v334h-130c-116 0 -193 -58 -193 -167c0 -107 77 -167 193 -167zM819 429h-107l-214 -429h-453l274 511c-158 81 -237 221 -237 382c0 246 162 472 519 472h637v-1365h-419v429z" />
    <glyph glyph-name="Djecyrillic" unicode="&#x402;" horiz-adv-x="1596" 
d="M802 803c59 32 185 59 276 59c290 0 468 -165 468 -434c0 -276 -170 -451 -438 -451c-84 0 -165 10 -193 23v305c19 -5 60 -8 98 -8c67 0 113 48 113 117c0 81 -59 125 -170 125c-65 0 -137 -20 -172 -47v-492h-420v1029h-347v336h1114v-336h-347v-226h18z" />
    <glyph glyph-name="Gjecyrillic" unicode="&#x403;" horiz-adv-x="1135" 
d="M545 0h-420v1365h960v-328h-540v-1037zM713 1493h-268l233 318h321z" />
    <glyph glyph-name="Ecyrillic" unicode="&#x404;" horiz-adv-x="1348" 
d="M1283 868h-400c-14 91 -63 179 -185 179c-109 0 -179 -75 -199 -217h381v-293h-381c18 -144 89 -220 199 -220c123 0 174 93 186 190h399v-21c0 -309 -245 -509 -589 -509c-404 0 -625 254 -625 644v123c0 391 221 643 625 643c344 0 589 -199 589 -510v-9z" />
    <glyph glyph-name="Dzecyrillic" unicode="&#x405;" horiz-adv-x="1310" 
d="M67 418h394c2 -64 69 -133 200 -133c128 0 172 51 172 107c0 70 -68 94 -191 116l-165 29c-225 40 -388 153 -388 406c0 282 227 444 567 444c386 0 559 -219 559 -432h-380c-2 57 -57 129 -178 129c-107 0 -152 -49 -152 -107c0 -59 67 -89 178 -106l175 -27
c189 -28 385 -125 385 -407c0 -266 -191 -460 -591 -460c-448 0 -584 231 -585 441z" />
    <glyph glyph-name="Icyrillic" unicode="&#x406;" horiz-adv-x="670" 
d="M545 0h-420v1365h420v-1365z" />
    <glyph glyph-name="Yicyrillic" unicode="&#x407;" horiz-adv-x="670" 
d="M545 0h-420v1365h420v-1365zM129 1448c-74 0 -129 57 -129 132s55 135 129 135c76 0 138 -60 138 -135s-62 -132 -138 -132zM534 1448c-74 0 -131 57 -131 132s57 135 131 135c76 0 136 -60 136 -135s-60 -132 -136 -132z" />
    <glyph glyph-name="Jecyrillic" unicode="&#x408;" horiz-adv-x="1237" 
d="M37 508h401c0 -102 50 -164 138 -164c97 0 130 59 130 159v862h421v-869c0 -348 -209 -519 -546 -519c-393 0 -544 269 -544 531z" />
    <glyph glyph-name="Ljecyrillic" unicode="&#x409;" horiz-adv-x="2029" 
d="M601 713c-12 -556 -134 -736 -424 -736c-67 0 -116 10 -142 23v350c14 -6 35 -10 50 -10c107 0 141 107 145 445l6 580h1034v-389h198c346 0 509 -223 509 -484c0 -256 -158 -492 -503 -492h-623v1032h-243zM1360 674h-97v-364h97c116 0 193 63 193 182
c0 117 -77 182 -193 182z" />
    <glyph glyph-name="Njecyrillic" unicode="&#x40a;" horiz-adv-x="2118" 
d="M940 896v469h419v-469h193c349 0 514 -204 514 -444c0 -235 -160 -452 -508 -452h-618v563h-395v-563h-420v1365h420v-469h395zM1459 594h-107v-284h107c110 0 183 50 183 142s-73 142 -183 142z" />
    <glyph glyph-name="Tshecyrillic" unicode="&#x40b;" horiz-adv-x="1656" 
d="M802 803c52 29 176 59 266 59c306 0 478 -182 478 -497v-365h-420v335c0 137 -57 199 -183 199c-57 0 -124 -20 -159 -47v-487h-420v1029h-347v336h1114v-336h-347v-226h18z" />
    <glyph glyph-name="Kjecyrillic" unicode="&#x40c;" horiz-adv-x="1409" 
d="M915 0l-351 537h-19v-537h-420v1365h420v-535h19l387 535h468l-479 -644l465 -721h-490zM873 1493h-268l233 318h321z" />
    <glyph glyph-name="Ushortcyrillic" unicode="&#x40e;" horiz-adv-x="1274" 
d="M800 1782h212c0 -209 -138 -330 -356 -330c-215 0 -356 120 -356 330h212c0 -87 44 -139 144 -139s144 52 144 139zM872 1365h433l-428 -941c-132 -290 -254 -447 -519 -447c-116 0 -190 23 -190 23v318s47 -13 116 -13c60 0 116 15 162 66l-477 994h460l221 -568h19z
" />
    <glyph glyph-name="Dzhecyrillic" unicode="&#x40f;" horiz-adv-x="1475" 
d="M930 1365h420v-1365h-427v-286h-370v286h-428v1365h420v-1032h385v1032z" />
    <glyph glyph-name="Geupturncyrillic" unicode="&#x490;" horiz-adv-x="1135" 
d="M715 1651h370v-286v-328h-540v-1037h-420v1365h590v286z" />
    <glyph glyph-name="A.sc" horiz-adv-x="1230" 
d="M423 0h-408l334 1119h536l330 -1119h-443l-31 175h-284zM613 800h-22l-71 -346h159z" />
    <glyph glyph-name="Agrave.sc" horiz-adv-x="1229" 
d="M423 0h-408l334 1119h536l330 -1119h-443l-31 175h-284zM613 800h-22l-71 -346h159zM764 1231h-268l-286 318h321z" />
    <glyph glyph-name="Aacute.sc" horiz-adv-x="1229" 
d="M423 0h-408l334 1119h536l330 -1119h-443l-31 175h-284zM613 800h-22l-71 -346h159zM734 1231h-268l233 318h321z" />
    <glyph glyph-name="Adieresis.sc" horiz-adv-x="1230" 
d="M423 0h-408l334 1119h536l330 -1119h-443l-31 175h-284zM613 800h-22l-71 -346h159zM385 1228c-83 0 -143 57 -143 141s60 144 143 144c85 0 147 -60 147 -144s-62 -141 -147 -141zM824 1228c-83 0 -140 57 -140 141s57 144 140 144c85 0 150 -60 150 -144
s-65 -141 -150 -141z" />
    <glyph glyph-name="Adieresismacron.sc" horiz-adv-x="1230" 
d="M423 0h-408l334 1119h536l330 -1119h-443l-31 175h-284zM613 800h-22l-71 -346h159zM392 1228c-83 0 -143 57 -143 141s60 144 143 144c85 0 147 -60 147 -144s-62 -141 -147 -141zM831 1228c-83 0 -140 57 -140 141s57 144 140 144c85 0 150 -60 150 -144
s-65 -141 -150 -141zM935 1600h-640v203h640v-203z" />
    <glyph glyph-name="Aring.sc" horiz-adv-x="1230" 
d="M423 0h-408l334 1119h536l330 -1119h-443l-31 175h-284zM613 800h-22l-71 -346h159zM615 1224c-144 0 -252 97 -252 242c0 144 107 239 252 239s251 -95 251 -239c0 -145 -107 -242 -251 -242zM532 1464c0 -48 34 -81 82 -81s83 33 83 81s-35 82 -83 82s-82 -34 -82 -82z
" />
    <glyph glyph-name="Aringacute.sc" horiz-adv-x="1230" 
d="M423 0h-408l334 1119h536l330 -1119h-443l-31 175h-284zM613 800h-22l-71 -346h159zM796 1799h-294l130 182h341zM608 1224c-144 0 -252 97 -252 242c0 144 107 239 252 239s251 -95 251 -239c0 -145 -107 -242 -251 -242zM525 1464c0 -48 34 -81 82 -81s83 33 83 81
s-35 82 -83 82s-82 -34 -82 -82z" />
    <glyph glyph-name="Atilde.sc" horiz-adv-x="1229" 
d="M423 0h-408l334 1119h536l330 -1119h-443l-31 175h-284zM613 800h-22l-71 -346h159zM752 1206c-145 0 -187 111 -256 111c-49 0 -63 -55 -63 -83h-202c0 143 88 267 238 267c143 0 188 -111 269 -111c42 0 69 29 69 95h202c0 -163 -109 -279 -257 -279z" />
    <glyph glyph-name="Abrevegrave.sc" horiz-adv-x="1230" 
d="M423 0h-408l334 1119h536l330 -1119h-443l-31 175h-284zM613 800h-22l-71 -346h159zM744 1593h-268l-286 318h321zM268 1559h204c0 -80 44 -156 143 -156s143 76 143 156h199c0 -199 -132 -344 -342 -344s-347 144 -347 344z" />
    <glyph glyph-name="Adotmacron.sc" horiz-adv-x="1230" 
d="M423 0h-408l334 1119h536l330 -1119h-443l-31 175h-284zM613 800h-22l-71 -346h159zM448 1370c0 91 73 164 164 164s164 -73 164 -164s-73 -164 -164 -164s-164 73 -164 164zM935 1600h-640v203h640v-203z" />
    <glyph glyph-name="Aringbelow.sc" horiz-adv-x="1230" 
d="M423 0h-408l334 1119h536l330 -1119h-443l-31 175h-284zM613 800h-22l-71 -346h159zM615 -574c-144 0 -252 97 -252 242c0 144 107 239 252 239s251 -95 251 -239c0 -145 -107 -242 -251 -242zM532 -334c0 -48 34 -81 82 -81s83 33 83 81s-35 82 -83 82s-82 -34 -82 -82z
" />
    <glyph glyph-name="Acircumflex.sc" horiz-adv-x="1230" 
d="M423 0h-408l334 1119h536l330 -1119h-443l-31 175h-284zM613 800h-22l-71 -346h159zM216 1231l257 323h292l257 -323h-290l-108 159h-10l-108 -159h-290z" />
    <glyph glyph-name="Acircumflexdotbelow.sc" horiz-adv-x="1230" 
d="M423 0h-408l334 1119h536l330 -1119h-443l-31 175h-284zM613 800h-22l-71 -346h159zM216 1231l257 323h292l257 -323h-290l-108 159h-10l-108 -159h-290zM463 -244c0 83 68 150 150 150c83 0 150 -67 150 -150s-67 -150 -150 -150c-82 0 -150 67 -150 150z" />
    <glyph glyph-name="Acircumflexacute.sc" horiz-adv-x="1230" 
d="M423 0h-408l334 1119h536l330 -1119h-443l-31 175h-284zM613 800h-22l-71 -346h159zM1148 1454h-268l233 318h321zM212 1231l257 323h292l257 -323h-290l-108 159h-10l-108 -159h-290z" />
    <glyph glyph-name="Acircumflextilde.sc" horiz-adv-x="1230" 
d="M423 0h-408l334 1119h536l330 -1119h-443l-31 175h-284zM613 800h-22l-71 -346h159zM455 1669h-188c0 133 82 248 221 248c133 0 175 -103 251 -103c39 0 64 27 64 88h188c0 -151 -102 -259 -239 -259c-135 0 -174 103 -239 103c-45 0 -58 -51 -58 -77zM212 1231l257 323
h292l257 -323h-290l-108 159h-10l-108 -159h-290z" />
    <glyph glyph-name="Acircumflexgrave.sc" horiz-adv-x="1230" 
d="M423 0h-408l334 1119h536l330 -1119h-443l-31 175h-284zM613 800h-22l-71 -346h159zM1262 1453h-268l-286 318h321zM212 1231l257 323h292l257 -323h-290l-108 159h-10l-108 -159h-290z" />
    <glyph glyph-name="Acircumflexhookabove.sc" horiz-adv-x="1230" 
d="M423 0h-408l334 1119h536l330 -1119h-443l-31 175h-284zM613 800h-22l-71 -346h159zM772 1715v143c24 10 63 18 114 18c149 0 235 -75 235 -188c0 -119 -75 -173 -170 -219l-92 106c51 29 77 52 77 87c0 37 -28 65 -88 65c-27 0 -55 -4 -76 -12zM212 1231l257 323h292
l257 -323h-290l-108 159h-10l-108 -159h-290z" />
    <glyph glyph-name="Abreve.sc" horiz-adv-x="1230" 
d="M423 0h-408l334 1119h536l330 -1119h-443l-31 175h-284zM613 800h-22l-71 -346h159zM268 1559h204c0 -80 44 -156 143 -156s143 76 143 156h199c0 -199 -132 -344 -342 -344s-347 144 -347 344z" />
    <glyph glyph-name="Abreveacute.sc" horiz-adv-x="1230" 
d="M423 0h-408l334 1119h536l330 -1119h-443l-31 175h-284zM613 800h-22l-71 -346h159zM748 1593h-268l233 318h321zM268 1559h204c0 -80 44 -156 143 -156s143 76 143 156h199c0 -199 -132 -344 -342 -344s-347 144 -347 344z" />
    <glyph glyph-name="Abrevetilde.sc" horiz-adv-x="1230" 
d="M423 0h-408l334 1119h536l330 -1119h-443l-31 175h-284zM613 800h-22l-71 -346h159zM455 1669h-188c0 133 82 248 221 248c133 0 175 -103 251 -103c39 0 64 27 64 88h188c0 -151 -102 -259 -239 -259c-135 0 -174 103 -239 103c-45 0 -58 -51 -58 -77zM268 1559h204
c0 -80 44 -156 143 -156s143 76 143 156h199c0 -199 -132 -344 -342 -344s-347 144 -347 344z" />
    <glyph glyph-name="Abrevehookabove.sc" horiz-adv-x="1230" 
d="M423 0h-408l334 1119h536l330 -1119h-443l-31 175h-284zM613 800h-22l-71 -346h159zM422 1775v143c24 10 63 18 114 18c149 0 235 -75 235 -188c0 -119 -75 -173 -170 -219l-92 106c51 29 77 52 77 87c0 37 -28 65 -88 65c-27 0 -55 -4 -76 -12zM268 1559h204
c0 -80 44 -156 143 -156s143 76 143 156h199c0 -199 -132 -344 -342 -344s-347 144 -347 344z" />
    <glyph glyph-name="Abrevedotbelow.sc" horiz-adv-x="1230" 
d="M423 0h-408l334 1119h536l330 -1119h-443l-31 175h-284zM613 800h-22l-71 -346h159zM268 1559h204c0 -80 44 -156 143 -156s143 76 143 156h199c0 -199 -132 -344 -342 -344s-347 144 -347 344zM465 -244c0 83 68 150 150 150c83 0 150 -67 150 -150s-67 -150 -150 -150
c-82 0 -150 67 -150 150z" />
    <glyph glyph-name="Ainvertedbreve.sc" horiz-adv-x="1230" 
d="M423 0h-408l334 1119h536l330 -1119h-443l-31 175h-284zM613 800h-22l-71 -346h159zM254 1260c0 210 143 360 361 360s356 -151 356 -360h-207c0 84 -46 164 -149 164s-149 -80 -149 -164h-212z" />
    <glyph glyph-name="Acaron.sc" horiz-adv-x="1230" 
d="M423 0h-408l334 1119h536l330 -1119h-443l-31 175h-284zM613 800h-22l-71 -346h159zM203 1554h290l108 -159h10l108 159h290l-257 -323h-292z" />
    <glyph glyph-name="Adotaccent.sc" horiz-adv-x="1230" 
d="M423 0h-408l334 1119h536l330 -1119h-443l-31 175h-284zM613 800h-22l-71 -346h159zM451 1400c0 91 73 164 164 164s164 -73 164 -164s-73 -164 -164 -164s-164 73 -164 164z" />
    <glyph glyph-name="Adotbelow.sc" horiz-adv-x="1230" 
d="M423 0h-408l334 1119h536l330 -1119h-443l-31 175h-284zM613 800h-22l-71 -346h159zM463 -244c0 83 68 150 150 150c83 0 150 -67 150 -150s-67 -150 -150 -150c-82 0 -150 67 -150 150z" />
    <glyph glyph-name="Ahookabove.sc" horiz-adv-x="1229" 
d="M423 0h-408l334 1119h536l330 -1119h-443l-31 175h-284zM613 800h-22l-71 -346h159zM455 1437v143c24 10 63 18 114 18c149 0 235 -75 235 -188c0 -119 -75 -173 -170 -219l-92 106c51 29 77 52 77 87c0 37 -28 65 -88 65c-27 0 -55 -4 -76 -12z" />
    <glyph glyph-name="Adblgrave.sc" horiz-adv-x="1229" 
d="M423 0h-408l334 1119h536l330 -1119h-443l-31 175h-284zM613 800h-22l-71 -346h159zM304 1231l-274 318h276l227 -318h-229zM727 1231l-275 318h277l227 -318h-229z" />
    <glyph glyph-name="Amacron.sc" horiz-adv-x="1230" 
d="M423 0h-408l334 1119h536l330 -1119h-443l-31 175h-284zM613 800h-22l-71 -346h159zM930 1246h-640v203h640v-203z" />
    <glyph glyph-name="Aogonek.sc" horiz-adv-x="1229" 
d="M1260 -371c-29 -12 -112 -23 -171 -23c-150 0 -274 67 -274 207c0 85 51 139 82 168v19h-125l-31 175h-284l-34 -175h-408l334 1119h536l306 -1040c-113 -69 -124 -126 -124 -168c0 -46 38 -90 122 -90c25 0 63 4 71 6v-198zM613 800h-22l-71 -346h159z" />
    <glyph glyph-name="B.sc" horiz-adv-x="1182" 
d="M108 0v1119h594c231 0 390 -100 390 -275c0 -156 -120 -232 -229 -240v-18c102 2 273 -67 273 -265c0 -208 -195 -321 -400 -321h-628zM517 858v-166h92c63 0 84 52 84 83c0 43 -36 83 -111 83h-65zM517 465v-205h99c83 0 101 66 101 107c0 52 -33 98 -125 98h-75z" />
    <glyph glyph-name="Blinebelow.sc" horiz-adv-x="1182" 
d="M108 0v1119h594c231 0 390 -100 390 -275c0 -156 -120 -232 -229 -240v-18c102 2 273 -67 273 -265c0 -208 -195 -321 -400 -321h-628zM517 858v-166h92c63 0 84 52 84 83c0 43 -36 83 -111 83h-65zM517 465v-205h99c83 0 101 66 101 107c0 52 -33 98 -125 98h-75z
M911 -389h-640v203h640v-203z" />
    <glyph glyph-name="Bdotbelow.sc" horiz-adv-x="1182" 
d="M108 0v1119h594c231 0 390 -100 390 -275c0 -156 -120 -232 -229 -240v-18c102 2 273 -67 273 -265c0 -208 -195 -321 -400 -321h-628zM517 858v-166h92c63 0 84 52 84 83c0 43 -36 83 -111 83h-65zM517 465v-205h99c83 0 101 66 101 107c0 52 -33 98 -125 98h-75z
M441 -244c0 83 68 150 150 150c83 0 150 -67 150 -150s-67 -150 -150 -150c-82 0 -150 67 -150 150z" />
    <glyph glyph-name="Bdotaccent.sc" horiz-adv-x="1182" 
d="M108 0v1119h594c231 0 390 -100 390 -275c0 -156 -120 -232 -229 -240v-18c102 2 273 -67 273 -265c0 -208 -195 -321 -400 -321h-628zM517 858v-166h92c63 0 84 52 84 83c0 43 -36 83 -111 83h-65zM517 465v-205h99c83 0 101 66 101 107c0 52 -33 98 -125 98h-75z
M427 1400c0 91 73 164 164 164s164 -73 164 -164s-73 -164 -164 -164s-164 73 -164 164z" />
    <glyph glyph-name="C.sc" horiz-adv-x="1189" 
d="M485 603v-87c0 -133 45 -211 129 -211s127 74 127 176h391v-64c0 -281 -230 -434 -520 -434c-362 0 -552 219 -552 536v82c0 321 189 534 551 534c295 0 521 -154 521 -430v-62h-391c0 102 -42 169 -125 169c-87 0 -131 -74 -131 -209z" />
    <glyph glyph-name="Cacute.sc" horiz-adv-x="1189" 
d="M485 603v-87c0 -133 45 -211 129 -211s127 74 127 176h391v-64c0 -281 -230 -434 -520 -434c-362 0 -552 219 -552 536v82c0 321 189 534 551 534c295 0 521 -154 521 -430v-62h-391c0 102 -42 169 -125 169c-87 0 -131 -74 -131 -209zM714 1231h-268l233 318h321z" />
    <glyph glyph-name="Ccaron.sc" horiz-adv-x="1189" 
d="M485 603v-87c0 -133 45 -211 129 -211s127 74 127 176h391v-64c0 -281 -230 -434 -520 -434c-362 0 -552 219 -552 536v82c0 321 189 534 551 534c295 0 521 -154 521 -430v-62h-391c0 102 -42 169 -125 169c-87 0 -131 -74 -131 -209zM192 1554h290l108 -159h10l108 159
h290l-257 -323h-292z" />
    <glyph glyph-name="Ccircumflex.sc" horiz-adv-x="1189" 
d="M485 603v-87c0 -133 45 -211 129 -211s127 74 127 176h391v-64c0 -281 -230 -434 -520 -434c-362 0 -552 219 -552 536v82c0 321 189 534 551 534c295 0 521 -154 521 -430v-62h-391c0 102 -42 169 -125 169c-87 0 -131 -74 -131 -209zM192 1231l257 323h292l257 -323
h-290l-108 159h-10l-108 -159h-290z" />
    <glyph glyph-name="Cdotaccent.sc" horiz-adv-x="1189" 
d="M485 603v-87c0 -133 45 -211 129 -211s127 74 127 176h391v-64c0 -281 -230 -434 -520 -434c-362 0 -552 219 -552 536v82c0 321 189 534 551 534c295 0 521 -154 521 -430v-62h-391c0 102 -42 169 -125 169c-87 0 -131 -74 -131 -209zM431 1400c0 91 73 164 164 164
s164 -73 164 -164s-73 -164 -164 -164s-164 73 -164 164z" />
    <glyph glyph-name="Ccedilla.sc" horiz-adv-x="1189" 
d="M582 -477c-76 0 -121 9 -141 16v149c27 -8 66 -13 105 -13c49 0 99 4 99 39c0 28 -8 49 -106 49h-58v134l36 91c-300 36 -457 243 -457 531v82c0 321 189 534 551 534c295 0 521 -154 521 -430v-62h-391c0 102 -42 169 -125 169c-87 0 -131 -74 -131 -209v-87
c0 -133 45 -211 129 -211s127 74 127 176h391v-64c0 -243 -172 -390 -406 -426l-36 -85c106 0 169 -74 169 -177c0 -145 -105 -206 -277 -206z" />
    <glyph glyph-name="Ccedillaacute.sc" horiz-adv-x="1189" 
d="M582 -477c-76 0 -121 9 -141 16v149c27 -8 66 -13 105 -13c49 0 99 4 99 39c0 28 -8 49 -106 49h-58v134l36 91c-300 36 -457 243 -457 531v82c0 321 189 534 551 534c295 0 521 -154 521 -430v-62h-391c0 102 -42 169 -125 169c-87 0 -131 -74 -131 -209v-87
c0 -133 45 -211 129 -211s127 74 127 176h391v-64c0 -243 -172 -390 -406 -426l-36 -85c106 0 169 -74 169 -177c0 -145 -105 -206 -277 -206zM714 1231h-268l233 318h321z" />
    <glyph glyph-name="D.sc" horiz-adv-x="1242" 
d="M108 1119h540c376 0 538 -216 538 -551c0 -344 -171 -568 -538 -568h-540v1119zM522 813v-508h45c80 0 195 -11 195 251c0 111 -12 257 -195 257h-45z" />
    <glyph glyph-name="Ddotaccent.sc" horiz-adv-x="1242" 
d="M108 1119h540c376 0 538 -216 538 -551c0 -344 -171 -568 -538 -568h-540v1119zM522 813v-508h45c80 0 195 -11 195 251c0 111 -12 257 -195 257h-45zM457 1400c0 91 73 164 164 164s164 -73 164 -164s-73 -164 -164 -164s-164 73 -164 164z" />
    <glyph glyph-name="Dcircumflexbelow.sc" horiz-adv-x="1242" 
d="M108 1119h540c376 0 538 -216 538 -551c0 -344 -171 -568 -538 -568h-540v1119zM522 813v-508h45c80 0 195 -11 195 251c0 111 -12 257 -195 257h-45zM222 -373l257 253h284l257 -253h-284l-107 109h-16l-107 -109h-284z" />
    <glyph glyph-name="Dcommaaccent.sc" horiz-adv-x="1242" 
d="M108 1119h540c376 0 538 -216 538 -551c0 -344 -171 -568 -538 -568h-540v1119zM522 813v-508h45c80 0 195 -11 195 251c0 111 -12 257 -195 257h-45zM649 -489h-248l85 335h277z" />
    <glyph glyph-name="Dlinebelow.sc" horiz-adv-x="1242" 
d="M108 1119h540c376 0 538 -216 538 -551c0 -344 -171 -568 -538 -568h-540v1119zM522 813v-508h45c80 0 195 -11 195 251c0 111 -12 257 -195 257h-45zM941 -389h-640v203h640v-203z" />
    <glyph glyph-name="Dcaron.sc" horiz-adv-x="1242" 
d="M108 1119h540c376 0 538 -216 538 -551c0 -344 -171 -568 -538 -568h-540v1119zM522 813v-508h45c80 0 195 -11 195 251c0 111 -12 257 -195 257h-45zM218 1554h290l108 -159h10l108 159h290l-257 -323h-292z" />
    <glyph glyph-name="Ddotbelow.sc" horiz-adv-x="1242" 
d="M108 1119h540c376 0 538 -216 538 -551c0 -344 -171 -568 -538 -568h-540v1119zM522 813v-508h45c80 0 195 -11 195 251c0 111 -12 257 -195 257h-45zM471 -244c0 83 68 150 150 150c83 0 150 -67 150 -150s-67 -150 -150 -150c-82 0 -150 67 -150 150z" />
    <glyph glyph-name="Dcroat.sc" horiz-adv-x="1337" 
d="M742 0h-540v416h-147v285h147v418h540c377 0 539 -216 539 -551c0 -344 -172 -568 -539 -568zM616 317h42c79 0 195 -12 195 250c0 111 -12 259 -195 259h-42v-155h102v-225h-102v-129z" />
    <glyph glyph-name="E.sc" horiz-adv-x="1057" 
d="M970 305v-305h-862v1119h862v-305h-453v-123h421v-273h-421v-113h453z" />
    <glyph glyph-name="Egrave.sc" horiz-adv-x="1057" 
d="M970 305v-305h-862v1119h862v-305h-453v-123h421v-273h-421v-113h453zM678 1231h-268l-286 318h321z" />
    <glyph glyph-name="Edblgrave.sc" horiz-adv-x="1057" 
d="M970 305v-305h-862v1119h862v-305h-453v-123h421v-273h-421v-113h453zM218 1231l-274 318h276l227 -318h-229zM641 1231l-275 318h277l227 -318h-229z" />
    <glyph glyph-name="Eacute.sc" horiz-adv-x="1057" 
d="M970 305v-305h-862v1119h862v-305h-453v-123h421v-273h-421v-113h453zM648 1231h-268l233 318h321z" />
    <glyph glyph-name="Ecircumflex.sc" horiz-adv-x="1057" 
d="M970 305v-305h-862v1119h862v-305h-453v-123h421v-273h-421v-113h453zM126 1231l257 323h292l257 -323h-290l-108 159h-10l-108 -159h-290z" />
    <glyph glyph-name="Ecircumflexhookabove.sc" horiz-adv-x="1057" 
d="M970 305v-305h-862v1119h862v-305h-453v-123h421v-273h-421v-113h453zM686 1715v143c24 10 63 18 114 18c149 0 235 -75 235 -188c0 -119 -75 -173 -170 -219l-92 106c51 29 77 52 77 87c0 37 -28 65 -88 65c-27 0 -55 -4 -76 -12zM126 1231l257 323h292l257 -323h-290
l-108 159h-10l-108 -159h-290z" />
    <glyph glyph-name="Ecircumflexgrave.sc" horiz-adv-x="1057" 
d="M970 305v-305h-862v1119h862v-305h-453v-123h421v-273h-421v-113h453zM1176 1453h-268l-286 318h321zM126 1231l257 323h292l257 -323h-290l-108 159h-10l-108 -159h-290z" />
    <glyph glyph-name="Ecircumflextilde.sc" horiz-adv-x="1057" 
d="M970 305v-305h-862v1119h862v-305h-453v-123h421v-273h-421v-113h453zM369 1669h-188c0 133 82 248 221 248c133 0 175 -103 251 -103c39 0 64 27 64 88h188c0 -151 -102 -259 -239 -259c-135 0 -174 103 -239 103c-45 0 -58 -51 -58 -77zM126 1231l257 323h292l257 -323
h-290l-108 159h-10l-108 -159h-290z" />
    <glyph glyph-name="Ecircumflexdotbelow.sc" horiz-adv-x="1057" 
d="M970 305v-305h-862v1119h862v-305h-453v-123h421v-273h-421v-113h453zM126 1231l257 323h292l257 -323h-290l-108 159h-10l-108 -159h-290zM379 -244c0 83 68 150 150 150c83 0 150 -67 150 -150s-67 -150 -150 -150c-82 0 -150 67 -150 150z" />
    <glyph glyph-name="Ecircumflexacute.sc" horiz-adv-x="1057" 
d="M970 305v-305h-862v1119h862v-305h-453v-123h421v-273h-421v-113h453zM1062 1454h-268l233 318h321zM126 1231l257 323h292l257 -323h-290l-108 159h-10l-108 -159h-290z" />
    <glyph glyph-name="Edieresis.sc" horiz-adv-x="1057" 
d="M970 305v-305h-862v1119h862v-305h-453v-123h421v-273h-421v-113h453zM306 1228c-83 0 -143 57 -143 141s60 144 143 144c85 0 147 -60 147 -144s-62 -141 -147 -141zM745 1228c-83 0 -140 57 -140 141s57 144 140 144c85 0 150 -60 150 -144s-65 -141 -150 -141z" />
    <glyph glyph-name="Edotbelow.sc" horiz-adv-x="1057" 
d="M970 305v-305h-862v1119h862v-305h-453v-123h421v-273h-421v-113h453zM379 -244c0 83 68 150 150 150c83 0 150 -67 150 -150s-67 -150 -150 -150c-82 0 -150 67 -150 150z" />
    <glyph glyph-name="Einvertedbreve.sc" horiz-adv-x="1057" 
d="M970 305v-305h-862v1119h862v-305h-453v-123h421v-273h-421v-113h453zM168 1260c0 210 143 360 361 360s356 -151 356 -360h-207c0 84 -46 164 -149 164s-149 -80 -149 -164h-212z" />
    <glyph glyph-name="Ehookabove.sc" horiz-adv-x="1057" 
d="M970 305v-305h-862v1119h862v-305h-453v-123h421v-273h-421v-113h453zM369 1437v143c24 10 63 18 114 18c149 0 235 -75 235 -188c0 -119 -75 -173 -170 -219l-92 106c51 29 77 52 77 87c0 37 -28 65 -88 65c-27 0 -55 -4 -76 -12z" />
    <glyph glyph-name="Ecaron.sc" horiz-adv-x="1057" 
d="M970 305v-305h-862v1119h862v-305h-453v-123h421v-273h-421v-113h453zM126 1554h290l108 -159h10l108 159h290l-257 -323h-292z" />
    <glyph glyph-name="Emacron.sc" horiz-adv-x="1057" 
d="M970 305v-305h-862v1119h862v-305h-453v-123h421v-273h-421v-113h453zM849 1246h-640v203h640v-203z" />
    <glyph glyph-name="Emacrongrave.sc" horiz-adv-x="1057" 
d="M970 305v-305h-862v1119h862v-305h-453v-123h421v-273h-421v-113h453zM849 1246h-640v203h640v-203zM678 1584h-268l-286 318h321z" />
    <glyph glyph-name="Emacronacute.sc" horiz-adv-x="1057" 
d="M970 305v-305h-862v1119h862v-305h-453v-123h421v-273h-421v-113h453zM849 1246h-640v203h640v-203zM662 1593h-268l233 318h321z" />
    <glyph glyph-name="Etilde.sc" horiz-adv-x="1057" 
d="M970 305v-305h-862v1119h862v-305h-453v-123h421v-273h-421v-113h453zM666 1206c-145 0 -187 111 -256 111c-49 0 -63 -55 -63 -83h-202c0 143 88 267 238 267c143 0 188 -111 269 -111c42 0 69 29 69 95h202c0 -163 -109 -279 -257 -279z" />
    <glyph glyph-name="Ecircumflexbelow.sc" horiz-adv-x="1057" 
d="M970 305v-305h-862v1119h862v-305h-453v-123h421v-273h-421v-113h453zM130 -373l257 253h284l257 -253h-284l-107 109h-16l-107 -109h-284z" />
    <glyph glyph-name="Ebreve.sc" horiz-adv-x="1057" 
d="M970 305v-305h-862v1119h862v-305h-453v-123h421v-273h-421v-113h453zM182 1559h204c0 -80 44 -156 143 -156s143 76 143 156h199c0 -199 -132 -344 -342 -344s-347 144 -347 344z" />
    <glyph glyph-name="Etildebelow.sc" horiz-adv-x="1057" 
d="M970 305v-305h-862v1119h862v-305h-453v-123h421v-273h-421v-113h453zM673 -392c-145 0 -187 111 -256 111c-49 0 -63 -55 -63 -83h-202c0 143 88 267 238 267c143 0 188 -111 269 -111c42 0 69 29 69 95h202c0 -163 -109 -279 -257 -279z" />
    <glyph glyph-name="Edotaccent.sc" horiz-adv-x="1057" 
d="M970 305v-305h-862v1119h862v-305h-453v-123h421v-273h-421v-113h453zM365 1400c0 91 73 164 164 164s164 -73 164 -164s-73 -164 -164 -164s-164 73 -164 164z" />
    <glyph glyph-name="Ecedilla.sc" horiz-adv-x="1057" 
d="M507 -477c-76 0 -121 9 -141 16v149c27 -8 66 -13 105 -13c49 0 99 4 99 39c0 28 -8 49 -106 49h-58v134l40 103h-338v1119h862v-305h-453v-123h421v-273h-421v-113h453v-305h-315l-40 -94c106 0 169 -74 169 -177c0 -145 -105 -206 -277 -206z" />
    <glyph glyph-name="Ecedillabreve.sc" horiz-adv-x="1057" 
d="M507 -477c-76 0 -121 9 -141 16v149c27 -8 66 -13 105 -13c49 0 99 4 99 39c0 28 -8 49 -106 49h-58v134l40 103h-338v1119h862v-305h-453v-123h421v-273h-421v-113h453v-305h-315l-40 -94c106 0 169 -74 169 -177c0 -145 -105 -206 -277 -206zM182 1559h204
c0 -80 44 -156 143 -156s143 76 143 156h199c0 -199 -132 -344 -342 -344s-347 144 -347 344z" />
    <glyph glyph-name="Eogonek.sc" horiz-adv-x="1057" 
d="M798 -394c-145 0 -273 67 -273 207c0 69 40 128 87 168v19h-504v1119h862v-305h-453v-123h421v-273h-421v-113h453v-223c-135 -37 -193 -115 -193 -170c0 -58 53 -91 120 -91c20 0 58 3 73 6v-198c-37 -11 -112 -23 -172 -23z" />
    <glyph glyph-name="F.sc" horiz-adv-x="1026" 
d="M522 0h-414v1119h862v-311h-448v-153h402v-298h-402v-357z" />
    <glyph glyph-name="Fdotaccent.sc" horiz-adv-x="1026" 
d="M522 0h-414v1119h862v-311h-448v-153h402v-298h-402v-357zM349 1400c0 91 73 164 164 164s164 -73 164 -164s-73 -164 -164 -164s-164 73 -164 164z" />
    <glyph glyph-name="G.sc" horiz-adv-x="1211" 
d="M1152 719h-399c-3 37 -38 97 -130 97c-105 0 -143 -78 -143 -200v-108c0 -92 13 -207 155 -207c85 0 121 48 128 88h-100v258h488v-203c0 -241 -149 -461 -529 -461c-414 0 -562 261 -562 523v115c0 286 187 514 565 514c369 0 530 -219 527 -416z" />
    <glyph glyph-name="Gacute.sc" horiz-adv-x="1211" 
d="M1011 1549l-286 -318h-268l233 318h321zM1152 719h-399c-3 37 -38 97 -130 97c-105 0 -143 -78 -143 -200v-108c0 -92 13 -207 155 -207c85 0 121 48 128 88h-100v258h488v-203c0 -241 -149 -461 -529 -461c-414 0 -562 261 -562 523v115c0 286 187 514 565 514
c369 0 530 -219 527 -416z" />
    <glyph glyph-name="Gcaron.sc" horiz-adv-x="1211" 
d="M752 1231h-292l-257 323h290l108 -159h10l108 159h290zM1152 719h-399c-3 37 -38 97 -130 97c-105 0 -143 -78 -143 -200v-108c0 -92 13 -207 155 -207c85 0 121 48 128 88h-100v258h488v-203c0 -241 -149 -461 -529 -461c-414 0 -562 261 -562 523v115
c0 286 187 514 565 514c369 0 530 -219 527 -416z" />
    <glyph glyph-name="Gcircumflex.sc" horiz-adv-x="1211" 
d="M601 1390l-108 -159h-290l257 323h292l257 -323h-290l-108 159h-10zM1152 719h-399c-3 37 -38 97 -130 97c-105 0 -143 -78 -143 -200v-108c0 -92 13 -207 155 -207c85 0 121 48 128 88h-100v258h488v-203c0 -241 -149 -461 -529 -461c-414 0 -562 261 -562 523v115
c0 286 187 514 565 514c369 0 530 -219 527 -416z" />
    <glyph glyph-name="Gbreve.sc" horiz-adv-x="1211" 
d="M749 1559h199c0 -199 -132 -344 -342 -344s-347 144 -347 344h204c0 -80 44 -156 143 -156s143 76 143 156zM1152 719h-399c-3 37 -38 97 -130 97c-105 0 -143 -78 -143 -200v-108c0 -92 13 -207 155 -207c85 0 121 48 128 88h-100v258h488v-203
c0 -241 -149 -461 -529 -461c-414 0 -562 261 -562 523v115c0 286 187 514 565 514c369 0 530 -219 527 -416z" />
    <glyph glyph-name="Gmacron.sc" horiz-adv-x="1211" 
d="M926 1449v-203h-640v203h640zM1152 719h-399c-3 37 -38 97 -130 97c-105 0 -143 -78 -143 -200v-108c0 -92 13 -207 155 -207c85 0 121 48 128 88h-100v258h488v-203c0 -241 -149 -461 -529 -461c-414 0 -562 261 -562 523v115c0 286 187 514 565 514
c369 0 530 -219 527 -416z" />
    <glyph glyph-name="Gdotaccent.sc" horiz-adv-x="1211" 
d="M606 1236c-91 0 -164 73 -164 164s73 164 164 164s164 -73 164 -164s-73 -164 -164 -164zM1152 719h-399c-3 37 -38 97 -130 97c-105 0 -143 -78 -143 -200v-108c0 -92 13 -207 155 -207c85 0 121 48 128 88h-100v258h488v-203c0 -241 -149 -461 -529 -461
c-414 0 -562 261 -562 523v115c0 286 187 514 565 514c369 0 530 -219 527 -416z" />
    <glyph glyph-name="Gcommaaccent.sc" horiz-adv-x="1211" 
d="M386 -489l85 335h277l-114 -335h-248zM1152 719h-399c-3 37 -38 97 -130 97c-105 0 -143 -78 -143 -200v-108c0 -92 13 -207 155 -207c85 0 121 48 128 88h-100v258h488v-203c0 -241 -149 -461 -529 -461c-414 0 -562 261 -562 523v115c0 286 187 514 565 514
c369 0 530 -219 527 -416z" />
    <glyph glyph-name="H.sc" horiz-adv-x="1311" 
d="M1203 0h-415v397h-266v-397h-414v1119h414v-406h266v406h415v-1119z" />
    <glyph glyph-name="Hdieresis.sc" horiz-adv-x="1311" 
d="M1203 0h-415v397h-266v-397h-414v1119h414v-406h266v406h415v-1119zM425 1228c-83 0 -143 57 -143 141s60 144 143 144c85 0 147 -60 147 -144s-62 -141 -147 -141zM864 1228c-83 0 -140 57 -140 141s57 144 140 144c85 0 150 -60 150 -144s-65 -141 -150 -141z" />
    <glyph glyph-name="Hcaron.sc" horiz-adv-x="1311" 
d="M1203 0h-415v397h-266v-397h-414v1119h414v-406h266v406h415v-1119zM244 1554h290l108 -159h10l108 159h290l-257 -323h-292z" />
    <glyph glyph-name="Hcircumflex.sc" horiz-adv-x="1311" 
d="M1203 0h-415v397h-266v-397h-414v1119h414v-406h266v406h415v-1119zM257 1231l257 323h292l257 -323h-290l-108 159h-10l-108 -159h-290z" />
    <glyph glyph-name="Hdotbelow.sc" horiz-adv-x="1311" 
d="M1203 0h-415v397h-266v-397h-414v1119h414v-406h266v406h415v-1119zM503 -244c0 83 68 150 150 150c83 0 150 -67 150 -150s-67 -150 -150 -150c-82 0 -150 67 -150 150z" />
    <glyph glyph-name="Hdotaccent.sc" horiz-adv-x="1311" 
d="M1203 0h-415v397h-266v-397h-414v1119h414v-406h266v406h415v-1119zM492 1400c0 91 73 164 164 164s164 -73 164 -164s-73 -164 -164 -164s-164 73 -164 164z" />
    <glyph glyph-name="Hbrevebelow.sc" horiz-adv-x="1311" 
d="M805 -110h207c0 -209 -138 -360 -356 -360s-361 150 -361 360h212c0 -84 46 -164 149 -164s149 80 149 164zM1203 0h-415v397h-266v-397h-414v1119h414v-406h266v406h415v-1119z" />
    <glyph glyph-name="Hcedilla.sc" horiz-adv-x="1311" 
d="M374 -477c-76 0 -121 9 -141 16v149c27 -8 66 -13 105 -13c49 0 99 4 99 39c0 28 -8 49 -106 49h-58v134l40 103h-205v1119h414v-406h266v406h415v-1119h-415v397h-266v-397l-40 -94c106 0 169 -74 169 -177c0 -145 -105 -206 -277 -206z" />
    <glyph glyph-name="Hbar.sc" horiz-adv-x="1307" 
d="M522 713h266v94h-266v-94zM522 397v-397h-414v807h-48v210h48v102h414v-102h266v102h415v-102h44v-210h-44v-807h-415v397h-266z" />
    <glyph glyph-name="I.sc" horiz-adv-x="630" 
d="M522 0h-414v1119h414v-1119z" />
    <glyph glyph-name="Idotaccent.sc" horiz-adv-x="630" 
d="M522 0h-414v1119h414v-1119zM151 1400c0 91 73 164 164 164s164 -73 164 -164s-73 -164 -164 -164s-164 73 -164 164z" />
    <glyph glyph-name="Igrave.sc" horiz-adv-x="630" 
d="M522 0h-414v1119h414v-1119zM464 1231h-268l-286 318h321z" />
    <glyph glyph-name="Idblgrave.sc" horiz-adv-x="630" 
d="M522 0h-414v1119h414v-1119zM4 1231l-274 318h276l227 -318h-229zM427 1231l-275 318h277l227 -318h-229z" />
    <glyph glyph-name="Iacute.sc" horiz-adv-x="630" 
d="M522 0h-414v1119h414v-1119zM434 1231h-268l233 318h321z" />
    <glyph glyph-name="Icircumflex.sc" horiz-adv-x="630" 
d="M522 0h-414v1119h414v-1119zM-88 1231l257 323h292l257 -323h-290l-108 159h-10l-108 -159h-290z" />
    <glyph glyph-name="Icaron.sc" horiz-adv-x="630" 
d="M522 0h-414v1119h414v-1119zM-88 1554h290l108 -159h10l108 159h290l-257 -323h-292z" />
    <glyph glyph-name="Idieresis.sc" horiz-adv-x="630" 
d="M522 0h-414v1119h414v-1119zM92 1228c-83 0 -143 57 -143 141s60 144 143 144c85 0 147 -60 147 -144s-62 -141 -147 -141zM531 1228c-83 0 -140 57 -140 141s57 144 140 144c85 0 150 -60 150 -144s-65 -141 -150 -141z" />
    <glyph glyph-name="Idieresisacute.sc" horiz-adv-x="630" 
d="M522 0h-414v1119h414v-1119zM92 1228c-83 0 -143 57 -143 141s60 144 143 144c85 0 147 -60 147 -144s-62 -141 -147 -141zM531 1228c-83 0 -140 57 -140 141s57 144 140 144c85 0 150 -60 150 -144s-65 -141 -150 -141zM448 1593h-268l233 318h321z" />
    <glyph glyph-name="Ibreve.sc" horiz-adv-x="630" 
d="M522 0h-414v1119h414v-1119zM-32 1559h204c0 -80 44 -156 143 -156s143 76 143 156h199c0 -199 -132 -344 -342 -344s-347 144 -347 344z" />
    <glyph glyph-name="Idotbelow.sc" horiz-adv-x="630" 
d="M522 0h-414v1119h414v-1119zM165 -244c0 83 68 150 150 150c83 0 150 -67 150 -150s-67 -150 -150 -150c-82 0 -150 67 -150 150z" />
    <glyph glyph-name="Iinvertedbreve.sc" horiz-adv-x="630" 
d="M522 0h-414v1119h414v-1119zM-46 1260c0 210 143 360 361 360s356 -151 356 -360h-207c0 84 -46 164 -149 164s-149 -80 -149 -164h-212z" />
    <glyph glyph-name="Imacron.sc" horiz-adv-x="630" 
d="M522 0h-414v1119h414v-1119zM635 1246h-640v203h640v-203z" />
    <glyph glyph-name="Itildebelow.sc" horiz-adv-x="630" 
d="M522 0h-414v1119h414v-1119zM459 -392c-145 0 -187 111 -256 111c-49 0 -63 -55 -63 -83h-202c0 143 88 267 238 267c143 0 188 -111 269 -111c42 0 69 29 69 95h202c0 -163 -109 -279 -257 -279z" />
    <glyph glyph-name="Ihookabove.sc" horiz-adv-x="630" 
d="M522 0h-414v1119h414v-1119zM155 1437v143c24 10 63 18 114 18c149 0 235 -75 235 -188c0 -119 -75 -173 -170 -219l-92 106c51 29 77 52 77 87c0 37 -28 65 -88 65c-27 0 -55 -4 -76 -12z" />
    <glyph glyph-name="Itilde.sc" horiz-adv-x="630" 
d="M522 0h-414v1119h414v-1119zM452 1206c-145 0 -187 111 -256 111c-49 0 -63 -55 -63 -83h-202c0 143 88 267 238 267c143 0 188 -111 269 -111c42 0 69 29 69 95h202c0 -163 -109 -279 -257 -279z" />
    <glyph glyph-name="Iogonek.sc" horiz-adv-x="630" 
d="M548 -366c-24 -11 -99 -29 -178 -29c-190 0 -270 104 -270 216c0 80 47 132 88 163v16h-80v1119h414v-1035c-147 -67 -157 -134 -157 -177c0 -59 49 -89 112 -89c25 0 62 5 71 9v-193z" />
    <glyph glyph-name="J.sc" horiz-adv-x="1136" 
d="M45 463h395c-1 -80 31 -130 101 -130c74 0 87 46 87 109v677h415v-688c0 -300 -187 -448 -497 -448c-372 0 -501 251 -501 480z" />
    <glyph glyph-name="Jcircumflex.sc" horiz-adv-x="1136" 
d="M45 463h395c-1 -80 31 -130 101 -130c74 0 87 46 87 109v677h415v-688c0 -300 -187 -448 -497 -448c-372 0 -501 251 -501 480zM441 1231l257 323h292l257 -323h-290l-108 159h-10l-108 -159h-290z" />
    <glyph glyph-name="K.sc" horiz-adv-x="1252" 
d="M1258 1119l-371 -494l378 -625h-475l-204 363l-64 -83v-280h-414v1119h414v-409h19l290 409h427z" />
    <glyph glyph-name="Kacute.sc" horiz-adv-x="1252" 
d="M1258 1119l-371 -494l378 -625h-475l-204 363l-64 -83v-280h-414v1119h414v-409h19l290 409h427zM745 1231h-268l233 318h321z" />
    <glyph glyph-name="Kcaron.sc" horiz-adv-x="1252" 
d="M1258 1119l-371 -494l378 -625h-475l-204 363l-64 -83v-280h-414v1119h414v-409h19l290 409h427zM223 1554h290l108 -159h10l108 159h290l-257 -323h-292z" />
    <glyph glyph-name="Kdotbelow.sc" horiz-adv-x="1252" 
d="M1258 1119l-371 -494l378 -625h-475l-204 363l-64 -83v-280h-414v1119h414v-409h19l290 409h427zM476 -244c0 83 68 150 150 150c83 0 150 -67 150 -150s-67 -150 -150 -150c-82 0 -150 67 -150 150z" />
    <glyph glyph-name="Klinebelow.sc" horiz-adv-x="1252" 
d="M1258 1119l-371 -494l378 -625h-475l-204 363l-64 -83v-280h-414v1119h414v-409h19l290 409h427zM946 -389h-640v203h640v-203z" />
    <glyph glyph-name="Kcommaaccent.sc" horiz-adv-x="1252" 
d="M1258 1119l-371 -494l378 -625h-475l-204 363l-64 -83v-280h-414v1119h414v-409h19l290 409h427zM654 -489h-248l85 335h277z" />
    <glyph glyph-name="L.sc" horiz-adv-x="965" 
d="M917 327v-327h-809v1119h414v-792h395z" />
    <glyph glyph-name="Lacute.sc" horiz-adv-x="965" 
d="M917 327v-327h-809v1119h414v-792h395zM439 1231h-268l233 318h321z" />
    <glyph glyph-name="Lcircumflexbelow.sc" horiz-adv-x="965" 
d="M917 327v-327h-809v1119h414v-792h395zM114 -373l257 253h284l257 -253h-284l-107 109h-16l-107 -109h-284z" />
    <glyph glyph-name="Ldotbelow.sc" horiz-adv-x="965" 
d="M917 327v-327h-809v1119h414v-792h395zM363 -244c0 83 68 150 150 150c83 0 150 -67 150 -150s-67 -150 -150 -150c-82 0 -150 67 -150 150z" />
    <glyph glyph-name="Ldotbelowmacron.sc" horiz-adv-x="965" 
d="M917 327v-327h-809v1119h414v-792h395zM363 -244c0 83 68 150 150 150c83 0 150 -67 150 -150s-67 -150 -150 -150c-82 0 -150 67 -150 150zM640 1246h-640v203h640v-203z" />
    <glyph glyph-name="Llinebelow.sc" horiz-adv-x="965" 
d="M917 327v-327h-809v1119h414v-792h395zM833 -389h-640v203h640v-203z" />
    <glyph glyph-name="Lcommaaccent.sc" horiz-adv-x="965" 
d="M917 327v-327h-809v1119h414v-792h395zM541 -489h-248l85 335h277z" />
    <glyph glyph-name="Lcaron.sc" horiz-adv-x="965" 
d="M632 1201h302l-50 -488h-252v488zM917 327v-327h-809v1119h414v-792h395z" />
    <glyph glyph-name="Lslash.sc" horiz-adv-x="1012" 
d="M963 0h-809v380l-85 -44v295l85 44v444h414v-222l161 82v-296l-161 -82v-274h395v-327z" />
    <glyph glyph-name="M.sc" horiz-adv-x="1517" 
d="M472 0h-365v1119h436l210 -390h14l211 390h432v-1119h-372v566h-18l-161 -319h-204l-163 319h-20v-566z" />
    <glyph glyph-name="Macute.sc" horiz-adv-x="1517" 
d="M472 0h-365v1119h436l210 -390h14l211 390h432v-1119h-372v566h-18l-161 -319h-204l-163 319h-20v-566zM878 1231h-268l233 318h321z" />
    <glyph glyph-name="Mdotaccent.sc" horiz-adv-x="1517" 
d="M472 0h-365v1119h436l210 -390h14l211 390h432v-1119h-372v566h-18l-161 -319h-204l-163 319h-20v-566zM595 1400c0 91 73 164 164 164s164 -73 164 -164s-73 -164 -164 -164s-164 73 -164 164z" />
    <glyph glyph-name="Mdotbelow.sc" horiz-adv-x="1517" 
d="M472 0h-365v1119h436l210 -390h14l211 390h432v-1119h-372v566h-18l-161 -319h-204l-163 319h-20v-566zM609 -244c0 83 68 150 150 150c83 0 150 -67 150 -150s-67 -150 -150 -150c-82 0 -150 67 -150 150z" />
    <glyph glyph-name="N.sc" horiz-adv-x="1253" 
d="M485 0h-377v1119h302l342 -443h16v443h377v-1119h-299l-346 455h-15v-455z" />
    <glyph glyph-name="Ngrave.sc" horiz-adv-x="1253" 
d="M485 0h-377v1119h302l342 -443h16v443h377v-1119h-299l-346 455h-15v-455zM776 1231h-268l-286 318h321z" />
    <glyph glyph-name="Nacute.sc" horiz-adv-x="1253" 
d="M485 0h-377v1119h302l342 -443h16v443h377v-1119h-299l-346 455h-15v-455zM746 1231h-268l233 318h321z" />
    <glyph glyph-name="Ntilde.sc" horiz-adv-x="1253" 
d="M485 0h-377v1119h302l342 -443h16v443h377v-1119h-299l-346 455h-15v-455zM764 1206c-145 0 -187 111 -256 111c-49 0 -63 -55 -63 -83h-202c0 143 88 267 238 267c143 0 188 -111 269 -111c42 0 69 29 69 95h202c0 -163 -109 -279 -257 -279z" />
    <glyph glyph-name="Ndotbelow.sc" horiz-adv-x="1253" 
d="M485 0h-377v1119h302l342 -443h16v443h377v-1119h-299l-346 455h-15v-455zM477 -244c0 83 68 150 150 150c83 0 150 -67 150 -150s-67 -150 -150 -150c-82 0 -150 67 -150 150z" />
    <glyph glyph-name="Ndotaccent.sc" horiz-adv-x="1253" 
d="M485 0h-377v1119h302l342 -443h16v443h377v-1119h-299l-346 455h-15v-455zM463 1400c0 91 73 164 164 164s164 -73 164 -164s-73 -164 -164 -164s-164 73 -164 164z" />
    <glyph glyph-name="Ncaron.sc" horiz-adv-x="1253" 
d="M485 0h-377v1119h302l342 -443h16v443h377v-1119h-299l-346 455h-15v-455zM224 1554h290l108 -159h10l108 159h290l-257 -323h-292z" />
    <glyph glyph-name="Ncircumflexbelow.sc" horiz-adv-x="1253" 
d="M485 0h-377v1119h302l342 -443h16v443h377v-1119h-299l-346 455h-15v-455zM228 -373l257 253h284l257 -253h-284l-107 109h-16l-107 -109h-284z" />
    <glyph glyph-name="Nlinebelow.sc" horiz-adv-x="1253" 
d="M485 0h-377v1119h302l342 -443h16v443h377v-1119h-299l-346 455h-15v-455zM947 -389h-640v203h640v-203z" />
    <glyph glyph-name="Ncommaaccent.sc" horiz-adv-x="1253" 
d="M485 0h-377v1119h302l342 -443h16v443h377v-1119h-299l-346 455h-15v-455zM655 -489h-248l85 335h277z" />
    <glyph glyph-name="O.sc" horiz-adv-x="1260" 
d="M485 611v-102c0 -135 50 -211 146 -211c94 0 144 76 144 211v102c0 135 -50 209 -144 209c-96 0 -146 -74 -146 -209zM60 511v94c0 318 196 530 570 530c375 0 570 -215 570 -530v-94c0 -313 -194 -528 -569 -528c-374 0 -571 215 -571 528z" />
    <glyph glyph-name="Odieresis.sc" horiz-adv-x="1260" 
d="M485 611v-102c0 -135 50 -211 146 -211c94 0 144 76 144 211v102c0 135 -50 209 -144 209c-96 0 -146 -74 -146 -209zM60 511v94c0 318 196 530 570 530c375 0 570 -215 570 -530v-94c0 -313 -194 -528 -569 -528c-374 0 -571 215 -571 528zM407 1228
c-83 0 -143 57 -143 141s60 144 143 144c85 0 147 -60 147 -144s-62 -141 -147 -141zM846 1228c-83 0 -140 57 -140 141s57 144 140 144c85 0 150 -60 150 -144s-65 -141 -150 -141z" />
    <glyph glyph-name="Oslash.sc" horiz-adv-x="1260" 
d="M803 620l-273 -336c26 -20 60 -28 99 -28c121 0 174 87 174 241v123zM455 494l272 334c-27 19 -60 28 -98 28c-114 0 -174 -85 -174 -237v-125zM1157 1032l-67 -79c72 -89 110 -209 110 -348v-94c0 -313 -194 -528 -569 -528c-124 0 -228 22 -313 62l-81 -94l-148 116
l82 97c-74 90 -111 209 -111 347v94c0 318 196 530 570 530c125 0 230 -22 315 -63l60 71z" />
    <glyph glyph-name="Otilde.sc" horiz-adv-x="1260" 
d="M485 611v-102c0 -135 50 -211 146 -211c94 0 144 76 144 211v102c0 135 -50 209 -144 209c-96 0 -146 -74 -146 -209zM60 511v94c0 318 196 530 570 530c375 0 570 -215 570 -530v-94c0 -313 -194 -528 -569 -528c-374 0 -571 215 -571 528zM767 1206
c-145 0 -187 111 -256 111c-49 0 -63 -55 -63 -83h-202c0 143 88 267 238 267c143 0 188 -111 269 -111c42 0 69 29 69 95h202c0 -163 -109 -279 -257 -279z" />
    <glyph glyph-name="Oacute.sc" horiz-adv-x="1260" 
d="M485 611v-102c0 -135 50 -211 146 -211c94 0 144 76 144 211v102c0 135 -50 209 -144 209c-96 0 -146 -74 -146 -209zM60 511v94c0 318 196 530 570 530c375 0 570 -215 570 -530v-94c0 -313 -194 -528 -569 -528c-374 0 -571 215 -571 528zM749 1231h-268l233 318h321z
" />
    <glyph glyph-name="Ocircumflex.sc" horiz-adv-x="1260" 
d="M485 611v-102c0 -135 50 -211 146 -211c94 0 144 76 144 211v102c0 135 -50 209 -144 209c-96 0 -146 -74 -146 -209zM60 511v94c0 318 196 530 570 530c375 0 570 -215 570 -530v-94c0 -313 -194 -528 -569 -528c-374 0 -571 215 -571 528zM227 1231l257 323h292
l257 -323h-290l-108 159h-10l-108 -159h-290z" />
    <glyph glyph-name="Ograve.sc" horiz-adv-x="1260" 
d="M485 611v-102c0 -135 50 -211 146 -211c94 0 144 76 144 211v102c0 135 -50 209 -144 209c-96 0 -146 -74 -146 -209zM60 511v94c0 318 196 530 570 530c375 0 570 -215 570 -530v-94c0 -313 -194 -528 -569 -528c-374 0 -571 215 -571 528zM779 1231h-268l-286 318h321z
" />
    <glyph glyph-name="Ocircumflexhookabove.sc" horiz-adv-x="1260" 
d="M485 611v-102c0 -135 50 -211 146 -211c94 0 144 76 144 211v102c0 135 -50 209 -144 209c-96 0 -146 -74 -146 -209zM60 511v94c0 318 196 530 570 530c375 0 570 -215 570 -530v-94c0 -313 -194 -528 -569 -528c-374 0 -571 215 -571 528zM787 1715v143
c24 10 63 18 114 18c149 0 235 -75 235 -188c0 -119 -75 -173 -170 -219l-92 106c51 29 77 52 77 87c0 37 -28 65 -88 65c-27 0 -55 -4 -76 -12zM227 1231l257 323h292l257 -323h-290l-108 159h-10l-108 -159h-290z" />
    <glyph glyph-name="Ocircumflexgrave.sc" horiz-adv-x="1260" 
d="M485 611v-102c0 -135 50 -211 146 -211c94 0 144 76 144 211v102c0 135 -50 209 -144 209c-96 0 -146 -74 -146 -209zM60 511v94c0 318 196 530 570 530c375 0 570 -215 570 -530v-94c0 -313 -194 -528 -569 -528c-374 0 -571 215 -571 528zM1277 1453h-268l-286 318h321
zM227 1231l257 323h292l257 -323h-290l-108 159h-10l-108 -159h-290z" />
    <glyph glyph-name="Odotbelow.sc" horiz-adv-x="1260" 
d="M485 611v-102c0 -135 50 -211 146 -211c94 0 144 76 144 211v102c0 135 -50 209 -144 209c-96 0 -146 -74 -146 -209zM60 511v94c0 318 196 530 570 530c375 0 570 -215 570 -530v-94c0 -313 -194 -528 -569 -528c-374 0 -571 215 -571 528zM480 -244
c0 83 68 150 150 150c83 0 150 -67 150 -150s-67 -150 -150 -150c-82 0 -150 67 -150 150z" />
    <glyph glyph-name="Odblgrave.sc" horiz-adv-x="1260" 
d="M485 611v-102c0 -135 50 -211 146 -211c94 0 144 76 144 211v102c0 135 -50 209 -144 209c-96 0 -146 -74 -146 -209zM60 511v94c0 318 196 530 570 530c375 0 570 -215 570 -530v-94c0 -313 -194 -528 -569 -528c-374 0 -571 215 -571 528zM319 1231l-274 318h276
l227 -318h-229zM742 1231l-275 318h277l227 -318h-229z" />
    <glyph glyph-name="Otildeacute.sc" horiz-adv-x="1260" 
d="M485 611v-102c0 -135 50 -211 146 -211c94 0 144 76 144 211v102c0 135 -50 209 -144 209c-96 0 -146 -74 -146 -209zM60 511v94c0 318 196 530 570 530c375 0 570 -215 570 -530v-94c0 -313 -194 -528 -569 -528c-374 0 -571 215 -571 528zM758 1206
c-145 0 -187 111 -256 111c-49 0 -63 -55 -63 -83h-202c0 143 88 267 238 267c143 0 188 -111 269 -111c42 0 69 29 69 95h202c0 -163 -109 -279 -257 -279zM763 1593h-268l233 318h321z" />
    <glyph glyph-name="Omacronacute.sc" horiz-adv-x="1260" 
d="M485 611v-102c0 -135 50 -211 146 -211c94 0 144 76 144 211v102c0 135 -50 209 -144 209c-96 0 -146 -74 -146 -209zM60 511v94c0 318 196 530 570 530c375 0 570 -215 570 -530v-94c0 -313 -194 -528 -569 -528c-374 0 -571 215 -571 528zM950 1246h-640v203h640v-203z
M763 1593h-268l233 318h321z" />
    <glyph glyph-name="Ocircumflextilde.sc" horiz-adv-x="1260" 
d="M485 611v-102c0 -135 50 -211 146 -211c94 0 144 76 144 211v102c0 135 -50 209 -144 209c-96 0 -146 -74 -146 -209zM60 511v94c0 318 196 530 570 530c375 0 570 -215 570 -530v-94c0 -313 -194 -528 -569 -528c-374 0 -571 215 -571 528zM470 1669h-188
c0 133 82 248 221 248c133 0 175 -103 251 -103c39 0 64 27 64 88h188c0 -151 -102 -259 -239 -259c-135 0 -174 103 -239 103c-45 0 -58 -51 -58 -77zM227 1231l257 323h292l257 -323h-290l-108 159h-10l-108 -159h-290z" />
    <glyph glyph-name="Odotaccentmacron.sc" horiz-adv-x="1260" 
d="M485 611v-102c0 -135 50 -211 146 -211c94 0 144 76 144 211v102c0 135 -50 209 -144 209c-96 0 -146 -74 -146 -209zM60 511v94c0 318 196 530 570 530c375 0 570 -215 570 -530v-94c0 -313 -194 -528 -569 -528c-374 0 -571 215 -571 528zM463 1370
c0 91 73 164 164 164s164 -73 164 -164s-73 -164 -164 -164s-164 73 -164 164zM950 1600h-640v203h640v-203z" />
    <glyph glyph-name="Omacrongrave.sc" horiz-adv-x="1260" 
d="M485 611v-102c0 -135 50 -211 146 -211c94 0 144 76 144 211v102c0 135 -50 209 -144 209c-96 0 -146 -74 -146 -209zM60 511v94c0 318 196 530 570 530c375 0 570 -215 570 -530v-94c0 -313 -194 -528 -569 -528c-374 0 -571 215 -571 528zM950 1246h-640v203h640v-203z
M779 1584h-268l-286 318h321z" />
    <glyph glyph-name="Ocaron.sc" horiz-adv-x="1260" 
d="M485 611v-102c0 -135 50 -211 146 -211c94 0 144 76 144 211v102c0 135 -50 209 -144 209c-96 0 -146 -74 -146 -209zM60 511v94c0 318 196 530 570 530c375 0 570 -215 570 -530v-94c0 -313 -194 -528 -569 -528c-374 0 -571 215 -571 528zM218 1554h290l108 -159h10
l108 159h290l-257 -323h-292z" />
    <glyph glyph-name="Oslashacute.sc" horiz-adv-x="1260" 
d="M1035 1549l-286 -318h-268l233 318h321zM803 620l-273 -336c26 -20 60 -28 99 -28c121 0 174 87 174 241v123zM455 494l272 334c-27 19 -60 28 -98 28c-114 0 -174 -85 -174 -237v-125zM1157 1032l-67 -79c72 -89 110 -209 110 -348v-94c0 -313 -194 -528 -569 -528
c-124 0 -228 22 -313 62l-81 -94l-148 116l82 97c-74 90 -111 209 -111 347v94c0 318 196 530 570 530c125 0 230 -22 315 -63l60 71z" />
    <glyph glyph-name="Ohungarumlaut.sc" horiz-adv-x="1260" 
d="M485 611v-102c0 -135 50 -211 146 -211c94 0 144 76 144 211v102c0 135 -50 209 -144 209c-96 0 -146 -74 -146 -209zM60 511v94c0 318 196 530 570 530c375 0 570 -215 570 -530v-94c0 -313 -194 -528 -569 -528c-374 0 -571 215 -571 528zM491 1231h-229l227 318h276z
M914 1231h-229l227 318h276z" />
    <glyph glyph-name="Obreve.sc" horiz-adv-x="1260" 
d="M485 611v-102c0 -135 50 -211 146 -211c94 0 144 76 144 211v102c0 135 -50 209 -144 209c-96 0 -146 -74 -146 -209zM60 511v94c0 318 196 530 570 530c375 0 570 -215 570 -530v-94c0 -313 -194 -528 -569 -528c-374 0 -571 215 -571 528zM283 1559h204
c0 -80 44 -156 143 -156s143 76 143 156h199c0 -199 -132 -344 -342 -344s-347 144 -347 344z" />
    <glyph glyph-name="Oinvertedbreve.sc" horiz-adv-x="1260" 
d="M485 611v-102c0 -135 50 -211 146 -211c94 0 144 76 144 211v102c0 135 -50 209 -144 209c-96 0 -146 -74 -146 -209zM60 511v94c0 318 196 530 570 530c375 0 570 -215 570 -530v-94c0 -313 -194 -528 -569 -528c-374 0 -571 215 -571 528zM269 1260
c0 210 143 360 361 360s356 -151 356 -360h-207c0 84 -46 164 -149 164s-149 -80 -149 -164h-212z" />
    <glyph glyph-name="Ohookabove.sc" horiz-adv-x="1260" 
d="M485 611v-102c0 -135 50 -211 146 -211c94 0 144 76 144 211v102c0 135 -50 209 -144 209c-96 0 -146 -74 -146 -209zM60 511v94c0 318 196 530 570 530c375 0 570 -215 570 -530v-94c0 -313 -194 -528 -569 -528c-374 0 -571 215 -571 528zM470 1437v143
c24 10 63 18 114 18c149 0 235 -75 235 -188c0 -119 -75 -173 -170 -219l-92 106c51 29 77 52 77 87c0 37 -28 65 -88 65c-27 0 -55 -4 -76 -12z" />
    <glyph glyph-name="Odieresismacron.sc" horiz-adv-x="1260" 
d="M485 611v-102c0 -135 50 -211 146 -211c94 0 144 76 144 211v102c0 135 -50 209 -144 209c-96 0 -146 -74 -146 -209zM60 511v94c0 318 196 530 570 530c375 0 570 -215 570 -530v-94c0 -313 -194 -528 -569 -528c-374 0 -571 215 -571 528zM407 1228
c-83 0 -143 57 -143 141s60 144 143 144c85 0 147 -60 147 -144s-62 -141 -147 -141zM846 1228c-83 0 -140 57 -140 141s57 144 140 144c85 0 150 -60 150 -144s-65 -141 -150 -141zM950 1600h-640v203h640v-203z" />
    <glyph glyph-name="Otildemacron.sc" horiz-adv-x="1260" 
d="M485 611v-102c0 -135 50 -211 146 -211c94 0 144 76 144 211v102c0 135 -50 209 -144 209c-96 0 -146 -74 -146 -209zM60 511v94c0 318 196 530 570 530c375 0 570 -215 570 -530v-94c0 -313 -194 -528 -569 -528c-374 0 -571 215 -571 528zM767 1206
c-145 0 -187 111 -256 111c-49 0 -63 -55 -63 -83h-202c0 143 88 267 238 267c143 0 188 -111 269 -111c42 0 69 29 69 95h202c0 -163 -109 -279 -257 -279zM950 1600h-640v203h640v-203z" />
    <glyph glyph-name="Odotaccent.sc" horiz-adv-x="1260" 
d="M485 611v-102c0 -135 50 -211 146 -211c94 0 144 76 144 211v102c0 135 -50 209 -144 209c-96 0 -146 -74 -146 -209zM60 511v94c0 318 196 530 570 530c375 0 570 -215 570 -530v-94c0 -313 -194 -528 -569 -528c-374 0 -571 215 -571 528zM466 1400
c0 91 73 164 164 164s164 -73 164 -164s-73 -164 -164 -164s-164 73 -164 164z" />
    <glyph glyph-name="Ocircumflexdotbelow.sc" horiz-adv-x="1260" 
d="M485 611v-102c0 -135 50 -211 146 -211c94 0 144 76 144 211v102c0 135 -50 209 -144 209c-96 0 -146 -74 -146 -209zM60 511v94c0 318 196 530 570 530c375 0 570 -215 570 -530v-94c0 -313 -194 -528 -569 -528c-374 0 -571 215 -571 528zM231 1231l257 323h292
l257 -323h-290l-108 159h-10l-108 -159h-290zM477 -244c0 83 68 150 150 150c83 0 150 -67 150 -150s-67 -150 -150 -150c-82 0 -150 67 -150 150z" />
    <glyph glyph-name="Ocircumflexacute.sc" horiz-adv-x="1260" 
d="M485 611v-102c0 -135 50 -211 146 -211c94 0 144 76 144 211v102c0 135 -50 209 -144 209c-96 0 -146 -74 -146 -209zM60 511v94c0 318 196 530 570 530c375 0 570 -215 570 -530v-94c0 -313 -194 -528 -569 -528c-374 0 -571 215 -571 528zM1163 1454h-268l233 318h321z
M227 1231l257 323h292l257 -323h-290l-108 159h-10l-108 -159h-290z" />
    <glyph glyph-name="Otildedieresis.sc" horiz-adv-x="1260" 
d="M485 611v-102c0 -135 50 -211 146 -211c94 0 144 76 144 211v102c0 135 -50 209 -144 209c-96 0 -146 -74 -146 -209zM60 511v94c0 318 196 530 570 530c375 0 570 -215 570 -530v-94c0 -313 -194 -528 -569 -528c-374 0 -571 215 -571 528zM767 1206
c-145 0 -187 111 -256 111c-49 0 -63 -55 -63 -83h-202c0 143 88 267 238 267c143 0 188 -111 269 -111c42 0 69 29 69 95h202c0 -163 -109 -279 -257 -279zM407 1581c-83 0 -143 57 -143 141s60 144 143 144c85 0 147 -60 147 -144s-62 -141 -147 -141zM846 1581
c-83 0 -140 57 -140 141s57 144 140 144c85 0 150 -60 150 -144s-65 -141 -150 -141z" />
    <glyph glyph-name="Omacron.sc" horiz-adv-x="1260" 
d="M485 611v-102c0 -135 50 -211 146 -211c94 0 144 76 144 211v102c0 135 -50 209 -144 209c-96 0 -146 -74 -146 -209zM60 511v94c0 318 196 530 570 530c375 0 570 -215 570 -530v-94c0 -313 -194 -528 -569 -528c-374 0 -571 215 -571 528zM945 1246h-640v203h640v-203z
" />
    <glyph glyph-name="Oogonek.sc" horiz-adv-x="1260" 
d="M687 -15c-18 -1 -37 -2 -56 -2c-374 0 -571 215 -571 528v94c0 318 196 530 570 530c375 0 570 -215 570 -530v-94c0 -211 -78 -312 -155 -384c-78 -72 -156 -115 -156 -211c0 -67 56 -98 120 -98c25 0 51 5 76 12v-196c-37 -14 -102 -29 -177 -29
c-194 0 -271 111 -271 223c0 62 17 107 50 157zM485 611v-102c0 -135 50 -211 146 -211c94 0 144 76 144 211v102c0 135 -50 209 -144 209c-96 0 -146 -74 -146 -209z" />
    <glyph glyph-name="Oogonekmacron.sc" horiz-adv-x="1260" 
d="M687 -15c-18 -1 -37 -2 -56 -2c-374 0 -571 215 -571 528v94c0 318 196 530 570 530c375 0 570 -215 570 -530v-94c0 -211 -78 -312 -155 -384c-78 -72 -156 -115 -156 -211c0 -67 56 -98 120 -98c25 0 51 5 76 12v-196c-37 -14 -102 -29 -177 -29
c-194 0 -271 111 -271 223c0 62 17 107 50 157zM485 611v-102c0 -135 50 -211 146 -211c94 0 144 76 144 211v102c0 135 -50 209 -144 209c-96 0 -146 -74 -146 -209zM950 1246h-640v203h640v-203z" />
    <glyph glyph-name="Ohorn.sc" horiz-adv-x="1323" 
d="M777 506v105c0 135 -52 209 -146 209c-96 0 -146 -74 -146 -209v-105c0 -135 50 -211 146 -211c94 0 146 76 146 211zM1103 1335h293v-215c0 -131 -95 -253 -250 -253c41 -82 54 -165 54 -262v-94c0 -313 -194 -528 -569 -528c-374 0 -571 215 -571 528v94
c0 318 196 530 570 530c137 0 247 -29 363 -29c105 0 110 41 110 82v147z" />
    <glyph glyph-name="Ohorndotbelow.sc" horiz-adv-x="1323" 
d="M630 -94c83 0 150 -67 150 -150s-67 -150 -150 -150c-82 0 -150 67 -150 150s68 150 150 150zM777 506v105c0 135 -52 209 -146 209c-96 0 -146 -74 -146 -209v-105c0 -135 50 -211 146 -211c94 0 146 76 146 211zM1103 1335h293v-215c0 -131 -95 -253 -250 -253
c41 -82 54 -165 54 -262v-94c0 -313 -194 -528 -569 -528c-374 0 -571 215 -571 528v94c0 318 196 530 570 530c137 0 247 -29 363 -29c105 0 110 41 110 82v147z" />
    <glyph glyph-name="Ohornhookabove.sc" horiz-adv-x="1323" 
d="M649 1191l-92 106c51 29 77 52 77 87c0 37 -28 65 -88 65c-27 0 -55 -4 -76 -12v143c24 10 63 18 114 18c149 0 235 -75 235 -188c0 -119 -75 -173 -170 -219zM777 506v105c0 135 -52 209 -146 209c-96 0 -146 -74 -146 -209v-105c0 -135 50 -211 146 -211
c94 0 146 76 146 211zM1103 1335h293v-215c0 -131 -95 -253 -250 -253c41 -82 54 -165 54 -262v-94c0 -313 -194 -528 -569 -528c-374 0 -571 215 -571 528v94c0 318 196 530 570 530c137 0 247 -29 363 -29c105 0 110 41 110 82v147z" />
    <glyph glyph-name="Ohorntilde.sc" horiz-adv-x="1323" 
d="M822 1485h202c0 -163 -109 -279 -257 -279c-145 0 -187 111 -256 111c-49 0 -63 -55 -63 -83h-202c0 143 88 267 238 267c143 0 188 -111 269 -111c42 0 69 29 69 95zM777 506v105c0 135 -52 209 -146 209c-96 0 -146 -74 -146 -209v-105c0 -135 50 -211 146 -211
c94 0 146 76 146 211zM1103 1335h293v-215c0 -131 -95 -253 -250 -253c41 -82 54 -165 54 -262v-94c0 -313 -194 -528 -569 -528c-374 0 -571 215 -571 528v94c0 318 196 530 570 530c137 0 247 -29 363 -29c105 0 110 41 110 82v147z" />
    <glyph glyph-name="Ohorngrave.sc" horiz-adv-x="1323" 
d="M779 1231h-268l-286 318h321zM777 506v105c0 135 -52 209 -146 209c-96 0 -146 -74 -146 -209v-105c0 -135 50 -211 146 -211c94 0 146 76 146 211zM1103 1335h293v-215c0 -131 -95 -253 -250 -253c41 -82 54 -165 54 -262v-94c0 -313 -194 -528 -569 -528
c-374 0 -571 215 -571 528v94c0 318 196 530 570 530c137 0 247 -29 363 -29c105 0 110 41 110 82v147z" />
    <glyph glyph-name="Ohornacute.sc" horiz-adv-x="1323" 
d="M1035 1549l-286 -318h-268l233 318h321zM777 506v105c0 135 -52 209 -146 209c-96 0 -146 -74 -146 -209v-105c0 -135 50 -211 146 -211c94 0 146 76 146 211zM1103 1335h293v-215c0 -131 -95 -253 -250 -253c41 -82 54 -165 54 -262v-94c0 -313 -194 -528 -569 -528
c-374 0 -571 215 -571 528v94c0 318 196 530 570 530c137 0 247 -29 363 -29c105 0 110 41 110 82v147z" />
    <glyph glyph-name="P.sc" horiz-adv-x="1153" 
d="M108 1119h558c313 0 443 -215 443 -430c0 -221 -135 -422 -449 -422h-139v-267h-413v1119zM519 827v-277h51c70 0 121 62 121 139c0 92 -60 138 -146 138h-26z" />
    <glyph glyph-name="Pdotaccent.sc" horiz-adv-x="1153" 
d="M108 1119h558c313 0 443 -215 443 -430c0 -221 -135 -422 -449 -422h-139v-267h-413v1119zM519 827v-277h51c70 0 121 62 121 139c0 92 -60 138 -146 138h-26zM413 1400c0 91 73 164 164 164s164 -73 164 -164s-73 -164 -164 -164s-164 73 -164 164z" />
    <glyph glyph-name="Pacute.sc" horiz-adv-x="1153" 
d="M108 1119h558c313 0 443 -215 443 -430c0 -221 -135 -422 -449 -422h-139v-267h-413v1119zM519 827v-277h51c70 0 121 62 121 139c0 92 -60 138 -146 138h-26zM696 1231h-268l233 318h321z" />
    <glyph glyph-name="Q.sc" horiz-adv-x="1267" 
d="M66 514v85c0 314 217 536 571 536c355 0 570 -225 570 -536v-85c0 -166 -61 -304 -173 -399l119 -191h-369l-36 63c-36 -2 -73 -4 -111 -4c-354 0 -571 221 -571 531zM469 605v-103c0 -129 40 -205 107 -233l-62 109h299l-9 54v70v103c0 140 -66 218 -167 218
c-102 0 -168 -78 -168 -218z" />
    <glyph glyph-name="R.sc" horiz-adv-x="1204" 
d="M670 1119c316 0 484 -153 484 -401c0 -185 -144 -292 -199 -318l224 -400h-453l-178 352h-35v-352h-405v1119h562zM513 612h95c55 0 118 32 118 111c0 77 -65 113 -120 113h-93v-224z" />
    <glyph glyph-name="Rcaron.sc" horiz-adv-x="1204" 
d="M670 1119c316 0 484 -153 484 -401c0 -185 -144 -292 -199 -318l224 -400h-453l-178 352h-35v-352h-405v1119h562zM513 612h95c55 0 118 32 118 111c0 77 -65 113 -120 113h-93v-224zM199 1554h290l108 -159h10l108 159h290l-257 -323h-292z" />
    <glyph glyph-name="Rlinebelow.sc" horiz-adv-x="1204" 
d="M670 1119c316 0 484 -153 484 -401c0 -185 -144 -292 -199 -318l224 -400h-453l-178 352h-35v-352h-405v1119h562zM513 612h95c55 0 118 32 118 111c0 77 -65 113 -120 113h-93v-224zM922 -389h-640v203h640v-203z" />
    <glyph glyph-name="Rdotbelowmacron.sc" horiz-adv-x="1204" 
d="M670 1119c316 0 484 -153 484 -401c0 -185 -144 -292 -199 -318l224 -400h-453l-178 352h-35v-352h-405v1119h562zM513 612h95c55 0 118 32 118 111c0 77 -65 113 -120 113h-93v-224zM452 -244c0 83 68 150 150 150c83 0 150 -67 150 -150s-67 -150 -150 -150
c-82 0 -150 67 -150 150zM922 1246h-640v203h640v-203z" />
    <glyph glyph-name="Rdblgrave.sc" horiz-adv-x="1204" 
d="M670 1119c316 0 484 -153 484 -401c0 -185 -144 -292 -199 -318l224 -400h-453l-178 352h-35v-352h-405v1119h562zM513 612h95c55 0 118 32 118 111c0 77 -65 113 -120 113h-93v-224zM291 1231l-274 318h276l227 -318h-229zM714 1231l-275 318h277l227 -318h-229z" />
    <glyph glyph-name="Rinvertedbreve.sc" horiz-adv-x="1204" 
d="M670 1119c316 0 484 -153 484 -401c0 -185 -144 -292 -199 -318l224 -400h-453l-178 352h-35v-352h-405v1119h562zM513 612h95c55 0 118 32 118 111c0 77 -65 113 -120 113h-93v-224zM241 1260c0 210 143 360 361 360s356 -151 356 -360h-207c0 84 -46 164 -149 164
s-149 -80 -149 -164h-212z" />
    <glyph glyph-name="Racute.sc" horiz-adv-x="1204" 
d="M670 1119c316 0 484 -153 484 -401c0 -185 -144 -292 -199 -318l224 -400h-453l-178 352h-35v-352h-405v1119h562zM513 612h95c55 0 118 32 118 111c0 77 -65 113 -120 113h-93v-224zM721 1231h-268l233 318h321z" />
    <glyph glyph-name="Rdotbelow.sc" horiz-adv-x="1204" 
d="M670 1119c316 0 484 -153 484 -401c0 -185 -144 -292 -199 -318l224 -400h-453l-178 352h-35v-352h-405v1119h562zM513 612h95c55 0 118 32 118 111c0 77 -65 113 -120 113h-93v-224zM452 -244c0 83 68 150 150 150c83 0 150 -67 150 -150s-67 -150 -150 -150
c-82 0 -150 67 -150 150z" />
    <glyph glyph-name="Rdotaccent.sc" horiz-adv-x="1204" 
d="M670 1119c316 0 484 -153 484 -401c0 -185 -144 -292 -199 -318l224 -400h-453l-178 352h-35v-352h-405v1119h562zM513 612h95c55 0 118 32 118 111c0 77 -65 113 -120 113h-93v-224zM438 1400c0 91 73 164 164 164s164 -73 164 -164s-73 -164 -164 -164
s-164 73 -164 164z" />
    <glyph glyph-name="Rcommaaccent.sc" horiz-adv-x="1204" 
d="M670 1119c316 0 484 -153 484 -401c0 -185 -144 -292 -199 -318l224 -400h-453l-178 352h-35v-352h-405v1119h562zM513 612h95c55 0 118 32 118 111c0 77 -65 113 -120 113h-93v-224zM630 -489h-248l85 335h277z" />
    <glyph glyph-name="S.sc" horiz-adv-x="1168" 
d="M69 355h387c-1 -36 45 -83 137 -83c94 0 112 32 112 55c0 47 -57 57 -154 71l-122 16c-206 32 -346 127 -346 344c0 238 193 376 504 376c364 0 496 -202 495 -364h-372c1 29 -35 80 -121 80c-76 0 -96 -32 -96 -59c0 -39 58 -53 148 -63l134 -14
c155 -16 334 -96 334 -342c0 -217 -154 -389 -521 -389c-401 0 -519 192 -519 372z" />
    <glyph glyph-name="Scaron.sc" horiz-adv-x="1168" 
d="M69 355h387c-1 -36 45 -83 137 -83c94 0 112 32 112 55c0 47 -57 57 -154 71l-122 16c-206 32 -346 127 -346 344c0 238 193 376 504 376c364 0 496 -202 495 -364h-372c1 29 -35 80 -121 80c-76 0 -96 -32 -96 -59c0 -39 58 -53 148 -63l134 -14
c155 -16 334 -96 334 -342c0 -217 -154 -389 -521 -389c-401 0 -519 192 -519 372zM181 1554h290l108 -159h10l108 159h290l-257 -323h-292z" />
    <glyph glyph-name="Scedilla.sc" horiz-adv-x="1168" 
d="M572 -477c-76 0 -121 9 -141 16v149c27 -8 66 -13 105 -13c49 0 99 4 99 39c0 28 -8 49 -106 49h-58v134l35 89c-335 25 -437 202 -437 369h387c-1 -36 45 -83 137 -83c94 0 112 32 112 55c0 47 -57 57 -154 71l-122 16c-206 32 -346 127 -346 344c0 238 193 376 504 376
c364 0 496 -202 495 -364h-372c1 29 -35 80 -121 80c-76 0 -96 -32 -96 -59c0 -39 58 -53 148 -63l134 -14c155 -16 334 -96 334 -342c0 -190 -118 -345 -393 -381l-36 -85c106 0 169 -74 169 -177c0 -145 -105 -206 -277 -206z" />
    <glyph glyph-name="Sdotaccent.sc" horiz-adv-x="1168" 
d="M69 355h387c-1 -36 45 -83 137 -83c94 0 112 32 112 55c0 47 -57 57 -154 71l-122 16c-206 32 -346 127 -346 344c0 238 193 376 504 376c364 0 496 -202 495 -364h-372c1 29 -35 80 -121 80c-76 0 -96 -32 -96 -59c0 -39 58 -53 148 -63l134 -14
c155 -16 334 -96 334 -342c0 -217 -154 -389 -521 -389c-401 0 -519 192 -519 372zM420 1400c0 91 73 164 164 164s164 -73 164 -164s-73 -164 -164 -164s-164 73 -164 164z" />
    <glyph glyph-name="Sdotbelow.sc" horiz-adv-x="1168" 
d="M69 355h387c-1 -36 45 -83 137 -83c94 0 112 32 112 55c0 47 -57 57 -154 71l-122 16c-206 32 -346 127 -346 344c0 238 193 376 504 376c364 0 496 -202 495 -364h-372c1 29 -35 80 -121 80c-76 0 -96 -32 -96 -59c0 -39 58 -53 148 -63l134 -14
c155 -16 334 -96 334 -342c0 -217 -154 -389 -521 -389c-401 0 -519 192 -519 372zM434 -244c0 83 68 150 150 150c83 0 150 -67 150 -150s-67 -150 -150 -150c-82 0 -150 67 -150 150z" />
    <glyph glyph-name="Scommaaccent.sc" horiz-adv-x="1168" 
d="M69 355h387c-1 -36 45 -83 137 -83c94 0 112 32 112 55c0 47 -57 57 -154 71l-122 16c-206 32 -346 127 -346 344c0 238 193 376 504 376c364 0 496 -202 495 -364h-372c1 29 -35 80 -121 80c-76 0 -96 -32 -96 -59c0 -39 58 -53 148 -63l134 -14
c155 -16 334 -96 334 -342c0 -217 -154 -389 -521 -389c-401 0 -519 192 -519 372zM612 -489h-248l85 335h277z" />
    <glyph glyph-name="Sdotbelowdotaccent.sc" horiz-adv-x="1168" 
d="M69 355h387c-1 -36 45 -83 137 -83c94 0 112 32 112 55c0 47 -57 57 -154 71l-122 16c-206 32 -346 127 -346 344c0 238 193 376 504 376c364 0 496 -202 495 -364h-372c1 29 -35 80 -121 80c-76 0 -96 -32 -96 -59c0 -39 58 -53 148 -63l134 -14
c155 -16 334 -96 334 -342c0 -217 -154 -389 -521 -389c-401 0 -519 192 -519 372zM434 -244c0 83 68 150 150 150c83 0 150 -67 150 -150s-67 -150 -150 -150c-82 0 -150 67 -150 150zM420 1400c0 91 73 164 164 164s164 -73 164 -164s-73 -164 -164 -164s-164 73 -164 164
z" />
    <glyph glyph-name="Scarondotaccent.sc" horiz-adv-x="1168" 
d="M69 355h387c-1 -36 45 -83 137 -83c94 0 112 32 112 55c0 47 -57 57 -154 71l-122 16c-206 32 -346 127 -346 344c0 238 193 376 504 376c364 0 496 -202 495 -364h-372c1 29 -35 80 -121 80c-76 0 -96 -32 -96 -59c0 -39 58 -53 148 -63l134 -14
c155 -16 334 -96 334 -342c0 -217 -154 -389 -521 -389c-401 0 -519 192 -519 372zM181 1554h290l108 -159h10l108 159h290l-257 -323h-292zM420 1764c0 91 73 164 164 164s164 -73 164 -164s-73 -164 -164 -164s-164 73 -164 164z" />
    <glyph glyph-name="Scircumflex.sc" horiz-adv-x="1168" 
d="M69 355h387c-1 -36 45 -83 137 -83c94 0 112 32 112 55c0 47 -57 57 -154 71l-122 16c-206 32 -346 127 -346 344c0 238 193 376 504 376c364 0 496 -202 495 -364h-372c1 29 -35 80 -121 80c-76 0 -96 -32 -96 -59c0 -39 58 -53 148 -63l134 -14
c155 -16 334 -96 334 -342c0 -217 -154 -389 -521 -389c-401 0 -519 192 -519 372zM181 1231l257 323h292l257 -323h-290l-108 159h-10l-108 -159h-290z" />
    <glyph glyph-name="Sacutedotaccent.sc" horiz-adv-x="1168" 
d="M69 355h387c-1 -36 45 -83 137 -83c94 0 112 32 112 55c0 47 -57 57 -154 71l-122 16c-206 32 -346 127 -346 344c0 238 193 376 504 376c364 0 496 -202 495 -364h-372c1 29 -35 80 -121 80c-76 0 -96 -32 -96 -59c0 -39 58 -53 148 -63l134 -14
c155 -16 334 -96 334 -342c0 -217 -154 -389 -521 -389c-401 0 -519 192 -519 372zM844 1231h-268l233 318h321zM189 1400c0 91 73 164 164 164s164 -73 164 -164s-73 -164 -164 -164s-164 73 -164 164z" />
    <glyph glyph-name="Sacute.sc" horiz-adv-x="1168" 
d="M69 355h387c-1 -36 45 -83 137 -83c94 0 112 32 112 55c0 47 -57 57 -154 71l-122 16c-206 32 -346 127 -346 344c0 238 193 376 504 376c364 0 496 -202 495 -364h-372c1 29 -35 80 -121 80c-76 0 -96 -32 -96 -59c0 -39 58 -53 148 -63l134 -14
c155 -16 334 -96 334 -342c0 -217 -154 -389 -521 -389c-401 0 -519 192 -519 372zM703 1231h-268l233 318h321z" />
    <glyph glyph-name="T.sc" horiz-adv-x="1021" 
d="M718 0h-415v800h-278v319h971v-319h-278v-800z" />
    <glyph glyph-name="Tcircumflexbelow.sc" horiz-adv-x="1021" 
d="M718 0h-415v800h-278v319h971v-319h-278v-800zM117 -373l257 253h284l257 -253h-284l-107 109h-16l-107 -109h-284z" />
    <glyph glyph-name="Tdotbelow.sc" horiz-adv-x="1021" 
d="M718 0h-415v800h-278v319h971v-319h-278v-800zM358 -244c0 83 68 150 150 150c83 0 150 -67 150 -150s-67 -150 -150 -150c-82 0 -150 67 -150 150z" />
    <glyph glyph-name="Tcommaaccent.sc" horiz-adv-x="1021" 
d="M718 0h-415v800h-278v319h971v-319h-278v-800zM539 -489h-248l85 335h277z" />
    <glyph glyph-name="Tdotaccent.sc" horiz-adv-x="1021" 
d="M718 0h-415v800h-278v319h971v-319h-278v-800zM347 1400c0 91 73 164 164 164s164 -73 164 -164s-73 -164 -164 -164s-164 73 -164 164z" />
    <glyph glyph-name="Tcedilla.sc" horiz-adv-x="1021" 
d="M474 -477c-76 0 -121 9 -141 16v149c27 -8 66 -13 105 -13c49 0 99 4 99 39c0 28 -8 49 -106 49h-58v134l40 103h-110v800h-278v319h971v-319h-278v-800h-96l-40 -94c106 0 169 -74 169 -177c0 -145 -105 -206 -277 -206z" />
    <glyph glyph-name="Tlinebelow.sc" horiz-adv-x="1021" 
d="M718 0h-415v800h-278v319h971v-319h-278v-800zM823 -389h-640v203h640v-203z" />
    <glyph glyph-name="Tcaron.sc" horiz-adv-x="1021" 
d="M718 0h-415v800h-278v319h971v-319h-278v-800zM99 1554h290l108 -159h10l108 159h290l-257 -323h-292z" />
    <glyph glyph-name="Tbar.sc" horiz-adv-x="1021" 
d="M876 403h-158v-403h-415v403h-158v195h158v202h-278v319h971v-319h-278v-202h158v-195z" />
    <glyph glyph-name="U.sc" horiz-adv-x="1256" 
d="M510 1119v-671c0 -109 53 -138 118 -138c64 0 118 32 118 138v671h415v-733c0 -246 -200 -403 -533 -403s-533 156 -533 402v734h415z" />
    <glyph glyph-name="Ugrave.sc" horiz-adv-x="1256" 
d="M510 1119v-671c0 -109 53 -138 118 -138c64 0 118 32 118 138v671h415v-733c0 -246 -200 -403 -533 -403s-533 156 -533 402v734h415zM778 1231h-268l-286 318h321z" />
    <glyph glyph-name="Udblgrave.sc" horiz-adv-x="1256" 
d="M510 1119v-671c0 -109 53 -138 118 -138c64 0 118 32 118 138v671h415v-733c0 -246 -200 -403 -533 -403s-533 156 -533 402v734h415zM318 1231l-274 318h276l227 -318h-229zM741 1231l-275 318h277l227 -318h-229z" />
    <glyph glyph-name="Uacute.sc" horiz-adv-x="1256" 
d="M510 1119v-671c0 -109 53 -138 118 -138c64 0 118 32 118 138v671h415v-733c0 -246 -200 -403 -533 -403s-533 156 -533 402v734h415zM748 1231h-268l233 318h321z" />
    <glyph glyph-name="Uhungarumlaut.sc" horiz-adv-x="1256" 
d="M510 1119v-671c0 -109 53 -138 118 -138c64 0 118 32 118 138v671h415v-733c0 -246 -200 -403 -533 -403s-533 156 -533 402v734h415zM490 1231h-229l227 318h276zM913 1231h-229l227 318h276z" />
    <glyph glyph-name="Ucircumflex.sc" horiz-adv-x="1256" 
d="M510 1119v-671c0 -109 53 -138 118 -138c64 0 118 32 118 138v671h415v-733c0 -246 -200 -403 -533 -403s-533 156 -533 402v734h415zM226 1231l257 323h292l257 -323h-290l-108 159h-10l-108 -159h-290z" />
    <glyph glyph-name="Ucaron.sc" horiz-adv-x="1256" 
d="M510 1119v-671c0 -109 53 -138 118 -138c64 0 118 32 118 138v671h415v-733c0 -246 -200 -403 -533 -403s-533 156 -533 402v734h415zM226 1554h290l108 -159h10l108 159h290l-257 -323h-292z" />
    <glyph glyph-name="Ucircumflexbelow.sc" horiz-adv-x="1256" 
d="M510 1119v-671c0 -109 53 -138 118 -138c64 0 118 32 118 138v671h415v-733c0 -246 -200 -403 -533 -403s-533 156 -533 402v734h415zM230 -373l257 253h284l257 -253h-284l-107 109h-16l-107 -109h-284z" />
    <glyph glyph-name="Udieresis.sc" horiz-adv-x="1256" 
d="M510 1119v-671c0 -109 53 -138 118 -138c64 0 118 32 118 138v671h415v-733c0 -246 -200 -403 -533 -403s-533 156 -533 402v734h415zM406 1228c-83 0 -143 57 -143 141s60 144 143 144c85 0 147 -60 147 -144s-62 -141 -147 -141zM845 1228c-83 0 -140 57 -140 141
s57 144 140 144c85 0 150 -60 150 -144s-65 -141 -150 -141z" />
    <glyph glyph-name="Udieresisgrave.sc" horiz-adv-x="1256" 
d="M510 1119v-671c0 -109 53 -138 118 -138c64 0 118 32 118 138v671h415v-733c0 -246 -200 -403 -533 -403s-533 156 -533 402v734h415zM406 1228c-83 0 -143 57 -143 141s60 144 143 144c85 0 147 -60 147 -144s-62 -141 -147 -141zM845 1228c-83 0 -140 57 -140 141
s57 144 140 144c85 0 150 -60 150 -144s-65 -141 -150 -141zM778 1593h-268l-286 318h321z" />
    <glyph glyph-name="Udieresisacute.sc" horiz-adv-x="1256" 
d="M510 1119v-671c0 -109 53 -138 118 -138c64 0 118 32 118 138v671h415v-733c0 -246 -200 -403 -533 -403s-533 156 -533 402v734h415zM406 1228c-83 0 -143 57 -143 141s60 144 143 144c85 0 147 -60 147 -144s-62 -141 -147 -141zM845 1228c-83 0 -140 57 -140 141
s57 144 140 144c85 0 150 -60 150 -144s-65 -141 -150 -141zM762 1593h-268l233 318h321z" />
    <glyph glyph-name="Udieresismacron.sc" horiz-adv-x="1256" 
d="M510 1119v-671c0 -109 53 -138 118 -138c64 0 118 32 118 138v671h415v-733c0 -246 -200 -403 -533 -403s-533 156 -533 402v734h415zM406 1228c-83 0 -143 57 -143 141s60 144 143 144c85 0 147 -60 147 -144s-62 -141 -147 -141zM845 1228c-83 0 -140 57 -140 141
s57 144 140 144c85 0 150 -60 150 -144s-65 -141 -150 -141zM949 1600h-640v203h640v-203z" />
    <glyph glyph-name="Udieresiscaron.sc" horiz-adv-x="1256" 
d="M510 1119v-671c0 -109 53 -138 118 -138c64 0 118 32 118 138v671h415v-733c0 -246 -200 -403 -533 -403s-533 156 -533 402v734h415zM406 1228c-83 0 -143 57 -143 141s60 144 143 144c85 0 147 -60 147 -144s-62 -141 -147 -141zM845 1228c-83 0 -140 57 -140 141
s57 144 140 144c85 0 150 -60 150 -144s-65 -141 -150 -141zM226 1916h290l108 -159h10l108 159h290l-257 -323h-292z" />
    <glyph glyph-name="Udieresisbelow.sc" horiz-adv-x="1256" 
d="M510 1119v-671c0 -109 53 -138 118 -138c64 0 118 32 118 138v671h415v-733c0 -246 -200 -403 -533 -403s-533 156 -533 402v734h415zM406 -379c-83 0 -143 57 -143 141s60 144 143 144c85 0 147 -60 147 -144s-62 -141 -147 -141zM845 -379c-83 0 -140 57 -140 141
s57 144 140 144c85 0 150 -60 150 -144s-65 -141 -150 -141z" />
    <glyph glyph-name="Utildebelow.sc" horiz-adv-x="1257" 
d="M510 1119v-671c0 -109 53 -138 118 -138c64 0 118 32 118 138v671h415v-733c0 -246 -200 -403 -533 -403s-533 156 -533 402v734h415zM773 -392c-145 0 -187 111 -256 111c-49 0 -63 -55 -63 -83h-202c0 143 88 267 238 267c143 0 188 -111 269 -111c42 0 69 29 69 95
h202c0 -163 -109 -279 -257 -279z" />
    <glyph glyph-name="Uhookabove.sc" horiz-adv-x="1257" 
d="M510 1119v-671c0 -109 53 -138 118 -138c64 0 118 32 118 138v671h415v-733c0 -246 -200 -403 -533 -403s-533 156 -533 402v734h415zM469 1437v143c24 10 63 18 114 18c149 0 235 -75 235 -188c0 -119 -75 -173 -170 -219l-92 106c51 29 77 52 77 87c0 37 -28 65 -88 65
c-27 0 -55 -4 -76 -12z" />
    <glyph glyph-name="Ubreve.sc" horiz-adv-x="1256" 
d="M510 1119v-671c0 -109 53 -138 118 -138c64 0 118 32 118 138v671h415v-733c0 -246 -200 -403 -533 -403s-533 156 -533 402v734h415zM282 1559h204c0 -80 44 -156 143 -156s143 76 143 156h199c0 -199 -132 -344 -342 -344s-347 144 -347 344z" />
    <glyph glyph-name="Uinvertedbreve.sc" horiz-adv-x="1256" 
d="M510 1119v-671c0 -109 53 -138 118 -138c64 0 118 32 118 138v671h415v-733c0 -246 -200 -403 -533 -403s-533 156 -533 402v734h415zM268 1260c0 210 143 360 361 360s356 -151 356 -360h-207c0 84 -46 164 -149 164s-149 -80 -149 -164h-212z" />
    <glyph glyph-name="Utildeacute.sc" horiz-adv-x="1256" 
d="M510 1119v-671c0 -109 53 -138 118 -138c64 0 118 32 118 138v671h415v-733c0 -246 -200 -403 -533 -403s-533 156 -533 402v734h415zM757 1206c-145 0 -187 111 -256 111c-49 0 -63 -55 -63 -83h-202c0 143 88 267 238 267c143 0 188 -111 269 -111c42 0 69 29 69 95
h202c0 -163 -109 -279 -257 -279zM762 1593h-268l233 318h321z" />
    <glyph glyph-name="Udotbelow.sc" horiz-adv-x="1257" 
d="M510 1119v-671c0 -109 53 -138 118 -138c64 0 118 32 118 138v671h415v-733c0 -246 -200 -403 -533 -403s-533 156 -533 402v734h415zM476 -244c0 83 68 150 150 150c83 0 150 -67 150 -150s-67 -150 -150 -150c-82 0 -150 67 -150 150z" />
    <glyph glyph-name="Utilde.sc" horiz-adv-x="1257" 
d="M510 1119v-671c0 -109 53 -138 118 -138c64 0 118 32 118 138v671h415v-733c0 -246 -200 -403 -533 -403s-533 156 -533 402v734h415zM766 1206c-145 0 -187 111 -256 111c-49 0 -63 -55 -63 -83h-202c0 143 88 267 238 267c143 0 188 -111 269 -111c42 0 69 29 69 95
h202c0 -163 -109 -279 -257 -279z" />
    <glyph glyph-name="Umacron.sc" horiz-adv-x="1257" 
d="M510 1119v-671c0 -109 53 -138 118 -138c64 0 118 32 118 138v671h415v-733c0 -246 -200 -403 -533 -403s-533 156 -533 402v734h415zM944 1246h-640v203h640v-203z" />
    <glyph glyph-name="Umacrondieresis.sc" horiz-adv-x="1256" 
d="M510 1119v-671c0 -109 53 -138 118 -138c64 0 118 32 118 138v671h415v-733c0 -246 -200 -403 -533 -403s-533 156 -533 402v734h415zM949 1246h-640v203h640v-203zM406 1581c-83 0 -143 57 -143 141s60 144 143 144c85 0 147 -60 147 -144s-62 -141 -147 -141zM845 1581
c-83 0 -140 57 -140 141s57 144 140 144c85 0 150 -60 150 -144s-65 -141 -150 -141z" />
    <glyph glyph-name="Uring.sc" horiz-adv-x="1256" 
d="M510 1119v-671c0 -109 53 -138 118 -138c64 0 118 32 118 138v671h415v-733c0 -246 -200 -403 -533 -403s-533 156 -533 402v734h415zM629 1224c-144 0 -252 97 -252 242c0 144 107 239 252 239s251 -95 251 -239c0 -145 -107 -242 -251 -242zM546 1464
c0 -48 34 -81 82 -81s83 33 83 81s-35 82 -83 82s-82 -34 -82 -82z" />
    <glyph glyph-name="Uogonek.sc" horiz-adv-x="1257" 
d="M913 -395c-194 0 -271 111 -271 223c0 62 17 107 50 157c-21 -1 -42 -2 -64 -2c-333 0 -533 156 -533 402v734h415v-671c0 -109 53 -138 118 -138c64 0 118 32 118 138v671h415v-733c0 -149 -60 -221 -124 -275c-70 -60 -143 -98 -143 -195c0 -67 56 -98 120 -98
c25 0 51 5 76 12v-196c-37 -14 -102 -29 -177 -29z" />
    <glyph glyph-name="Uhorn.sc" horiz-adv-x="1410" 
d="M628 -14c-333 0 -533 156 -533 403v730h415v-668c0 -109 53 -138 118 -138c64 0 118 33 118 138v668h416c38 0 56 10 56 51v145h293v-213c0 -137 -98 -253 -250 -253h-100v-459c0 -247 -200 -404 -533 -404z" />
    <glyph glyph-name="Uhorngrave.sc" horiz-adv-x="1410" 
d="M628 -14c-333 0 -533 156 -533 403v730h415v-668c0 -109 53 -138 118 -138c64 0 118 33 118 138v668h416c38 0 56 10 56 51v145h293v-213c0 -137 -98 -253 -250 -253h-100v-459c0 -247 -200 -404 -533 -404zM778 1231h-268l-286 318h321z" />
    <glyph glyph-name="Uhornacute.sc" horiz-adv-x="1410" 
d="M628 -14c-333 0 -533 156 -533 403v730h415v-668c0 -109 53 -138 118 -138c64 0 118 33 118 138v668h416c38 0 56 10 56 51v145h293v-213c0 -137 -98 -253 -250 -253h-100v-459c0 -247 -200 -404 -533 -404zM748 1231h-268l233 318h321z" />
    <glyph glyph-name="Uhorndotbelow.sc" horiz-adv-x="1410" 
d="M628 -14c-333 0 -533 156 -533 403v730h415v-668c0 -109 53 -138 118 -138c64 0 118 33 118 138v668h416c38 0 56 10 56 51v145h293v-213c0 -137 -98 -253 -250 -253h-100v-459c0 -247 -200 -404 -533 -404zM479 -244c0 83 68 150 150 150c83 0 150 -67 150 -150
s-67 -150 -150 -150c-82 0 -150 67 -150 150z" />
    <glyph glyph-name="Uhornhookabove.sc" horiz-adv-x="1410" 
d="M628 -14c-333 0 -533 156 -533 403v730h415v-668c0 -109 53 -138 118 -138c64 0 118 33 118 138v668h416c38 0 56 10 56 51v145h293v-213c0 -137 -98 -253 -250 -253h-100v-459c0 -247 -200 -404 -533 -404zM469 1437v143c24 10 63 18 114 18c149 0 235 -75 235 -188
c0 -119 -75 -173 -170 -219l-92 106c51 29 77 52 77 87c0 37 -28 65 -88 65c-27 0 -55 -4 -76 -12z" />
    <glyph glyph-name="Uhorntilde.sc" horiz-adv-x="1410" 
d="M628 -14c-333 0 -533 156 -533 403v730h415v-668c0 -109 53 -138 118 -138c64 0 118 33 118 138v668h416c38 0 56 10 56 51v145h293v-213c0 -137 -98 -253 -250 -253h-100v-459c0 -247 -200 -404 -533 -404zM766 1206c-145 0 -187 111 -256 111c-49 0 -63 -55 -63 -83
h-202c0 143 88 267 238 267c143 0 188 -111 269 -111c42 0 69 29 69 95h202c0 -163 -109 -279 -257 -279z" />
    <glyph glyph-name="V.sc" horiz-adv-x="1208" 
d="M887 0h-556l-319 1119h485l118 -713h18l111 713h452z" />
    <glyph glyph-name="Vtilde.sc" horiz-adv-x="1208" 
d="M887 0h-556l-319 1119h485l118 -713h18l111 713h452zM741 1206c-145 0 -187 111 -256 111c-49 0 -63 -55 -63 -83h-202c0 143 88 267 238 267c143 0 188 -111 269 -111c42 0 69 29 69 95h202c0 -163 -109 -279 -257 -279z" />
    <glyph glyph-name="Vdotbelow.sc" horiz-adv-x="1208" 
d="M887 0h-556l-319 1119h485l118 -713h18l111 713h452zM451 -244c0 83 68 150 150 150c83 0 150 -67 150 -150s-67 -150 -150 -150c-82 0 -150 67 -150 150z" />
    <glyph glyph-name="W.sc" horiz-adv-x="1669" 
d="M680 0h-392l-276 1118h422l80 -613h19l149 613h308l149 -613h20l76 613h422l-274 -1118h-392l-148 536h-14z" />
    <glyph glyph-name="Wgrave.sc" horiz-adv-x="1669" 
d="M680 0h-392l-276 1118h422l80 -613h19l149 613h308l149 -613h20l76 613h422l-274 -1118h-392l-148 536h-14zM984 1231h-268l-286 318h321z" />
    <glyph glyph-name="Wacute.sc" horiz-adv-x="1669" 
d="M680 0h-392l-276 1118h422l80 -613h19l149 613h308l149 -613h20l76 613h422l-274 -1118h-392l-148 536h-14zM954 1231h-268l233 318h321z" />
    <glyph glyph-name="Wdotaccent.sc" horiz-adv-x="1669" 
d="M680 0h-392l-276 1118h422l80 -613h19l149 613h308l149 -613h20l76 613h422l-274 -1118h-392l-148 536h-14zM671 1400c0 91 73 164 164 164s164 -73 164 -164s-73 -164 -164 -164s-164 73 -164 164z" />
    <glyph glyph-name="Wdotbelow.sc" horiz-adv-x="1669" 
d="M680 0h-392l-276 1118h422l80 -613h19l149 613h308l149 -613h20l76 613h422l-274 -1118h-392l-148 536h-14zM685 -244c0 83 68 150 150 150c83 0 150 -67 150 -150s-67 -150 -150 -150c-82 0 -150 67 -150 150z" />
    <glyph glyph-name="Wdieresis.sc" horiz-adv-x="1669" 
d="M680 0h-392l-276 1118h422l80 -613h19l149 613h308l149 -613h20l76 613h422l-274 -1118h-392l-148 536h-14zM612 1228c-83 0 -143 57 -143 141s60 144 143 144c85 0 147 -60 147 -144s-62 -141 -147 -141zM1051 1228c-83 0 -140 57 -140 141s57 144 140 144
c85 0 150 -60 150 -144s-65 -141 -150 -141z" />
    <glyph glyph-name="Wcircumflex.sc" horiz-adv-x="1669" 
d="M680 0h-392l-276 1118h422l80 -613h19l149 613h308l149 -613h20l76 613h422l-274 -1118h-392l-148 536h-14zM432 1231l257 323h292l257 -323h-290l-108 159h-10l-108 -159h-290z" />
    <glyph glyph-name="X.sc" horiz-adv-x="1234" 
d="M1218 1119l-333 -553l334 -566h-457l-148 289h-15l-146 -289h-434l313 563l-317 556h482l122 -308h16l124 308h459z" />
    <glyph glyph-name="Xdotaccent.sc" horiz-adv-x="1234" 
d="M1218 1119l-333 -553l334 -566h-457l-148 289h-15l-146 -289h-434l313 563l-317 556h482l122 -308h16l124 308h459zM444 1400c0 91 73 164 164 164s164 -73 164 -164s-73 -164 -164 -164s-164 73 -164 164z" />
    <glyph glyph-name="Xdieresis.sc" horiz-adv-x="1234" 
d="M1218 1119l-333 -553l334 -566h-457l-148 289h-15l-146 -289h-434l313 563l-317 556h482l122 -308h16l124 308h459zM394 1228c-83 0 -143 57 -143 141s60 144 143 144c85 0 147 -60 147 -144s-62 -141 -147 -141zM833 1228c-83 0 -140 57 -140 141s57 144 140 144
c85 0 150 -60 150 -144s-65 -141 -150 -141z" />
    <glyph glyph-name="Y.sc" horiz-adv-x="1144" 
d="M780 0h-415v294l-388 825h447l150 -424h14l151 424h429l-388 -811v-308z" />
    <glyph glyph-name="Ygrave.sc" horiz-adv-x="1144" 
d="M780 0h-415v294l-388 825h447l150 -424h14l151 424h429l-388 -811v-308zM721 1231h-268l-286 318h321z" />
    <glyph glyph-name="Yacute.sc" horiz-adv-x="1144" 
d="M780 0h-415v294l-388 825h447l150 -424h14l151 424h429l-388 -811v-308zM691 1231h-268l233 318h321z" />
    <glyph glyph-name="Ydotaccent.sc" horiz-adv-x="1144" 
d="M780 0h-415v294l-388 825h447l150 -424h14l151 424h429l-388 -811v-308zM408 1400c0 91 73 164 164 164s164 -73 164 -164s-73 -164 -164 -164s-164 73 -164 164z" />
    <glyph glyph-name="Ydotbelow.sc" horiz-adv-x="1144" 
d="M780 0h-415v294l-388 825h447l150 -424h14l151 424h429l-388 -811v-308zM422 -244c0 83 68 150 150 150c83 0 150 -67 150 -150s-67 -150 -150 -150c-82 0 -150 67 -150 150z" />
    <glyph glyph-name="Ydieresis.sc" horiz-adv-x="1144" 
d="M780 0h-415v294l-388 825h447l150 -424h14l151 424h429l-388 -811v-308zM349 1228c-83 0 -143 57 -143 141s60 144 143 144c85 0 147 -60 147 -144s-62 -141 -147 -141zM788 1228c-83 0 -140 57 -140 141s57 144 140 144c85 0 150 -60 150 -144s-65 -141 -150 -141z" />
    <glyph glyph-name="Ytilde.sc" horiz-adv-x="1144" 
d="M780 0h-415v294l-388 825h447l150 -424h14l151 424h429l-388 -811v-308zM709 1206c-145 0 -187 111 -256 111c-49 0 -63 -55 -63 -83h-202c0 143 88 267 238 267c143 0 188 -111 269 -111c42 0 69 29 69 95h202c0 -163 -109 -279 -257 -279z" />
    <glyph glyph-name="Ycircumflex.sc" horiz-adv-x="1144" 
d="M780 0h-415v294l-388 825h447l150 -424h14l151 424h429l-388 -811v-308zM169 1231l257 323h292l257 -323h-290l-108 159h-10l-108 -159h-290z" />
    <glyph glyph-name="Ymacron.sc" horiz-adv-x="1144" 
d="M780 0h-415v294l-388 825h447l150 -424h14l151 424h429l-388 -811v-308zM892 1246h-640v203h640v-203z" />
    <glyph glyph-name="Yhookabove.sc" horiz-adv-x="1144" 
d="M780 0h-415v294l-388 825h447l150 -424h14l151 424h429l-388 -811v-308zM412 1437v143c24 10 63 18 114 18c149 0 235 -75 235 -188c0 -119 -75 -173 -170 -219l-92 106c51 29 77 52 77 87c0 37 -28 65 -88 65c-27 0 -55 -4 -76 -12z" />
    <glyph glyph-name="Z.sc" horiz-adv-x="1101" 
d="M94 0v248l424 545v17h-424v309h917v-249l-425 -543v-19h446v-308h-938z" />
    <glyph glyph-name="Zacute.sc" horiz-adv-x="1101" 
d="M94 0v248l424 545v17h-424v309h917v-249l-425 -543v-19h446v-308h-938zM670 1231h-268l233 318h321z" />
    <glyph glyph-name="Zcaron.sc" horiz-adv-x="1101" 
d="M94 0v248l424 545v17h-424v309h917v-249l-425 -543v-19h446v-308h-938zM148 1554h290l108 -159h10l108 159h290l-257 -323h-292z" />
    <glyph glyph-name="Zcircumflex.sc" horiz-adv-x="1101" 
d="M94 0v248l424 545v17h-424v309h917v-249l-425 -543v-19h446v-308h-938zM148 1231l257 323h292l257 -323h-290l-108 159h-10l-108 -159h-290z" />
    <glyph glyph-name="Zlinebelow.sc" horiz-adv-x="1101" 
d="M94 0v248l424 545v17h-424v309h917v-249l-425 -543v-19h446v-308h-938zM871 -389h-640v203h640v-203z" />
    <glyph glyph-name="Zdotbelow.sc" horiz-adv-x="1101" 
d="M94 0v248l424 545v17h-424v309h917v-249l-425 -543v-19h446v-308h-938zM401 -244c0 83 68 150 150 150c83 0 150 -67 150 -150s-67 -150 -150 -150c-82 0 -150 67 -150 150z" />
    <glyph glyph-name="Zdotaccent.sc" horiz-adv-x="1101" 
d="M94 0v248l424 545v17h-424v309h917v-249l-425 -543v-19h446v-308h-938zM387 1400c0 91 73 164 164 164s164 -73 164 -164s-73 -164 -164 -164s-164 73 -164 164z" />
    <glyph glyph-name="AE.sc" horiz-adv-x="1730" 
d="M726 815l-109 -375h169v375h-60zM786 145h-279l-43 -145h-447l432 1119h1194v-304h-471v-124h439v-273h-439v-113h471v-305h-857v145z" />
    <glyph glyph-name="AEmacron.sc" horiz-adv-x="1730" 
d="M726 815l-109 -375h169v375h-60zM786 145h-279l-43 -145h-447l432 1119h1194v-304h-471v-124h439v-273h-439v-113h471v-305h-857v145zM1496 1246h-640v203h640v-203z" />
    <glyph glyph-name="AEacute.sc" horiz-adv-x="1730" 
d="M726 815l-109 -375h169v375h-60zM786 145h-279l-43 -145h-447l432 1119h1194v-304h-471v-124h439v-273h-439v-113h471v-305h-857v145zM1295 1231h-268l233 318h321z" />
    <glyph glyph-name="OE.sc" horiz-adv-x="1729" 
d="M507 611v-105c0 -135 52 -211 147 -211s145 79 145 214v97c0 135 -50 214 -145 214s-147 -74 -147 -209zM540 -17c-306 0 -480 228 -480 532v88c0 356 207 532 479 532c150 0 251 -52 303 -137h21v121h779v-305h-455v-123h423v-273h-423v-113h455v-305h-779v119h-21
c-46 -74 -137 -136 -302 -136z" />
    <glyph glyph-name="Eth.sc" horiz-adv-x="1337" 
d="M742 0h-540v386h-147v345h147v388h540c377 0 539 -216 539 -551c0 -344 -172 -568 -539 -568zM616 317h42c80 0 195 -12 195 250c0 111 -12 259 -195 259h-42v-95h92v-345h-92v-69z" />
    <glyph glyph-name="Thorn.sc" horiz-adv-x="1154" 
d="M108 1119h412v-129h151c313 0 443 -224 443 -439c0 -221 -136 -431 -450 -431h-143v-120h-413v1119zM519 698v-294h41c85 0 136 68 136 147c0 94 -60 147 -146 147h-31z" />
    <glyph glyph-name="Alphagreek.sc" horiz-adv-x="1234" 
d="M430 0h-413l330 1119h544l325 -1119h-448l-29 172h-278zM614 798h-22l-67 -344h152z" />
    <glyph glyph-name="Betagreek.sc" horiz-adv-x="1182" 
d="M108 0v1119h595c229 0 390 -98 390 -274c0 -160 -123 -234 -228 -241v-18c101 2 271 -68 271 -264c0 -211 -198 -322 -398 -322h-630zM522 856v-163h89c56 0 78 50 78 82c0 45 -38 81 -107 81h-60zM522 464v-201h96c65 0 94 58 94 105c0 53 -34 96 -121 96h-69z" />
    <glyph glyph-name="Gammagreek.sc" horiz-adv-x="1011" 
d="M528 0h-420v1119h845v-314h-425v-805z" />
    <glyph glyph-name="Deltagreek.sc" horiz-adv-x="1257" 
d="M67 0v180l290 939h544l289 -939v-180h-1123zM602 790l-114 -508h251l-115 508h-22z" />
    <glyph glyph-name="Epsilongreek.sc" horiz-adv-x="1058" 
d="M970 309v-309h-862v1119h862v-308h-448v-119h417v-275h-417v-108h448z" />
    <glyph glyph-name="Zetagreek.sc" horiz-adv-x="1101" 
d="M96 0v251l416 537v19h-417v312h916v-251l-417 -536v-20h438v-312h-936z" />
    <glyph glyph-name="Etagreek.sc" horiz-adv-x="1311" 
d="M1203 0h-420v395h-255v-395h-420v1119h420v-405h255v405h420v-1119z" />
    <glyph glyph-name="Thetagreek.sc" horiz-adv-x="1364" 
d="M819 409h-273v296h273v-296zM480 622v-122c0 -119 95 -188 203 -188c109 0 201 66 201 188v122c0 121 -89 184 -201 184c-119 0 -203 -62 -203 -184zM60 512v93c0 342 253 530 623 530s621 -193 621 -530v-93c0 -336 -250 -529 -620 -529s-624 193 -624 529z" />
    <glyph glyph-name="Iotagreek.sc" horiz-adv-x="636" 
d="M528 0h-420v1119h420v-1119z" />
    <glyph glyph-name="Kappagreek.sc" horiz-adv-x="1255" 
d="M1261 1119l-367 -495l373 -624h-481l-198 360l-60 -82v-278h-420v1119h420v-406h19l282 406h432z" />
    <glyph glyph-name="Lambdagreek.sc" horiz-adv-x="1233" 
d="M592 736l-152 -736h-417l324 1119h543l320 -1119h-453l-143 736h-22z" />
    <glyph glyph-name="Mugreek.sc" horiz-adv-x="1516" 
d="M477 0h-370v1119h442l203 -383h15l205 383h438v-1119h-377v564h-20l-154 -314h-205l-157 314h-20v-564z" />
    <glyph glyph-name="Nugreek.sc" horiz-adv-x="1252" 
d="M491 0h-383v1119h305l331 -435h17v435h383v-1119h-302l-334 448h-17v-448z" />
    <glyph glyph-name="Xigreek.sc" horiz-adv-x="1080" 
d="M88 801v318h904v-318h-904zM161 412v284h758v-284h-758zM88 0v318h904v-318h-904z" />
    <glyph glyph-name="Omicrongreek.sc" horiz-adv-x="1260" 
d="M491 611v-101c0 -133 47 -208 139 -208s139 75 139 208v101c0 132 -47 205 -139 205s-139 -73 -139 -205zM60 512v93c0 318 195 530 570 530c376 0 570 -215 570 -530v-93c0 -313 -193 -529 -569 -529c-375 0 -571 216 -571 529z" />
    <glyph glyph-name="Pigreek.sc" horiz-adv-x="1294" 
d="M1186 0h-420v801h-238v-801h-420v1119h1078v-1119z" />
    <glyph glyph-name="Rhogreek.sc" horiz-adv-x="1155" 
d="M108 1119h559c314 0 443 -216 443 -432c0 -220 -135 -423 -449 -423h-134v-264h-419v1119zM525 824v-274h47c66 0 115 63 115 137c0 92 -60 137 -143 137h-19z" />
    <glyph glyph-name="Sigmagreek.sc" horiz-adv-x="1111" 
d="M96 209l247 356l-246 303v251h932v-312h-393v-19l156 -202v-33l-159 -221v-20h409v-312h-946v209z" />
    <glyph glyph-name="Taugreek.sc" horiz-adv-x="1022" 
d="M721 0h-420v797h-275v322h970v-322h-275v-797z" />
    <glyph glyph-name="Upsilongreek.sc" horiz-adv-x="1148" 
d="M784 0h-420v291l-386 828h453l144 -422h15l146 422h434l-386 -814v-305z" />
    <glyph glyph-name="Phigreek.sc" horiz-adv-x="1570" 
d="M1089 522v63c0 134 -37 228 -132 233v-526c88 8 132 88 132 230zM613 292v526c-95 -5 -132 -99 -132 -233v-63c0 -142 44 -222 132 -230zM968 1205v-103c364 -11 538 -214 542 -546c-4 -323 -171 -537 -542 -548v-92h-366v92c-372 11 -539 225 -542 548
c3 333 177 535 542 546v103h366z" />
    <glyph glyph-name="Chigreek.sc" horiz-adv-x="1168" 
d="M1185 1119l-330 -553l331 -566h-462l-143 286h-16l-140 -286h-439l309 563l-313 556h487l117 -305h16l118 305h465z" />
    <glyph glyph-name="Psigreek.sc" horiz-adv-x="1505" 
d="M559 0v193c-298 12 -461 144 -461 431v495h386v-508c0 -68 18 -106 75 -117v625h386v-625c57 12 76 50 76 117v508h386v-495c0 -287 -163 -420 -462 -431v-193h-386z" />
    <glyph glyph-name="Omegagreek.sc" horiz-adv-x="1366" 
d="M743 0v419c48 19 79 90 79 202v22c0 97 -47 173 -140 173c-90 0 -138 -75 -138 -173v-22c0 -114 32 -184 79 -202v-419h-556v331h202v21c-87 43 -156 152 -156 274v32c0 289 193 477 569 477c377 0 571 -188 571 -477v-32c0 -121 -69 -230 -157 -274v-21h203v-331h-556z
" />
    <glyph glyph-name="Alphatonosgreek.sc" horiz-adv-x="1449" 
d="M645 0h-412l330 1119h543l326 -1119h-449l-28 172h-279zM829 798h-22l-67 -344h152zM3 777l82 342h325l-155 -342h-252z" />
    <glyph glyph-name="Epsilontonosgreek.sc" horiz-adv-x="1448" 
d="M1361 309v-309h-862v1119h862v-308h-448v-119h416v-275h-416v-108h448zM10 777l81 342h326l-155 -342h-252z" />
    <glyph glyph-name="Etatonosgreek.sc" horiz-adv-x="1702" 
d="M1594 0h-420v395h-255v-395h-420v1119h420v-405h255v405h420v-1119zM10 777l81 342h326l-155 -342h-252z" />
    <glyph glyph-name="Iotatonosgreek.sc" horiz-adv-x="1027" 
d="M919 0h-420v1119h420v-1119zM10 777l81 342h326l-155 -342h-252z" />
    <glyph glyph-name="Iotadieresisgreek.sc" horiz-adv-x="636" 
d="M528 0h-420v1119h420v-1119zM130 1175c-69 0 -120 51 -120 119c0 67 51 122 120 122c71 0 130 -55 130 -122c0 -68 -59 -119 -130 -119zM498 1175c-69 0 -122 51 -122 119c0 67 53 122 122 122c71 0 128 -55 128 -122c0 -68 -57 -119 -128 -119z" />
    <glyph glyph-name="Omicrontonosgreek.sc" horiz-adv-x="1556" 
d="M788 611v-101c0 -133 46 -208 139 -208c91 0 138 75 138 208v101c0 132 -47 205 -138 205c-93 0 -139 -73 -139 -205zM357 512v93c0 318 195 530 569 530c376 0 570 -215 570 -530v-93c0 -313 -193 -529 -569 -529c-374 0 -570 216 -570 529zM10 777l81 342h326
l-155 -342h-252z" />
    <glyph glyph-name="Upsilontonosgreek.sc" horiz-adv-x="1658" 
d="M1295 0h-421v291l-385 828h452l144 -422h15l146 422h434l-385 -814v-305zM10 777l81 342h326l-155 -342h-252z" />
    <glyph glyph-name="Upsilondieresisgreek.sc" horiz-adv-x="1148" 
d="M784 0h-420v291l-386 828h453l144 -422h15l146 422h434l-386 -814v-305zM390 1175c-69 0 -120 51 -120 119c0 67 51 122 120 122c71 0 130 -55 130 -122c0 -68 -59 -119 -130 -119zM758 1175c-69 0 -122 51 -122 119c0 67 53 122 122 122c71 0 128 -55 128 -122
c0 -68 -57 -119 -128 -119z" />
    <glyph glyph-name="Omegatonosgreek.sc" horiz-adv-x="1626" 
d="M1003 0v419c48 19 79 90 79 202v22c0 97 -47 173 -140 173c-90 0 -138 -75 -138 -173v-22c0 -114 32 -184 79 -202v-419h-556v331h203v21c-88 43 -157 152 -157 274v32c0 289 193 477 569 477c377 0 571 -188 571 -477v-32c0 -121 -69 -230 -157 -274v-21h203v-331h-556z
M10 777l81 342h326l-155 -342h-252z" />
    <glyph glyph-name="Acyrillic.sc" horiz-adv-x="1251" 
d="M438 0h-412l330 1119h543l326 -1119h-449l-28 172h-279zM623 798h-22l-68 -344h153z" />
    <glyph glyph-name="Becyrillic.sc" horiz-adv-x="1178" 
d="M535 805v-62h137c314 0 449 -174 449 -363c0 -190 -129 -380 -443 -380h-562v1119h871v-314h-452zM533 295h44c70 0 121 28 121 86c0 56 -51 86 -121 86h-44v-172z" />
    <glyph glyph-name="Vecyrillic.sc" horiz-adv-x="1199" 
d="M116 0v1119h596c229 0 389 -98 389 -274c0 -160 -123 -234 -228 -241v-18c101 2 272 -68 272 -264c0 -211 -199 -322 -398 -322h-631zM531 856v-163h88c57 0 78 50 78 82c0 45 -38 81 -107 81h-59zM531 464v-201h95c66 0 94 58 94 105c0 53 -34 96 -121 96h-68z" />
    <glyph glyph-name="Gecyrillic.sc" horiz-adv-x="1026" 
d="M536 0h-420v1119h851v-314h-431v-805z" />
    <glyph glyph-name="Decyrillic.sc" horiz-adv-x="1397" 
d="M803 319v481h-190l-13 -260c-6 -102 -24 -139 -63 -200v-21h266zM419 -234h-368v553h89c61 43 90 113 99 289l22 511h951v-800h130v-553h-369v234h-554v-234z" />
    <glyph glyph-name="Iecyrillic.sc" horiz-adv-x="1074" 
d="M978 308v-308h-862v1119h862v-308h-447v-119h416v-276h-416v-108h447z" />
    <glyph glyph-name="Iocyrillic.sc" horiz-adv-x="1074" 
d="M978 308v-308h-862v1119h862v-308h-447v-119h416v-276h-416v-108h447zM344 1175c-69 0 -120 51 -120 119c0 67 51 122 120 122c71 0 130 -55 130 -122c0 -68 -59 -119 -130 -119zM712 1175c-69 0 -122 51 -122 119c0 67 53 122 122 122c71 0 128 -55 128 -122
c0 -68 -57 -119 -128 -119z" />
    <glyph glyph-name="Zhecyrillic.sc" horiz-adv-x="1866" 
d="M1865 1119l-346 -532l321 -587h-470l-213 416h-20v-416h-398v416h-19l-213 -416h-460l312 572l-356 547h461l256 -426h19v426h398v-426h20l256 426h452z" />
    <glyph glyph-name="Zecyrillic.sc" horiz-adv-x="1110" 
d="M426 715h120c50 0 86 26 86 56c0 47 -38 78 -100 78s-107 -51 -106 -134zM798 600v-20c150 -10 258 -114 258 -242c0 -220 -196 -355 -515 -355c-299 0 -503 172 -500 438h375c-4 -91 44 -143 127 -143c56 0 104 33 104 76c0 41 -47 76 -102 76h-134v280h-366
c11 279 200 425 498 425c282 0 488 -123 488 -312c0 -112 -94 -206 -233 -223z" />
    <glyph glyph-name="Iicyrillic.sc" horiz-adv-x="1328" 
d="M813 0v515h-21l-297 -515h-379v1119h398v-513h21l298 513h378v-1119h-398z" />
    <glyph glyph-name="Iishortcyrillic.sc" horiz-adv-x="1328" 
d="M813 0v515h-21l-297 -515h-379v1119h398v-513h21l298 513h378v-1119h-398zM343 1459h203c0 -69 32 -106 106 -106c75 0 107 37 107 106h203c0 -188 -126 -286 -310 -286c-180 0 -309 97 -309 286z" />
    <glyph glyph-name="Kacyrillic.sc" horiz-adv-x="1293" 
d="M786 0l-230 416h-20v-416h-420v1119h420v-426h20l273 426h462l-356 -526l336 -593h-485z" />
    <glyph glyph-name="Elcyrillic.sc" horiz-adv-x="1264" 
d="M201 608l4 511h942v-1119h-420v800h-154l-5 -265c-8 -434 -135 -557 -376 -557c-65 0 -113 8 -141 22v336c15 -6 33 -8 42 -8c75 0 107 54 108 280z" />
    <glyph glyph-name="Emcyrillic.sc" horiz-adv-x="1536" 
d="M486 0h-370v1119h443l203 -383h15l204 383h438v-1119h-376v564h-20l-154 -314h-205l-157 314h-21v-564z" />
    <glyph glyph-name="Encyrillic.sc" horiz-adv-x="1328" 
d="M1211 0h-420v395h-255v-395h-420v1119h420v-405h255v405h420v-1119z" />
    <glyph glyph-name="Ocyrillic.sc" horiz-adv-x="1277" 
d="M500 611v-101c0 -133 46 -208 139 -208c91 0 138 75 138 208v101c0 132 -47 205 -138 205c-93 0 -139 -73 -139 -205zM69 512v93c0 318 194 530 569 530c376 0 570 -215 570 -530v-93c0 -313 -193 -529 -569 -529c-374 0 -570 216 -570 529z" />
    <glyph glyph-name="Pecyrillic.sc" horiz-adv-x="1311" 
d="M1194 0h-420v800h-238v-800h-420v1119h1078v-1119z" />
    <glyph glyph-name="Ercyrillic.sc" horiz-adv-x="1169" 
d="M116 1119h560c313 0 442 -216 442 -432c0 -220 -134 -423 -449 -423h-134v-264h-419v1119zM533 824v-274h47c66 0 115 63 115 137c0 92 -59 137 -143 137h-19z" />
    <glyph glyph-name="Escyrillic.sc" horiz-adv-x="1207" 
d="M500 605v-91c0 -135 46 -205 124 -205c86 0 122 78 121 175h395v-65c0 -269 -215 -436 -521 -436c-358 0 -550 214 -550 534v87c0 320 192 531 550 531c305 0 521 -165 521 -431v-63h-395c1 94 -35 168 -121 168c-78 0 -124 -70 -124 -204z" />
    <glyph glyph-name="Tecyrillic.sc" horiz-adv-x="1039" 
d="M730 0h-421v797h-274v322h969v-322h-274v-797z" />
    <glyph glyph-name="Ucyrillic.sc" horiz-adv-x="1169" 
d="M749 1119h433l-358 -750c-117 -248 -223 -391 -468 -391c-119 0 -192 23 -188 22v301c4 -1 44 -12 106 -12c40 0 81 6 114 29l-401 801h461l148 -400h20z" />
    <glyph glyph-name="Efcyrillic.sc" horiz-adv-x="1577" 
d="M978 729v-327c77 7 128 48 129 162c-1 115 -52 157 -129 165zM601 401v328c-79 -7 -131 -48 -132 -162c1 -116 54 -158 132 -166zM989 1127v-106c327 -20 521 -182 522 -457c-1 -274 -195 -436 -522 -454v-118h-399v118c-328 18 -523 181 -524 457c1 275 195 436 524 453
v107h399z" />
    <glyph glyph-name="Xacyrillic.sc" horiz-adv-x="1185" 
d="M1193 1119l-329 -553l331 -566h-463l-143 286h-15l-141 -286h-439l310 563l-314 556h487l117 -305h16l118 305h465z" />
    <glyph glyph-name="Tsecyrillic.sc" horiz-adv-x="1377" 
d="M1192 319h130v-553h-369v234h-181h-656v1119h420v-800h236v800h420v-800z" />
    <glyph glyph-name="Checyrillic.sc" horiz-adv-x="1306" 
d="M1190 0h-420v386h-19c-68 -35 -174 -37 -220 -37c-278 0 -434 161 -434 444v326h420v-294c0 -106 42 -150 146 -150c11 0 65 -8 107 19v425h420v-1119z" />
    <glyph glyph-name="Shacyrillic.sc" horiz-adv-x="1835" 
d="M116 0v1119h420v-800h172v800h420v-800h171v800h420v-1119h-1603z" />
    <glyph glyph-name="Shchacyrillic.sc" horiz-adv-x="1904" 
d="M1849 -234h-369v234h-1364v1119h420v-800h172v800h420v-800h171v800h420v-800h130v-553z" />
    <glyph glyph-name="Hardsigncyrillic.sc" horiz-adv-x="1334" 
d="M829 0h-559v800h-208v319h627v-290h134c315 0 449 -196 449 -411c0 -209 -129 -418 -443 -418zM706 295c84 0 143 41 143 124c0 80 -59 124 -143 124h-25v-248h25z" />
    <glyph glyph-name="Yericyrillic.sc" horiz-adv-x="1683" 
d="M1113 418c0 -209 -129 -418 -443 -418h-554v1119h419v-290h129c314 0 449 -196 449 -411zM547 543h-19v-248h19c83 0 143 41 143 124c0 80 -60 124 -143 124zM1567 0h-420v1119h420v-1119z" />
    <glyph glyph-name="Softsigncyrillic.sc" horiz-adv-x="1180" 
d="M676 0h-560v1119h419v-290h134c315 0 449 -196 449 -411c0 -209 -129 -418 -442 -418zM552 295c84 0 143 41 143 124c0 80 -59 124 -143 124h-24v-248h24z" />
    <glyph glyph-name="Ereversedcyrillic.sc" horiz-adv-x="1204" 
d="M701 418h-232c15 -58 44 -109 113 -109c60 0 99 41 119 109zM465 696h238c-21 73 -59 113 -122 113c-77 0 -101 -53 -116 -113zM67 695v9c0 278 226 431 519 431c361 0 549 -214 549 -534v-81c0 -317 -189 -537 -550 -537c-288 0 -518 152 -518 436v22h366v254h-366z" />
    <glyph glyph-name="IUcyrillic.sc" horiz-adv-x="1788" 
d="M1288 510v101c0 132 -43 205 -130 205s-131 -73 -131 -205v-101c0 -133 44 -208 131 -208s130 75 130 208zM536 714h79c39 257 223 421 543 421c371 0 561 -215 561 -530v-93c0 -313 -189 -529 -560 -529c-316 0 -500 163 -542 412h-81v-395h-420v1119h420v-405z" />
    <glyph glyph-name="IAcyrillic.sc" horiz-adv-x="1233" 
d="M643 604h64v226h-64c-81 0 -140 -39 -140 -113c0 -72 59 -113 140 -113zM698 323h-46l-150 -323h-450l212 406c-126 78 -182 190 -182 311c0 200 133 402 457 402h578v-1119h-419v323z" />
    <glyph glyph-name="Djecyrillic.sc" horiz-adv-x="1422" 
d="M748 680c47 19 151 37 222 37c247 0 402 -138 402 -358c0 -235 -144 -381 -374 -381c-82 0 -160 10 -186 22v290c16 -4 50 -6 82 -6c35 0 58 25 58 60c0 41 -40 63 -115 63c-42 0 -87 -9 -107 -21v-386h-420v797h-275v322h969v-322h-274v-117h18z" />
    <glyph glyph-name="Gjecyrillic.sc" horiz-adv-x="1026" 
d="M536 0h-420v1119h851v-314h-431v-805zM643 1219h-263l210 272h310z" />
    <glyph glyph-name="Ecyrillic.sc" horiz-adv-x="1204" 
d="M735 418h-230c17 -70 57 -109 117 -109c69 0 98 51 113 109zM503 696h236c-15 60 -39 113 -116 113c-63 0 -103 -39 -120 -113zM1137 695h-366v-254h366v-22c0 -284 -230 -436 -518 -436c-361 0 -550 220 -550 537v81c0 320 188 534 549 534c293 0 519 -153 519 -431v-9z
" />
    <glyph glyph-name="Dzecyrillic.sc" horiz-adv-x="1189" 
d="M80 356h391c-2 -35 42 -81 132 -81c91 0 107 31 107 53c0 46 -56 55 -152 69l-119 15c-207 32 -346 127 -346 345c0 238 191 377 504 377c366 0 496 -204 494 -365h-376c1 27 -33 78 -116 78c-74 0 -91 -32 -91 -56c0 -39 58 -52 146 -62l132 -13
c153 -16 332 -95 332 -343c0 -217 -152 -390 -520 -390c-401 0 -519 192 -518 373z" />
    <glyph glyph-name="Icyrillic.sc" horiz-adv-x="653" 
d="M536 0h-420v1119h420v-1119z" />
    <glyph glyph-name="Yicyrillic.sc" horiz-adv-x="658" 
d="M539 0h-420v1119h420v-1119zM141 1175c-69 0 -120 51 -120 119c0 67 51 122 120 122c71 0 130 -55 130 -122c0 -68 -59 -119 -130 -119zM509 1175c-69 0 -122 51 -122 119c0 67 53 122 122 122c71 0 128 -55 128 -122c0 -68 -57 -119 -128 -119z" />
    <glyph glyph-name="Jecyrillic.sc" horiz-adv-x="1159" 
d="M56 467h400c-1 -82 35 -129 96 -129c68 0 85 40 85 100v681h421v-689c0 -303 -194 -447 -500 -447c-375 0 -502 253 -502 484z" />
    <glyph glyph-name="Ljecyrillic.sc" horiz-adv-x="1781" 
d="M568 535c-7 -434 -135 -557 -376 -557c-65 0 -112 8 -141 22v336c15 -6 33 -8 42 -8c76 0 106 55 108 280l5 511h930v-290h134c315 0 449 -196 449 -411c0 -209 -129 -418 -443 -418h-559v800h-144zM1153 543h-25v-248h25c84 0 143 41 143 124c0 80 -59 124 -143 124z
" />
    <glyph glyph-name="Njecyrillic.sc" horiz-adv-x="1855" 
d="M791 753v366h419v-366h128c319 0 455 -180 455 -373c0 -186 -131 -380 -448 -380h-554v434h-255v-434h-420v1119h420v-366h255zM1238 467h-36v-172h36c77 0 132 32 132 86c0 53 -55 86 -132 86z" />
    <glyph glyph-name="Tshecyrillic.sc" horiz-adv-x="1476" 
d="M748 680c40 15 142 37 211 37c266 0 415 -156 415 -423v-294h-420v262c0 99 -38 140 -132 140c-32 0 -72 -10 -92 -21v-381h-420v797h-275v322h969v-322h-274v-117h18z" />
    <glyph glyph-name="Kjecyrillic.sc" horiz-adv-x="1293" 
d="M786 0l-230 416h-20v-416h-420v1119h420v-426h20l273 426h462l-356 -526l336 -593h-485zM808 1219h-263l210 272h310z" />
    <glyph glyph-name="Ushortcyrillic.sc" horiz-adv-x="1169" 
d="M710 1465h203c0 -187 -126 -285 -310 -285c-180 0 -309 97 -309 285h203c0 -68 32 -105 106 -105c75 0 107 37 107 105zM749 1119h433l-358 -750c-117 -248 -223 -391 -468 -391c-119 0 -192 23 -188 22v301c4 -1 44 -12 106 -12c40 0 81 6 114 29l-401 801h461l148 -400
h20z" />
    <glyph glyph-name="Dzhecyrillic.sc" horiz-adv-x="1319" 
d="M783 1119h420v-1119h-359v-234h-368v234h-360v1119h420v-800h247v800z" />
    <glyph glyph-name="Geupturncyrillic.sc" horiz-adv-x="1026" 
d="M599 1353h368v-234v-314h-431v-805h-420v1119h483v234z" />
    <glyph glyph-name="zero.sc" horiz-adv-x="1174" 
d="M495 596v-68c0 -177 42 -234 91 -234s92 60 92 234v68c0 174 -43 228 -92 228s-91 -52 -91 -228zM79 527v70c0 314 191 538 512 538c328 0 504 -221 504 -538v-70c0 -273 -162 -544 -514 -544c-326 0 -502 231 -502 544z" />
    <glyph glyph-name="one.sc" horiz-adv-x="907" 
d="M749 0h-411v774h-19l-252 -163v335l271 173h411v-1119z" />
    <glyph glyph-name="two.sc" horiz-adv-x="1115" 
d="M462 727h-384v25c0 173 130 383 468 383c291 0 477 -144 477 -330c0 -188 -136 -286 -216 -357l-151 -127v-14h382v-307h-932v246l394 342c57 50 121 105 121 172c0 30 -34 73 -83 73c-46 0 -77 -37 -77 -77c0 -11 1 -22 1 -29z" />
    <glyph glyph-name="three.sc" horiz-adv-x="1147" 
d="M424 435v279h130c66 0 99 32 100 66c0 45 -50 72 -98 72c-68 0 -110 -53 -108 -102h-377c10 255 201 386 507 385c294 0 471 -120 469 -305c-1 -160 -137 -220 -215 -230v-20c125 -8 242 -91 241 -260c-1 -255 -270 -337 -507 -337c-344 0 -501 188 -498 387h370
c-3 -59 53 -96 122 -96c63 1 108 30 109 78c0 38 -30 83 -110 83h-135z" />
    <glyph glyph-name="four.sc" horiz-adv-x="1193" 
d="M424 1119h581v-668h120v-302h-120v-149h-383v149h-553v308c112 229 235 447 355 662zM409 451h213v402h-18c-71 -134 -132 -249 -195 -401v-1z" />
    <glyph glyph-name="five.sc" horiz-adv-x="1159" 
d="M95 353h364c3 -28 48 -75 119 -75c83 0 123 51 123 106c0 60 -43 111 -117 111c-61 0 -88 -37 -97 -54h-371l40 677h849v-302h-536l-10 -141h18c21 36 97 96 235 96c192 0 376 -120 376 -372c0 -264 -205 -416 -504 -416c-311 0 -492 167 -489 370z" />
    <glyph glyph-name="six.sc" horiz-adv-x="1189" 
d="M1084 789h-377c-23 42 -64 51 -91 51c-132 0 -162 -184 -144 -215h26c41 74 117 124 242 124c191 0 367 -116 367 -358c0 -257 -206 -409 -494 -409c-197 0 -352 73 -444 218c-58 93 -90 216 -90 368c0 358 189 568 534 568c331 0 466 -198 471 -347zM511 376
c0 -56 32 -100 101 -100c67 0 103 46 103 102c0 54 -32 105 -103 105c-66 0 -101 -45 -101 -107z" />
    <glyph glyph-name="seven.sc" horiz-adv-x="1073" 
d="M71 1119h940v-310l-459 -809h-436l484 799v13h-529v307z" />
    <glyph glyph-name="eight.sc" horiz-adv-x="1224" 
d="M612 236c67 0 123 44 123 114s-56 115 -123 115c-68 0 -122 -45 -122 -115s54 -114 122 -114zM612 693c54 0 99 39 99 94s-45 94 -99 94c-55 0 -98 -39 -98 -94s43 -94 98 -94zM613 -17c-349 0 -539 138 -539 330c0 182 138 255 263 271v14c-141 39 -216 110 -216 247
c0 165 175 290 491 290s491 -125 491 -290c0 -136 -74 -208 -216 -247v-14c124 -16 263 -89 263 -271c0 -193 -189 -330 -537 -330z" />
    </font>
</defs>
</svg>
