<?xml version="1.0" standalone="no"?>
<!DOCTYPE svg PUBLIC "-//W3C//DTD SVG 1.1//EN" "https://www.w3.org/Graphics/SVG/1.1/DTD/svg11.dtd" >
<svg xmlns="https://www.w3.org/2000/svg" xmlns:xlink="https://www.w3.org/1999/xlink" version="1.1">
<metadata>
Created by FontForge 20190801 at Sat Sep  7 00:14:43 2019
 By Jimmy Wärting
Copyright 2014-2019 Apple Inc. All rights reserved.
</metadata>
<defs>
<font id="SFCompactRounded-Bold" horiz-adv-x="2367" >
  <font-face 
    font-family="SFCompactRounded"
    font-weight="700"
    font-stretch="normal"
    units-per-em="2048"
    panose-1="0 0 0 0 0 0 0 0 0 0"
    ascent="1638"
    descent="-410"
    x-height="1073"
    cap-height="1365"
    bbox="-418 -1192.65 5279 2503"
    underline-thickness="50"
    underline-position="-100"
    stemh="240"
    stemv="294"
    unicode-range="U+0020-1007BF"
  />
<missing-glyph horiz-adv-x="2048" 
d="M100 1765v185h1848v-185h-1848zM100 1313v185h1848v-185h-1848zM100 861v186h1848v-186h-1848zM100 409v186h1848v-186h-1848zM100 -42v185h1848v-185h-1848zM100 -494v185h1848v-185h-1848z" />
    <glyph glyph-name="uni10005C.small" unicode="&#x3f;&#x20dd;" horiz-adv-x="1858" 
d="M929 -114c-438 0 -797 359 -797 796c0 438 359 797 797 797c437 0 796 -359 796 -797c0 -437 -358 -796 -796 -796zM929 116c314 0 567 253 566 566c0 314 -253 567 -566 567c-314 0 -566 -253 -566 -567c0 -313 252 -566 566 -566zM909 552c-68 0 -106 28 -106 81v3
c0 52 36 87 87 122c56 38 87 61 87 94c0 31 -22 50 -56 50c-25 0 -44 -10 -68 -35c-21 -20 -39 -43 -88 -43c-60 0 -94 36 -94 80c0 16 4 30 10 45c32 73 125 123 252 123c149 0 266 -82 266 -208c0 -80 -37 -121 -114 -169c-37 -24 -70 -47 -78 -76c0 -2 -1 -5 -2 -7
c-7 -35 -44 -60 -96 -60zM909 306c-62 0 -110 37 -110 96c0 58 47 95 110 95c62 0 108 -37 108 -95c0 -59 -47 -96 -108 -96z" />
    <glyph glyph-name="uni10005D.small" unicode="&#x3f;&#x20dd;&#x25cf;" horiz-adv-x="1858" 
d="M929 -114c-438 0 -797 359 -797 796c0 438 359 797 797 797c437 0 796 -359 796 -797c0 -437 -358 -796 -796 -796zM911 545c54 0 89 28 101 65c1 1 2 3 2 5c9 31 42 55 82 80c81 51 119 94 119 177c0 132 -123 219 -278 219c-134 0 -234 -52 -265 -129
c-7 -16 -10 -31 -10 -48c0 -46 35 -83 98 -83c51 0 70 24 92 45c25 25 46 37 72 37c35 0 59 -21 59 -53c0 -35 -33 -59 -92 -99c-54 -37 -91 -73 -91 -128v-3c0 -56 39 -85 111 -85zM916 298c66 0 110 37 110 98c0 60 -45 97 -110 97c-69 0 -112 -37 -112 -97
c0 -61 44 -98 112 -98z" />
    <glyph glyph-name="uni1000EC.small" unicode="&#x3f;&#x20de;" horiz-adv-x="1822" 
d="M466 -40c-177 0 -277 99 -277 276v892c0 177 100 276 277 276h890c177 0 277 -99 277 -276v-892c0 -177 -100 -276 -277 -276h-890zM495 187h832c52 0 79 24 79 80v830c0 56 -27 80 -79 80h-832c-52 0 -79 -24 -79 -80v-830c0 -56 27 -80 79 -80zM891 552
c-68 0 -105 28 -105 81v3c0 52 35 87 86 122c57 38 88 61 88 94c0 31 -22 50 -56 50c-25 0 -44 -10 -69 -35c-20 -20 -39 -43 -87 -43c-60 0 -94 36 -94 80c0 16 3 30 10 45c31 73 125 123 252 123c148 0 265 -82 265 -208c0 -80 -36 -121 -113 -169
c-38 -23 -70 -47 -78 -76c-1 -2 -2 -5 -2 -7c-8 -35 -45 -60 -97 -60zM891 306c-62 0 -109 37 -109 96c0 58 47 95 109 95s108 -37 108 -95c0 -59 -46 -96 -108 -96z" />
    <glyph glyph-name="uni1000ED.small" unicode="&#x3f;&#x20de;&#x25a0;" horiz-adv-x="1822" 
d="M466 -40c-177 0 -277 99 -277 276v892c0 177 100 276 277 276h890c177 0 277 -99 277 -276v-892c0 -177 -100 -276 -277 -276h-890zM900 545c54 0 89 28 101 65c1 1 1 3 2 5c9 31 42 55 82 80c80 51 119 94 119 177c0 132 -123 219 -279 219c-133 0 -233 -52 -265 -129
c-6 -16 -9 -31 -9 -48c0 -46 35 -83 98 -83c51 0 70 24 92 45c25 25 45 37 72 37c35 0 58 -21 58 -53c0 -35 -32 -59 -92 -99c-53 -37 -90 -73 -90 -128v-3c0 -56 39 -85 111 -85zM904 298c67 0 111 37 111 98c0 60 -45 97 -111 97c-68 0 -111 -37 -111 -97
c0 -61 43 -98 111 -98z" />
    <glyph glyph-name="uni10005E.small" unicode="&#x21;&#x20dd;" horiz-adv-x="1858" 
d="M929 -114c-438 0 -797 359 -797 796c0 438 359 797 797 797c437 0 796 -359 796 -797c0 -437 -358 -796 -796 -796zM929 116c314 0 567 253 566 566c0 314 -253 567 -566 567c-314 0 -566 -253 -566 -567c0 -313 252 -566 566 -566zM929 580c-56 0 -89 30 -91 86l-13 268
c-2 60 39 101 103 101s106 -41 104 -101l-13 -267c-3 -57 -35 -87 -90 -87zM929 318c-62 0 -109 37 -109 96s47 96 109 96s108 -38 108 -96c0 -59 -46 -96 -108 -96z" />
    <glyph glyph-name="uni10005F.small" unicode="&#x21;&#x20dd;&#x25cf;" horiz-adv-x="1858" 
d="M929 -114c-438 0 -797 359 -797 796c0 438 359 797 797 797c437 0 796 -359 796 -797c0 -437 -358 -796 -796 -796zM929 592c56 0 88 31 91 89l13 267c3 61 -40 103 -105 103c-64 0 -107 -42 -104 -103l12 -268c3 -57 36 -88 93 -88zM929 298c67 0 111 37 111 98
c0 60 -45 97 -111 97c-68 0 -111 -37 -111 -97c0 -61 43 -98 111 -98z" />
    <glyph glyph-name="uni1000EE.small" unicode="&#x21;&#x20de;" horiz-adv-x="1822" 
d="M466 -40c-177 0 -277 99 -277 276v892c0 177 100 276 277 276h890c177 0 277 -99 277 -276v-892c0 -177 -100 -276 -277 -276h-890zM495 187h832c52 0 79 24 79 80v830c0 56 -27 80 -79 80h-832c-52 0 -79 -24 -79 -80v-830c0 -56 27 -80 79 -80zM912 580
c-56 0 -89 30 -92 86l-12 268c-3 60 39 101 103 101c63 0 105 -41 103 -101l-13 -267c-2 -57 -35 -87 -89 -87zM912 318c-62 0 -110 37 -110 96s47 96 110 96c62 0 108 -38 108 -96c0 -59 -46 -96 -108 -96z" />
    <glyph glyph-name="uni1000EF.small" unicode="&#x21;&#x20de;&#x25a0;" horiz-adv-x="1822" 
d="M466 -40c-177 0 -277 99 -277 276v892c0 177 100 276 277 276h890c177 0 277 -99 277 -276v-892c0 -177 -100 -276 -277 -276h-890zM918 592c56 0 88 31 91 89l13 267c3 61 -41 103 -105 103s-108 -42 -104 -103l12 -268c3 -57 36 -88 93 -88zM918 298
c66 0 110 37 110 98c0 60 -44 97 -110 97c-68 0 -112 -37 -112 -97c0 -61 44 -98 112 -98z" />
    <glyph glyph-name="uni10004C.small" unicode="&#x2b;&#x20dd;" horiz-adv-x="1858" 
d="M929 -114c-438 0 -797 359 -797 796c0 438 359 797 797 797c437 0 796 -359 796 -797c0 -437 -358 -796 -796 -796zM929 116c314 0 567 253 566 566c0 314 -253 567 -566 567c-314 0 -566 -253 -566 -567c0 -313 252 -566 566 -566zM928 334c-54 0 -93 40 -93 94v160
h-171c-55 0 -95 39 -95 93c0 55 40 94 95 94h171v166c0 55 39 94 93 94c55 0 94 -39 94 -94v-166h172c55 0 94 -39 94 -94c0 -54 -40 -93 -94 -93h-172v-160c0 -55 -39 -94 -94 -94z" />
    <glyph glyph-name="uni10004D.small" unicode="&#x2b;&#x20dd;&#x25cf;" horiz-adv-x="1858" 
d="M929 -114c-438 0 -797 359 -797 796c0 438 359 797 797 797c437 0 796 -359 796 -797c0 -437 -358 -796 -796 -796zM928 317c58 0 99 41 99 98v168h180c58 0 99 41 99 98c0 58 -41 99 -99 99h-180v174c0 58 -41 99 -99 99c-57 0 -98 -42 -98 -99v-174h-179
c-58 0 -100 -41 -100 -99c0 -57 42 -98 100 -98h179v-168c0 -57 41 -98 98 -98z" />
    <glyph glyph-name="uni1000DC.small" unicode="&#x2b;&#x20de;" horiz-adv-x="1822" 
d="M466 -40c-177 0 -277 99 -277 276v892c0 177 100 276 277 276h890c177 0 277 -99 277 -276v-892c0 -177 -100 -276 -277 -276h-890zM495 187h832c52 0 79 24 79 80v830c0 56 -27 80 -79 80h-832c-52 0 -79 -24 -79 -80v-830c0 -56 27 -80 79 -80zM911 334
c-55 0 -93 40 -93 94v160h-172c-54 0 -95 39 -95 93c0 55 40 94 95 94h172v166c0 55 38 94 93 94c54 0 93 -39 93 -94v-166h172c55 0 95 -39 95 -94c0 -54 -40 -93 -95 -93h-172v-160c0 -55 -39 -94 -93 -94z" />
    <glyph glyph-name="uni1000DD.small" unicode="&#x2b;&#x20de;&#x25a0;" horiz-adv-x="1822" 
d="M466 -40c-177 0 -277 99 -277 276v892c0 177 100 276 277 276h890c177 0 277 -99 277 -276v-892c0 -177 -100 -276 -277 -276h-890zM917 317c57 0 99 41 99 98v168h180c57 0 99 41 99 98c0 58 -41 99 -99 99h-180v174c0 58 -42 99 -99 99c-58 0 -98 -42 -98 -99v-174
h-180c-58 0 -99 -41 -99 -99c0 -57 42 -98 99 -98h180v-168c0 -57 40 -98 98 -98z" />
    <glyph glyph-name="uni10004E.small" unicode="&#x2212;&#x20dd;" horiz-adv-x="1858" 
d="M929 -114c-438 0 -797 359 -797 796c0 438 359 797 797 797c437 0 796 -359 796 -797c0 -437 -358 -796 -796 -796zM929 116c314 0 567 253 566 566c0 314 -253 567 -566 567c-314 0 -566 -253 -566 -567c0 -313 252 -566 566 -566zM651 588c-55 0 -95 38 -95 93
s40 94 95 94h556c55 0 94 -39 94 -94s-40 -93 -94 -93h-556z" />
    <glyph glyph-name="uni10004F.small" unicode="&#x2212;&#x20dd;&#x25cf;" horiz-adv-x="1858" 
d="M929 -114c-438 0 -797 359 -797 796c0 438 359 797 797 797c437 0 796 -359 796 -797c0 -437 -358 -796 -796 -796zM637 583h583c58 0 100 41 100 98c0 58 -41 99 -100 99h-583c-58 0 -99 -41 -99 -99c0 -57 42 -98 99 -98z" />
    <glyph glyph-name="uni1000DE.small" unicode="&#x2212;&#x20de;" horiz-adv-x="1822" 
d="M466 -40c-177 0 -277 99 -277 276v892c0 177 100 276 277 276h890c177 0 277 -99 277 -276v-892c0 -177 -100 -276 -277 -276h-890zM495 187h832c52 0 79 24 79 80v830c0 56 -27 80 -79 80h-832c-52 0 -79 -24 -79 -80v-830c0 -56 27 -80 79 -80zM633 588
c-54 0 -94 38 -94 93s39 94 94 94h556c55 0 94 -39 94 -94s-39 -93 -94 -93h-556z" />
    <glyph glyph-name="uni1000DF.small" unicode="&#x2212;&#x20de;&#x25a0;" horiz-adv-x="1822" 
d="M466 -40c-177 0 -277 99 -277 276v892c0 177 100 276 277 276h890c177 0 277 -99 277 -276v-892c0 -177 -100 -276 -277 -276h-890zM626 583h583c58 0 99 41 99 98c0 58 -41 99 -99 99h-583c-58 0 -100 -41 -100 -99c0 -57 43 -98 100 -98z" />
    <glyph glyph-name="uni100050.small" unicode="&#xd7;&#x20dd;" horiz-adv-x="1858" 
d="M929 -114c-438 0 -797 359 -797 796c0 438 359 797 797 797c437 0 796 -359 796 -797c0 -437 -358 -796 -796 -796zM929 116c314 0 567 253 566 566c0 314 -253 567 -566 567c-314 0 -566 -253 -566 -567c0 -313 252 -566 566 -566zM707 370c-52 0 -91 40 -91 92
c0 23 10 45 27 62l157 157l-157 157c-17 18 -27 40 -27 63c0 52 39 91 91 91c27 0 48 -8 66 -26l156 -155l156 155c19 18 40 27 67 27c51 0 91 -40 91 -92c0 -23 -10 -45 -28 -62l-156 -158l156 -156c18 -18 28 -40 28 -63c0 -52 -40 -92 -91 -92c-28 0 -50 9 -68 27
l-155 154l-155 -154c-18 -18 -40 -27 -67 -27z" />
    <glyph glyph-name="uni100051.small" unicode="&#xd7;&#x20dd;&#x25cf;" horiz-adv-x="1858" 
d="M929 -114c-438 0 -797 359 -797 796c0 438 359 797 797 797c437 0 796 -359 796 -797c0 -437 -358 -796 -796 -796zM695 355c29 0 52 9 71 27l163 163l163 -163c19 -18 41 -27 71 -27c54 0 95 41 95 96c0 25 -10 48 -28 66l-164 164l164 166c19 18 28 41 28 65
c0 55 -41 96 -95 96c-29 0 -51 -8 -70 -27l-164 -164l-164 163c-18 19 -41 28 -70 28c-53 0 -95 -41 -95 -96c0 -25 10 -48 29 -66l164 -165l-164 -165c-19 -17 -29 -41 -29 -65c0 -55 42 -96 95 -96z" />
    <glyph glyph-name="uni1000E0.small" unicode="&#xd7;&#x20de;" horiz-adv-x="1822" 
d="M466 -40c-177 0 -277 99 -277 276v892c0 177 100 276 277 276h890c177 0 277 -99 277 -276v-892c0 -177 -100 -276 -277 -276h-890zM495 187h832c52 0 79 24 79 80v830c0 56 -27 80 -79 80h-832c-52 0 -79 -24 -79 -80v-830c0 -56 27 -80 79 -80zM689 370
c-51 0 -91 40 -91 92c0 23 10 45 27 62l157 157l-157 157c-17 18 -27 40 -27 63c0 52 40 91 91 91c27 0 49 -8 67 -26l155 -155l157 155c18 18 39 27 66 27c52 0 91 -40 91 -92c0 -23 -9 -45 -27 -62l-157 -158l157 -156c17 -18 27 -40 27 -63c0 -52 -40 -92 -91 -92
c-28 0 -49 9 -67 27l-156 154l-155 -154c-18 -18 -40 -27 -67 -27z" />
    <glyph glyph-name="uni1000E1.small" unicode="&#xd7;&#x20de;&#x25a0;" horiz-adv-x="1822" 
d="M466 -40c-177 0 -277 99 -277 276v892c0 177 100 276 277 276h890c177 0 277 -99 277 -276v-892c0 -177 -100 -276 -277 -276h-890zM684 355c29 0 52 9 71 27l162 163l164 -163c18 -18 41 -27 70 -27c54 0 96 41 96 96c0 25 -11 48 -29 66l-164 164l165 166
c18 18 28 41 28 65c0 55 -41 96 -95 96c-29 0 -51 -8 -70 -27l-165 -164l-163 163c-19 19 -41 28 -70 28c-54 0 -95 -41 -95 -96c0 -25 10 -48 28 -66l165 -165l-165 -165c-18 -17 -28 -41 -28 -65c0 -55 41 -96 95 -96z" />
    <glyph glyph-name="uni100052.small" unicode="&#xf7;&#x20dd;" horiz-adv-x="1858" 
d="M929 -114c-438 0 -797 359 -797 796c0 438 359 797 797 797c437 0 796 -359 796 -797c0 -437 -358 -796 -796 -796zM929 116c314 0 567 253 566 566c0 314 -253 567 -566 567c-314 0 -566 -253 -566 -567c0 -313 252 -566 566 -566zM928 830c-64 0 -113 43 -113 99
c0 59 49 103 113 103c67 0 114 -44 114 -103c0 -56 -48 -99 -114 -99zM664 598c-49 0 -85 34 -85 83c0 50 35 84 85 84h530c49 0 84 -34 84 -84c0 -49 -35 -83 -84 -83h-530zM928 334c-64 0 -113 43 -113 99c0 59 49 102 113 102c67 0 114 -43 114 -102
c0 -56 -48 -99 -114 -99z" />
    <glyph glyph-name="uni100053.small" unicode="&#xf7;&#x20dd;&#x25cf;" horiz-adv-x="1858" 
d="M929 -114c-438 0 -797 359 -797 796c0 438 359 797 797 797c437 0 796 -359 796 -797c0 -437 -358 -796 -796 -796zM928 837c70 0 120 45 120 104c0 63 -50 109 -120 109c-68 0 -119 -46 -119 -109c0 -59 51 -104 119 -104zM650 594h557c51 0 88 35 88 87s-36 88 -88 88
h-557c-51 0 -88 -36 -88 -88s37 -87 88 -87zM928 316c70 0 120 45 120 104c0 63 -50 108 -120 108c-68 0 -119 -45 -119 -108c0 -59 51 -104 119 -104z" />
    <glyph glyph-name="uni1000E2.small" unicode="&#xf7;&#x20de;" horiz-adv-x="1822" 
d="M466 -40c-177 0 -277 99 -277 276v892c0 177 100 276 277 276h890c177 0 277 -99 277 -276v-892c0 -177 -100 -276 -277 -276h-890zM495 187h832c52 0 79 24 79 80v830c0 56 -27 80 -79 80h-832c-52 0 -79 -24 -79 -80v-830c0 -56 27 -80 79 -80zM910 830
c-64 0 -113 43 -113 99c0 59 49 103 113 103c67 0 115 -44 115 -103c0 -56 -48 -99 -115 -99zM646 598c-49 0 -84 34 -84 83c0 50 35 84 84 84h530c50 0 84 -34 84 -84c0 -49 -35 -83 -84 -83h-530zM910 334c-64 0 -113 43 -113 99c0 60 49 102 113 102
c67 0 115 -42 115 -102c0 -56 -48 -99 -115 -99z" />
    <glyph glyph-name="uni1000E3.small" unicode="&#xf7;&#x20de;&#x25a0;" horiz-adv-x="1822" 
d="M466 -40c-177 0 -277 99 -277 276v892c0 177 100 276 277 276h890c177 0 277 -99 277 -276v-892c0 -177 -100 -276 -277 -276h-890zM917 837c69 0 119 45 119 104c0 63 -49 109 -119 109c-68 0 -119 -46 -119 -109c0 -59 51 -104 119 -104zM639 594h557c51 0 88 35 88 87
s-37 88 -88 88h-557c-52 0 -88 -36 -88 -88s37 -87 88 -87zM917 316c69 0 119 45 119 104c0 63 -49 108 -119 108c-68 0 -119 -45 -119 -108c0 -59 51 -104 119 -104z" />
    <glyph glyph-name="uni100054.small" unicode="&#x3d;&#x20dd;" horiz-adv-x="1858" 
d="M929 -114c-438 0 -797 359 -797 796c0 438 359 797 797 797c437 0 796 -359 796 -797c0 -437 -358 -796 -796 -796zM929 116c314 0 567 253 566 566c0 314 -253 567 -566 567c-314 0 -566 -253 -566 -567c0 -313 252 -566 566 -566zM696 735c-60 0 -100 32 -100 85
c0 54 39 86 100 86h465c61 0 99 -33 99 -86s-40 -85 -99 -85h-465zM696 457c-60 0 -100 32 -100 85c0 54 39 86 100 86h465c61 0 99 -32 99 -86c0 -53 -40 -85 -99 -85h-465z" />
    <glyph glyph-name="uni100055.small" unicode="&#x3d;&#x20dd;&#x25cf;" horiz-adv-x="1858" 
d="M929 -114c-438 0 -797 359 -797 796c0 438 359 797 797 797c437 0 796 -359 796 -797c0 -437 -358 -796 -796 -796zM684 737h488c63 0 104 34 104 90s-39 90 -103 90h-489c-64 0 -104 -33 -104 -90c0 -56 41 -90 104 -90zM684 446h488c63 0 104 34 104 90s-39 90 -103 90
h-489c-64 0 -104 -34 -104 -90s41 -90 104 -90z" />
    <glyph glyph-name="uni1000E4.small" unicode="&#x3d;&#x20de;" horiz-adv-x="1822" 
d="M466 -40c-177 0 -277 99 -277 276v892c0 177 100 276 277 276h890c177 0 277 -99 277 -276v-892c0 -177 -100 -276 -277 -276h-890zM495 187h832c52 0 79 24 79 80v830c0 56 -27 80 -79 80h-832c-52 0 -79 -24 -79 -80v-830c0 -56 27 -80 79 -80zM678 735
c-60 0 -99 32 -99 85c0 54 38 86 99 86h466c60 0 98 -33 98 -86s-39 -85 -99 -85h-465zM678 457c-60 0 -99 32 -99 85c0 54 38 86 99 86h466c60 0 98 -32 98 -86c0 -53 -39 -85 -99 -85h-465z" />
    <glyph glyph-name="uni1000E5.small" unicode="&#x3d;&#x20de;&#x25a0;" horiz-adv-x="1822" 
d="M466 -40c-177 0 -277 99 -277 276v892c0 177 100 276 277 276h890c177 0 277 -99 277 -276v-892c0 -177 -100 -276 -277 -276h-890zM673 737h488c63 0 104 34 104 90s-40 90 -104 90h-488c-65 0 -104 -33 -104 -90c0 -56 41 -90 104 -90zM673 446h488c63 0 104 34 104 90
s-40 90 -104 90h-488c-65 0 -104 -34 -104 -90s41 -90 104 -90z" />
    <glyph glyph-name="uni100058.small" unicode="&#x3c;&#x20dd;" horiz-adv-x="1858" 
d="M929 -114c-438 0 -797 359 -797 796c0 438 359 797 797 797c437 0 796 -359 796 -797c0 -437 -358 -796 -796 -796zM929 116c314 0 567 253 566 566c0 314 -253 567 -566 567c-314 0 -566 -253 -566 -567c0 -313 252 -566 566 -566zM1102 390c-20 0 -37 4 -54 12
l-395 194c-40 19 -62 45 -62 84c0 40 21 68 62 88l395 197c18 8 34 12 54 12c53 0 90 -38 90 -91c0 -44 -21 -70 -75 -92l-251 -107v-8l251 -106c54 -21 75 -47 75 -92c0 -53 -37 -91 -90 -91z" />
    <glyph glyph-name="uni100059.small" unicode="&#x3c;&#x20dd;&#x25cf;" horiz-adv-x="1858" 
d="M929 -114c-438 0 -797 359 -797 796c0 438 359 797 797 797c437 0 796 -359 796 -797c0 -437 -358 -796 -796 -796zM1112 375c56 0 96 40 96 97c0 46 -22 73 -79 95l-264 112v8l264 113c56 22 79 50 79 96c0 56 -39 96 -95 96c-21 0 -39 -4 -57 -13l-415 -207
c-43 -21 -64 -50 -64 -92c0 -41 22 -68 64 -88l415 -203c18 -10 36 -14 56 -14z" />
    <glyph glyph-name="uni1000E6.small" unicode="&#x3c;&#x20de;" horiz-adv-x="1822" 
d="M466 -40c-177 0 -277 99 -277 276v892c0 177 100 276 277 276h890c177 0 277 -99 277 -276v-892c0 -177 -100 -276 -277 -276h-890zM495 187h832c52 0 79 24 79 80v830c0 56 -27 80 -79 80h-832c-52 0 -79 -24 -79 -80v-830c0 -56 27 -80 79 -80zM1084 390
c-19 0 -36 4 -53 12l-396 194c-40 19 -61 45 -61 84c0 40 20 68 61 88l396 197c17 8 34 12 54 12c52 0 90 -38 90 -91c0 -44 -22 -70 -76 -92l-250 -107v-8l250 -106c55 -21 76 -47 76 -92c0 -53 -38 -91 -91 -91z" />
    <glyph glyph-name="uni1000E7.small" unicode="&#x3c;&#x20de;&#x25a0;" horiz-adv-x="1822" 
d="M466 -40c-177 0 -277 99 -277 276v892c0 177 100 276 277 276h890c177 0 277 -99 277 -276v-892c0 -177 -100 -276 -277 -276h-890zM1101 375c56 0 95 40 95 97c0 46 -22 73 -79 95l-263 112v8l263 113c57 22 79 50 79 96c0 56 -39 96 -94 96c-21 0 -39 -4 -57 -13
l-415 -207c-43 -21 -65 -50 -65 -92c0 -41 23 -68 65 -88l415 -203c18 -10 36 -14 56 -14z" />
    <glyph glyph-name="uni100056.small" unicode="&#x3e;&#x20dd;" horiz-adv-x="1858" 
d="M929 -114c-438 0 -797 359 -797 796c0 438 359 797 797 797c437 0 796 -359 796 -797c0 -437 -358 -796 -796 -796zM929 116c314 0 567 253 566 566c0 314 -253 567 -566 567c-314 0 -566 -253 -566 -567c0 -313 252 -566 566 -566zM756 390c-53 0 -91 38 -91 91
c0 45 21 71 75 92l251 106v8l-251 107c-54 22 -75 48 -75 92c0 53 37 91 90 91c20 0 37 -4 54 -12l396 -197c40 -20 61 -48 61 -88c0 -39 -21 -65 -61 -84l-396 -194c-17 -8 -34 -12 -53 -12z" />
    <glyph glyph-name="uni100057.small" unicode="&#x3e;&#x20dd;&#x25cf;" horiz-adv-x="1858" 
d="M929 -114c-438 0 -797 359 -797 796c0 438 359 797 797 797c437 0 796 -359 796 -797c0 -437 -358 -796 -796 -796zM745 375c20 0 38 4 56 14l415 203c42 20 65 47 65 88c0 42 -22 71 -65 92l-415 207c-18 9 -36 13 -57 13c-55 0 -94 -40 -94 -96c0 -46 22 -74 79 -96
l263 -113v-8l-263 -112c-57 -22 -79 -49 -79 -95c0 -57 39 -97 95 -97z" />
    <glyph glyph-name="uni1000E8.small" unicode="&#x3e;&#x20de;" horiz-adv-x="1822" 
d="M466 -40c-177 0 -277 99 -277 276v892c0 177 100 276 277 276h890c177 0 277 -99 277 -276v-892c0 -177 -100 -276 -277 -276h-890zM495 187h832c52 0 79 24 79 80v830c0 56 -27 80 -79 80h-832c-52 0 -79 -24 -79 -80v-830c0 -56 27 -80 79 -80zM738 390
c-53 0 -91 38 -91 91c0 45 21 71 76 92l250 106v8l-250 107c-54 22 -76 48 -76 92c0 53 38 91 90 91c20 0 37 -4 55 -12l395 -197c41 -20 61 -48 61 -88c0 -39 -21 -65 -61 -84l-395 -194c-18 -8 -35 -12 -54 -12z" />
    <glyph glyph-name="uni1000E9.small" unicode="&#x3e;&#x20de;&#x25a0;" horiz-adv-x="1822" 
d="M466 -40c-177 0 -277 99 -277 276v892c0 177 100 276 277 276h890c177 0 277 -99 277 -276v-892c0 -177 -100 -276 -277 -276h-890zM734 375c20 0 38 4 56 14l415 203c42 20 64 47 64 88c0 42 -21 71 -64 92l-415 207c-19 9 -36 13 -57 13c-56 0 -95 -40 -95 -96
c0 -46 23 -74 79 -96l263 -113v-8l-263 -112c-57 -22 -79 -49 -79 -95c0 -57 39 -97 96 -97z" />
    <glyph glyph-name="uni10005A.small" unicode="&#x23;&#x20dd;" horiz-adv-x="1858" 
d="M929 -114c-438 0 -797 359 -797 796c0 438 359 797 797 797c437 0 796 -359 796 -797c0 -437 -358 -796 -796 -796zM929 116c314 0 567 253 566 566c0 314 -253 567 -566 567c-314 0 -566 -253 -566 -567c0 -313 252 -566 566 -566zM750 340c-47 0 -76 35 -67 81l18 84
h-26c-37 0 -62 26 -62 65c0 44 32 76 78 76h38l17 84h-27c-37 0 -62 27 -62 66c0 44 32 76 78 76h37l18 89c8 45 36 67 81 67s76 -37 68 -81l-16 -75h81l17 89c8 45 36 67 81 67s77 -37 68 -81l-15 -75h27c37 0 62 -26 62 -65c0 -45 -32 -77 -78 -77h-37l-17 -84h26
c36 0 62 -25 62 -64c0 -45 -32 -77 -78 -77h-39l-20 -96c-9 -46 -37 -69 -83 -69c-47 0 -75 34 -67 80l17 85h-78l-20 -98c-9 -45 -36 -67 -82 -67zM863 625h108l22 119h-106z" />
    <glyph glyph-name="uni10005B.small" unicode="&#x23;&#x20dd;&#x25cf;" horiz-adv-x="1858" 
d="M929 -114c-438 0 -797 359 -797 796c0 438 359 797 797 797c437 0 796 -359 796 -797c0 -437 -358 -796 -796 -796zM741 323c48 0 76 23 86 71l21 102h82l-17 -89c-10 -48 20 -84 70 -84c49 0 78 24 87 72l21 101h41c47 0 82 34 82 81c0 40 -27 68 -66 68h-26l17 88h39
c48 0 82 34 82 80c0 41 -27 69 -65 69h-28l15 79c9 45 -24 84 -71 84s-77 -23 -85 -71l-19 -92h-84l16 79c9 45 -23 84 -71 84s-77 -23 -85 -71l-19 -92h-39c-48 0 -82 -34 -82 -80c0 -42 27 -69 65 -69h29l-19 -88h-39c-48 0 -81 -34 -81 -81c0 -41 26 -68 64 -68h27
l-18 -89c-9 -47 20 -84 70 -84zM860 622l24 125h112l-23 -125h-113z" />
    <glyph glyph-name="uni1000EA.small" unicode="&#x23;&#x20de;" horiz-adv-x="1822" 
d="M466 -40c-177 0 -277 99 -277 276v892c0 177 100 276 277 276h890c177 0 277 -99 277 -276v-892c0 -177 -100 -276 -277 -276h-890zM495 187h832c52 0 79 24 79 80v830c0 56 -27 80 -79 80h-832c-52 0 -79 -24 -79 -80v-830c0 -56 27 -80 79 -80zM732 340
c-47 0 -75 35 -66 81l17 84h-25c-37 0 -63 26 -63 65c0 44 33 77 79 77h37l17 83h-27c-36 0 -62 27 -62 66c0 44 32 76 78 76h38l17 89c8 45 36 67 81 67c46 0 77 -37 68 -81l-15 -75h80l17 89c9 45 36 67 81 67c46 0 77 -37 69 -81l-15 -75h26c37 0 63 -26 63 -65
c0 -45 -33 -77 -79 -77h-37l-16 -83h25c37 0 62 -26 62 -65c0 -45 -32 -77 -78 -77h-38l-20 -96c-9 -46 -37 -69 -84 -69s-75 34 -66 80l17 85h-79l-20 -98c-9 -45 -36 -67 -82 -67zM846 625h107l22 119h-106z" />
    <glyph glyph-name="uni1000EB.small" unicode="&#x23;&#x20de;&#x25a0;" horiz-adv-x="1822" 
d="M466 -40c-177 0 -277 99 -277 276v892c0 177 100 276 277 276h890c177 0 277 -99 277 -276v-892c0 -177 -100 -276 -277 -276h-890zM730 323c48 0 76 23 86 71l21 102h82l-18 -89c-9 -48 21 -84 70 -84s78 24 88 72l20 101h42c47 0 81 34 81 81c0 40 -26 68 -65 68h-27
l18 88h39c47 0 81 34 81 80c0 41 -26 69 -65 69h-28l16 79c9 45 -25 84 -72 84s-76 -23 -85 -71l-18 -92h-85l17 79c9 45 -24 84 -72 84c-47 0 -76 -23 -85 -71l-18 -92h-40c-47 0 -81 -34 -81 -80c0 -42 26 -69 65 -69h28l-18 -88h-39c-48 0 -82 -34 -82 -81
c0 -41 27 -68 65 -68h27l-18 -89c-10 -47 20 -84 70 -84zM849 622l24 125h112l-23 -125h-113z" />
    <glyph glyph-name="uni100060.small" unicode="&#x2717;&#x20dd;" horiz-adv-x="1858" 
d="M929 -114c-438 0 -797 359 -797 796c0 438 359 797 797 797c437 0 796 -359 796 -797c0 -437 -358 -796 -796 -796zM929 116c314 0 567 253 566 566c0 314 -253 567 -566 567c-314 0 -566 -253 -566 -567c0 -313 252 -566 566 -566zM707 370c-52 0 -91 40 -91 92
c0 23 10 45 27 62l157 157l-157 157c-17 18 -27 40 -27 63c0 52 39 91 91 91c27 0 48 -8 66 -26l156 -155l156 155c19 18 40 27 67 27c51 0 91 -40 91 -92c0 -23 -10 -45 -28 -62l-156 -158l156 -156c18 -18 28 -40 28 -63c0 -52 -40 -92 -91 -92c-28 0 -50 9 -68 27
l-155 154l-155 -154c-18 -18 -40 -27 -67 -27z" />
    <glyph glyph-name="uni100061.small" unicode="&#x2717;&#x20dd;&#x25cf;" horiz-adv-x="1858" 
d="M929 -114c-438 0 -797 359 -797 796c0 438 359 797 797 797c437 0 796 -359 796 -797c0 -437 -358 -796 -796 -796zM695 355c29 0 52 9 71 27l163 163l163 -163c19 -18 41 -27 71 -27c54 0 95 41 95 96c0 25 -10 48 -28 66l-164 164l164 166c19 18 28 41 28 65
c0 55 -41 96 -95 96c-29 0 -51 -8 -70 -27l-164 -164l-164 163c-18 19 -41 28 -70 28c-53 0 -95 -41 -95 -96c0 -25 10 -48 29 -66l164 -165l-164 -165c-19 -17 -29 -41 -29 -65c0 -55 42 -96 95 -96z" />
    <glyph glyph-name="uni1000F0.small" unicode="&#x2717;&#x20de;" horiz-adv-x="1822" 
d="M466 -40c-177 0 -277 99 -277 276v892c0 177 100 276 277 276h890c177 0 277 -99 277 -276v-892c0 -177 -100 -276 -277 -276h-890zM495 187h832c52 0 79 24 79 80v830c0 56 -27 80 -79 80h-832c-52 0 -79 -24 -79 -80v-830c0 -56 27 -80 79 -80zM689 370
c-51 0 -91 40 -91 92c0 23 10 45 27 62l157 157l-157 157c-17 18 -27 40 -27 63c0 52 40 91 91 91c27 0 49 -8 67 -26l155 -155l157 155c18 18 39 27 66 27c52 0 91 -40 91 -92c0 -23 -9 -45 -27 -62l-157 -158l157 -156c17 -18 27 -40 27 -63c0 -52 -40 -92 -91 -92
c-28 0 -49 9 -67 27l-156 154l-155 -154c-18 -18 -40 -27 -67 -27z" />
    <glyph glyph-name="uni1000F1.small" unicode="&#x2717;&#x20de;&#x25a0;" horiz-adv-x="1822" 
d="M466 -40c-177 0 -277 99 -277 276v892c0 177 100 276 277 276h890c177 0 277 -99 277 -276v-892c0 -177 -100 -276 -277 -276h-890zM684 355c29 0 52 9 71 27l162 163l164 -163c18 -18 41 -27 70 -27c54 0 96 41 96 96c0 25 -11 48 -29 66l-164 164l165 166
c18 18 28 41 28 65c0 55 -41 96 -95 96c-29 0 -51 -8 -70 -27l-165 -164l-163 163c-19 19 -41 28 -70 28c-54 0 -95 -41 -95 -96c0 -25 10 -48 28 -66l165 -165l-165 -165c-18 -17 -28 -41 -28 -65c0 -55 41 -96 95 -96z" />
    <glyph glyph-name="uni100062.small" unicode="&#x2713;&#x20dd;" horiz-adv-x="1858" 
d="M929 -114c-438 0 -797 359 -797 796c0 438 359 797 797 797c437 0 796 -359 796 -797c0 -437 -358 -796 -796 -796zM929 116c314 0 567 253 566 566c0 314 -253 567 -566 567c-314 0 -566 -253 -566 -567c0 -313 252 -566 566 -566zM836 298c-35 0 -62 17 -87 45
l-194 230c-19 22 -26 41 -26 64c0 49 40 88 89 88c28 0 49 -12 69 -35l148 -177l286 453c21 34 46 50 78 50c48 0 91 -35 91 -84c0 -19 -8 -40 -21 -59l-348 -528c-20 -29 -51 -47 -85 -47z" />
    <glyph glyph-name="uni100063.small" unicode="&#x2713;&#x20dd;&#x25cf;" horiz-adv-x="1858" 
d="M929 -114c-438 0 -797 359 -797 796c0 438 359 797 797 797c437 0 796 -359 796 -797c0 -437 -358 -796 -796 -796zM827 274c36 0 69 19 90 50l372 562c13 22 21 44 21 64c0 53 -46 90 -97 90c-34 0 -61 -18 -84 -53l-304 -483l-157 189c-22 24 -45 37 -75 37
c-51 0 -95 -42 -95 -94c0 -25 8 -46 28 -69l210 -248c23 -27 53 -45 91 -45z" />
    <glyph glyph-name="uni1000F2.small" unicode="&#x2713;&#x20de;" horiz-adv-x="1822" 
d="M466 -40c-177 0 -277 99 -277 276v892c0 177 100 276 277 276h890c177 0 277 -99 277 -276v-892c0 -177 -100 -276 -277 -276h-890zM495 187h832c52 0 79 24 79 80v830c0 56 -27 80 -79 80h-832c-52 0 -79 -24 -79 -80v-830c0 -56 27 -80 79 -80zM819 298
c-35 0 -63 17 -87 45l-195 230c-18 22 -26 41 -26 64c0 49 40 88 89 88c28 0 50 -12 69 -35l149 -177l285 453c22 34 47 50 79 50c47 0 90 -34 90 -84c0 -19 -7 -40 -20 -59l-349 -528c-19 -29 -50 -47 -84 -47z" />
    <glyph glyph-name="uni1000F3.small" unicode="&#x2713;&#x20de;&#x25a0;" horiz-adv-x="1822" 
d="M466 -40c-177 0 -277 99 -277 276v892c0 177 100 276 277 276h890c177 0 277 -99 277 -276v-892c0 -177 -100 -276 -277 -276h-890zM815 274c36 0 69 19 91 50l371 562c14 22 22 44 22 64c0 53 -46 90 -97 90c-34 0 -61 -18 -84 -53l-304 -483l-158 189
c-21 24 -44 37 -74 37c-52 0 -95 -42 -95 -94c0 -25 7 -46 27 -69l210 -248c24 -27 54 -45 91 -45z" />
    <glyph glyph-name="uni100066.small" unicode="&#x25b2;&#x20dd;" horiz-adv-x="1858" 
d="M929 -114c-438 0 -797 359 -797 796c0 438 359 797 797 797c437 0 796 -359 796 -797c0 -437 -358 -796 -796 -796zM929 116c314 0 567 253 566 566c0 314 -253 567 -566 567c-314 0 -566 -253 -566 -567c0 -313 252 -566 566 -566zM1170 474h-482c-36 0 -54 41 -35 74
l236 406c17 30 63 31 81 0l235 -406c19 -34 1 -74 -35 -74z" />
    <glyph glyph-name="uni100067.small" unicode="&#x25b2;&#x20dd;&#x25cf;" horiz-adv-x="1858" 
d="M929 -114c-438 0 -797 359 -797 796c0 438 359 797 797 797c437 0 796 -359 796 -797c0 -437 -358 -796 -796 -796zM1186 457c38 0 58 43 37 79l-250 433c-19 33 -68 32 -87 0l-251 -433c-21 -35 -1 -79 37 -79h514z" />
    <glyph glyph-name="uni1000F6.small" unicode="&#x25b2;&#x20de;" horiz-adv-x="1822" 
d="M466 -40c-177 0 -277 99 -277 276v892c0 177 100 276 277 276h890c177 0 277 -99 277 -276v-892c0 -177 -100 -276 -277 -276h-890zM495 187h832c52 0 79 24 79 80v830c0 56 -27 80 -79 80h-832c-52 0 -79 -24 -79 -80v-830c0 -56 27 -80 79 -80zM1152 441h-482
c-35 0 -54 42 -35 75l236 406c17 30 64 30 81 0l235 -406c19 -34 1 -75 -35 -75z" />
    <glyph glyph-name="uni1000F7.small" unicode="&#x25b2;&#x20de;&#x25a0;" horiz-adv-x="1822" 
d="M466 -40c-177 0 -277 99 -277 276v892c0 177 100 276 277 276h890c177 0 277 -99 277 -276v-892c0 -177 -100 -276 -277 -276h-890zM1176 428c37 0 57 43 36 79l-246 426c-19 32 -67 32 -86 0l-248 -426c-20 -35 0 -79 38 -79h506z" />
    <glyph glyph-name="uni100068.small" unicode="&#x25bc;&#x20dd;" horiz-adv-x="1858" 
d="M929 -114c-438 0 -797 359 -797 796c0 438 359 797 797 797c437 0 796 -359 796 -797c0 -437 -358 -796 -796 -796zM929 116c314 0 567 253 566 566c0 314 -253 567 -566 567c-314 0 -566 -253 -566 -567c0 -313 252 -566 566 -566zM1163 891c36 0 55 -41 35 -75
l-235 -406c-17 -31 -63 -30 -81 0l-236 406c-19 33 0 75 35 75h482z" />
    <glyph glyph-name="uni100069.small" unicode="&#x25bc;&#x20dd;&#x25cf;" horiz-adv-x="1858" 
d="M929 -114c-438 0 -797 359 -797 796c0 438 359 797 797 797c437 0 796 -359 796 -797c0 -437 -358 -796 -796 -796zM1186 907h-514c-38 0 -58 -44 -37 -79l251 -433c19 -32 68 -32 87 0l250 433c21 36 1 79 -37 79z" />
    <glyph glyph-name="uni1000F8.small" unicode="&#x25bc;&#x20de;" horiz-adv-x="1822" 
d="M466 -40c-177 0 -277 99 -277 276v892c0 177 100 276 277 276h890c177 0 277 -99 277 -276v-892c0 -177 -100 -276 -277 -276h-890zM495 187h832c52 0 79 24 79 80v830c0 56 -27 80 -79 80h-832c-52 0 -79 -24 -79 -80v-830c0 -56 27 -80 79 -80zM1152 914
c36 0 54 -41 35 -75l-235 -406c-18 -30 -64 -30 -81 0l-236 406c-19 33 0 75 35 75h482z" />
    <glyph glyph-name="uni1000F9.small" unicode="&#x25bc;&#x20de;&#x25a0;" horiz-adv-x="1822" 
d="M466 -40c-177 0 -277 99 -277 276v892c0 177 100 276 277 276h890c177 0 277 -99 277 -276v-892c0 -177 -100 -276 -277 -276h-890zM1176 933h-506c-38 0 -57 -44 -38 -78l248 -427c19 -31 67 -32 86 0l246 427c21 35 1 78 -36 78z" />
    <glyph glyph-name="uni10006A.small" unicode="&#x25c0;&#x20dd;" horiz-adv-x="1858" 
d="M929 -114c-438 0 -797 359 -797 796c0 438 359 797 797 797c437 0 796 -359 796 -797c0 -437 -358 -796 -796 -796zM929 116c314 0 567 253 566 566c0 314 -253 567 -566 567c-314 0 -566 -253 -566 -567c0 -313 252 -566 566 -566zM645 640c-30 18 -30 64 0 82l407 236
c32 18 74 0 74 -36v-482c0 -35 -41 -54 -74 -34z" />
    <glyph glyph-name="uni10006B.small" unicode="&#x25c0;&#x20dd;&#x25cf;" horiz-adv-x="1858" 
d="M929 -114c-438 0 -797 359 -797 796c0 438 359 797 797 797c437 0 796 -359 796 -797c0 -437 -358 -796 -796 -796zM1042 392c36 -21 78 -1 78 36v507c0 37 -43 56 -78 36l-426 -248c-32 -18 -32 -66 0 -85z" />
    <glyph glyph-name="uni1000FA.small" unicode="&#x25c0;&#x20de;" horiz-adv-x="1822" 
d="M466 -40c-177 0 -277 99 -277 276v892c0 177 100 276 277 276h890c177 0 277 -99 277 -276v-892c0 -177 -100 -276 -277 -276h-890zM495 187h832c52 0 79 24 79 80v830c0 56 -27 80 -79 80h-832c-52 0 -79 -24 -79 -80v-830c0 -56 27 -80 79 -80zM1141 923v-481
c0 -36 -42 -55 -75 -35l-406 235c-31 18 -30 65 0 82l406 234c33 19 75 1 75 -35z" />
    <glyph glyph-name="uni1000FB.small" unicode="&#x25c0;&#x20de;&#x25a0;" horiz-adv-x="1822" 
d="M466 -40c-177 0 -277 99 -277 276v892c0 177 100 276 277 276h890c177 0 277 -99 277 -276v-892c0 -177 -100 -276 -277 -276h-890zM1144 936c0 37 -43 56 -78 36l-426 -246c-32 -18 -33 -67 0 -86l426 -247c35 -20 78 -1 78 37v506z" />
    <glyph glyph-name="uni10006C.small" unicode="&#x25b6;&#x20dd;" horiz-adv-x="1858" 
d="M929 -114c-438 0 -797 359 -797 796c0 438 359 797 797 797c437 0 796 -359 796 -797c0 -437 -358 -796 -796 -796zM929 116c314 0 567 253 566 566c0 314 -253 567 -566 567c-314 0 -566 -253 -566 -567c0 -313 252 -566 566 -566zM808 407c-34 -20 -75 -1 -75 35v481
c0 36 42 55 75 36l406 -236c30 -18 30 -64 0 -82z" />
    <glyph glyph-name="uni10006D.small" unicode="&#x25b6;&#x20dd;&#x25cf;" horiz-adv-x="1858" 
d="M929 -114c-438 0 -797 359 -797 796c0 438 359 797 797 797c437 0 796 -359 796 -797c0 -437 -358 -796 -796 -796zM797 393l426 247c32 18 32 66 0 85l-426 248c-35 20 -79 0 -79 -37v-506c0 -38 43 -58 79 -37z" />
    <glyph glyph-name="uni1000FC.small" unicode="&#x25b6;&#x20de;" horiz-adv-x="1822" 
d="M466 -40c-177 0 -277 99 -277 276v892c0 177 100 276 277 276h890c177 0 277 -99 277 -276v-892c0 -177 -100 -276 -277 -276h-890zM495 187h832c52 0 79 24 79 80v830c0 56 -27 80 -79 80h-832c-52 0 -79 -24 -79 -80v-830c0 -56 27 -80 79 -80zM681 923
c0 36 42 54 75 35l406 -234c30 -17 31 -64 0 -82l-406 -235c-33 -20 -75 -1 -75 35v481z" />
    <glyph glyph-name="uni1000FD.small" unicode="&#x25b6;&#x20de;&#x25a0;" horiz-adv-x="1822" 
d="M466 -40c-177 0 -277 99 -277 276v892c0 177 100 276 277 276h890c177 0 277 -99 277 -276v-892c0 -177 -100 -276 -277 -276h-890zM700 936v-506c0 -38 44 -57 79 -37l426 247c33 19 32 68 0 86l-426 246c-35 20 -79 1 -79 -36z" />
    <glyph glyph-name="uni100004.small" unicode="A&#x20dd;" horiz-adv-x="1858" 
d="M929 -114c-438 0 -797 359 -797 796c0 438 359 797 797 797c437 0 796 -359 796 -797c0 -437 -358 -796 -796 -796zM929 116c314 0 567 253 566 566c0 314 -253 567 -566 567c-314 0 -566 -253 -566 -567c0 -313 252 -566 566 -566zM714 340c-62 0 -98 36 -98 95
c0 16 5 38 14 68l135 397c29 88 80 129 161 129c84 0 138 -42 166 -129l135 -397c9 -30 14 -52 14 -68c0 -59 -36 -95 -98 -95c-53 0 -86 30 -100 92l-17 50h-195l-17 -50c-14 -62 -47 -92 -100 -92zM866 628h125l-58 222h-8z" />
    <glyph glyph-name="uni100005.small" unicode="A&#x20dd;&#x25cf;" horiz-adv-x="1858" 
d="M929 -114c-438 0 -797 359 -797 796c0 438 359 797 797 797c437 0 796 -359 796 -797c0 -437 -358 -796 -796 -796zM704 323c55 0 90 31 104 96l18 53h205l18 -53c15 -65 49 -96 105 -96c64 0 103 37 103 99c0 18 -5 41 -14 72l-142 417c-30 92 -87 135 -175 135
c-85 0 -139 -43 -169 -135l-142 -417c-9 -31 -15 -54 -15 -72c0 -62 39 -99 104 -99zM863 625l62 233h8l61 -233h-131z" />
    <glyph glyph-name="uni100006.small" unicode="B&#x20dd;" horiz-adv-x="1858" 
d="M929 -114c-438 0 -797 359 -797 796c0 438 359 797 797 797c437 0 796 -359 796 -797c0 -437 -358 -796 -796 -796zM929 116c314 0 567 253 566 566c0 314 -253 567 -566 567c-314 0 -566 -253 -566 -567c0 -313 252 -566 566 -566zM766 356c-80 0 -121 41 -121 121v415
c0 80 42 121 121 121h224c130 0 210 -61 210 -161c0 -74 -51 -130 -129 -143v-7c99 -12 158 -73 158 -165c0 -107 -94 -181 -230 -181h-233zM841 752h71c61 0 94 24 94 68c0 40 -32 65 -81 65h-84v-133zM840 492h77c70 0 106 25 106 74c0 45 -35 73 -93 73h-90v-147z" />
    <glyph glyph-name="uni100007.small" unicode="B&#x20dd;&#x25cf;" horiz-adv-x="1858" 
d="M929 -114c-438 0 -797 359 -797 796c0 438 359 797 797 797c437 0 796 -359 796 -797c0 -437 -358 -796 -796 -796zM767 340h245c142 0 241 77 241 189c0 97 -62 161 -166 174v7c82 14 136 73 136 150c0 105 -84 170 -221 170h-235c-83 0 -127 -44 -127 -128v-435
c0 -84 43 -127 127 -127zM845 756v139h89c51 0 85 -27 85 -68c0 -46 -35 -71 -99 -71h-75zM845 482v155h94c61 0 98 -29 98 -77c0 -51 -38 -78 -111 -78h-81z" />
    <glyph glyph-name="uni100008.small" unicode="C&#x20dd;" horiz-adv-x="1858" 
d="M929 -114c-438 0 -797 359 -797 796c0 438 359 797 797 797c437 0 796 -359 796 -797c0 -437 -358 -796 -796 -796zM929 116c314 0 567 253 566 566c0 314 -253 567 -566 567c-314 0 -566 -253 -566 -567c0 -313 252 -566 566 -566zM925 340c-199 0 -329 136 -329 344
c0 209 131 345 329 345c132 0 241 -60 281 -155c7 -16 11 -33 11 -51c0 -51 -36 -82 -94 -82c-43 0 -66 14 -88 54c-22 42 -58 63 -106 63c-76 0 -122 -66 -122 -174c0 -107 46 -173 121 -173c49 0 85 21 106 62c21 37 48 53 89 53c58 0 94 -31 94 -82c0 -18 -4 -35 -11 -50
c-40 -95 -147 -154 -281 -154z" />
    <glyph glyph-name="uni100009.small" unicode="C&#x20dd;&#x25cf;" horiz-adv-x="1858" 
d="M929 -114c-438 0 -797 359 -797 796c0 438 359 797 797 797c437 0 796 -359 796 -797c0 -437 -358 -796 -796 -796zM942 317c143 0 258 62 301 163c7 18 11 35 11 55c0 54 -38 87 -101 87c-43 0 -72 -16 -95 -57c-23 -43 -61 -65 -112 -65c-81 0 -130 70 -130 184
c0 115 49 185 130 185c51 0 89 -23 113 -67c23 -42 49 -57 94 -57c63 0 101 33 101 88c0 19 -4 37 -11 54c-43 101 -160 165 -301 165c-212 0 -352 -145 -352 -368c0 -222 139 -367 352 -367z" />
    <glyph glyph-name="uni10000A.small" unicode="D&#x20dd;" horiz-adv-x="1858" 
d="M929 -114c-438 0 -797 359 -797 796c0 438 359 797 797 797c437 0 796 -359 796 -797c0 -437 -358 -796 -796 -796zM929 116c314 0 567 253 566 566c0 314 -253 567 -566 567c-314 0 -566 -253 -566 -567c0 -313 252 -566 566 -566zM755 356c-79 0 -118 42 -118 121v415
c0 78 40 121 118 121h181c205 0 319 -118 319 -329c0 -210 -115 -328 -319 -328h-181zM840 513h61c96 0 139 52 139 171c0 118 -44 172 -139 172h-61v-343z" />
    <glyph glyph-name="uni10000B.small" unicode="D&#x20dd;&#x25cf;" horiz-adv-x="1858" 
d="M929 -114c-438 0 -797 359 -797 796c0 438 359 797 797 797c437 0 796 -359 796 -797c0 -437 -358 -796 -796 -796zM758 340h190c215 0 335 123 335 345c0 221 -120 345 -335 345h-190c-82 0 -124 -46 -124 -128v-435c0 -83 42 -127 124 -127zM847 504v360h65
c100 0 145 -56 145 -180c0 -125 -45 -180 -145 -180h-65z" />
    <glyph glyph-name="uni10000C.small" unicode="E&#x20dd;" horiz-adv-x="1858" 
d="M929 -114c-438 0 -797 359 -797 796c0 438 359 797 797 797c437 0 796 -359 796 -797c0 -437 -358 -796 -796 -796zM929 116c314 0 567 253 566 566c0 314 -253 567 -566 567c-314 0 -566 -253 -566 -567c0 -313 252 -566 566 -566zM778 356c-78 0 -117 42 -117 121v415
c0 78 40 121 117 121h299c55 0 88 -29 88 -80c0 -50 -33 -79 -88 -79h-214v-98h209c46 0 75 -25 75 -68c0 -44 -29 -68 -75 -68h-209v-105h214c55 0 88 -29 88 -79c0 -51 -33 -80 -88 -80h-299z" />
    <glyph glyph-name="uni10000D.small" unicode="E&#x20dd;&#x25cf;" horiz-adv-x="1858" 
d="M929 -114c-438 0 -797 359 -797 796c0 438 359 797 797 797c437 0 796 -359 796 -797c0 -437 -358 -796 -796 -796zM781 340h313c59 0 94 30 94 83s-35 84 -94 84h-224v109h219c49 0 79 27 79 72c0 46 -30 72 -79 72h-219v102h224c59 0 94 31 94 84s-35 84 -94 84h-313
c-81 0 -124 -46 -124 -128v-435c0 -83 42 -127 124 -127z" />
    <glyph glyph-name="uni10000E.small" unicode="F&#x20dd;" horiz-adv-x="1858" 
d="M929 -114c-438 0 -797 359 -797 796c0 438 359 797 797 797c437 0 796 -359 796 -797c0 -437 -358 -796 -796 -796zM929 116c314 0 567 253 566 566c0 314 -253 567 -566 567c-314 0 -566 -253 -566 -567c0 -313 252 -566 566 -566zM781 343c-67 0 -106 45 -106 118v431
c0 78 40 121 118 121h301c56 0 89 -29 89 -80c0 -50 -33 -79 -89 -79h-208v-110h200c46 0 75 -27 75 -72c0 -44 -29 -71 -75 -71h-198v-140c0 -73 -39 -118 -107 -118z" />
    <glyph glyph-name="uni10000F.small" unicode="F&#x20dd;&#x25cf;" horiz-adv-x="1858" 
d="M929 -115c-438 0 -797 359 -797 796c0 438 359 797 797 797c437 0 796 -359 796 -797c0 -437 -358 -796 -796 -796zM787 326c70 0 112 46 112 123v147h207c49 0 79 28 79 75s-30 75 -79 75h-209v116h218c58 0 93 30 93 84c0 52 -35 83 -93 83h-316
c-82 0 -124 -45 -124 -127v-453c0 -77 40 -123 112 -123z" />
    <glyph glyph-name="uni100010.small" unicode="G&#x20dd;" horiz-adv-x="1858" 
d="M929 -114c-438 0 -797 359 -797 796c0 438 359 797 797 797c437 0 796 -359 796 -797c0 -437 -358 -796 -796 -796zM929 116c314 0 567 253 566 566c0 314 -253 567 -566 567c-314 0 -566 -253 -566 -567c0 -313 252 -566 566 -566zM926 340c-199 0 -330 136 -330 344
c0 209 131 345 329 345c133 0 239 -54 275 -139c7 -15 10 -31 10 -47c0 -47 -33 -75 -87 -75c-51 0 -72 20 -90 44c-22 35 -51 58 -100 58c-78 0 -126 -74 -126 -186c0 -113 49 -191 127 -191c67 0 105 36 105 87v20h-52c-45 0 -70 25 -70 63s25 63 70 63h154
c62 0 94 -33 94 -95v-23c0 -152 -120 -268 -309 -268z" />
    <glyph glyph-name="uni100011.small" unicode="G&#x20dd;&#x25cf;" horiz-adv-x="1858" 
d="M929 -114c-438 0 -797 359 -797 796c0 438 359 797 797 797c437 0 796 -359 796 -797c0 -437 -358 -796 -796 -796zM936 323c199 0 324 122 324 281v25c0 65 -34 99 -98 99h-162c-48 0 -73 -26 -73 -66c0 -39 25 -66 73 -66h55v-21c0 -53 -41 -92 -111 -92
c-82 0 -133 82 -133 201c0 118 51 196 132 196c52 0 82 -25 105 -61c19 -26 41 -47 95 -47c57 0 91 30 91 79c0 17 -4 33 -11 49c-38 89 -148 146 -288 146c-208 0 -345 -142 -345 -362c0 -219 137 -361 346 -361z" />
    <glyph glyph-name="uni100012.small" unicode="H&#x20dd;" horiz-adv-x="1858" 
d="M929 -114c-438 0 -797 359 -797 796c0 438 359 797 797 797c437 0 796 -359 796 -797c0 -437 -358 -796 -796 -796zM929 116c314 0 567 253 566 566c0 314 -253 567 -566 567c-314 0 -566 -253 -566 -567c0 -313 252 -566 566 -566zM720 343c-70 0 -111 46 -111 123v437
c0 78 41 123 111 123c69 0 111 -46 111 -123v-134h195v134c0 78 41 123 111 123c69 0 111 -46 111 -123v-437c0 -77 -42 -123 -111 -123c-70 0 -111 46 -111 123v137h-195v-137c0 -77 -42 -123 -111 -123z" />
    <glyph glyph-name="uni100013.small" unicode="H&#x20dd;&#x25cf;" horiz-adv-x="1858" 
d="M929 -114c-438 0 -797 359 -797 796c0 438 359 797 797 797c437 0 796 -359 796 -797c0 -437 -358 -796 -796 -796zM709 326c73 0 117 48 117 129v144h205v-144c0 -81 43 -129 116 -129s116 48 116 129v459c0 81 -43 129 -116 129s-116 -48 -116 -129v-141h-205v141
c0 81 -44 129 -117 129s-115 -48 -115 -129v-459c0 -81 42 -129 115 -129z" />
    <glyph glyph-name="uni100014.small" unicode="I&#x20dd;" horiz-adv-x="1858" 
d="M929 -114c-438 0 -797 359 -797 796c0 438 359 797 797 797c437 0 796 -359 796 -797c0 -437 -358 -796 -796 -796zM929 116c314 0 567 253 566 566c0 314 -253 567 -566 567c-314 0 -566 -253 -566 -567c0 -313 252 -566 566 -566zM928 343c-73 0 -115 48 -115 128v427
c0 80 42 128 115 128s116 -48 116 -128v-427c0 -80 -43 -128 -116 -128z" />
    <glyph glyph-name="uni100015.small" unicode="I&#x20dd;&#x25cf;" horiz-adv-x="1858" 
d="M929 -114c-438 0 -797 359 -797 796c0 438 359 797 797 797c437 0 796 -359 796 -797c0 -437 -358 -796 -796 -796zM928 326c77 0 121 51 121 134v449c0 84 -44 134 -121 134s-120 -50 -120 -134v-449c0 -83 43 -134 120 -134z" />
    <glyph glyph-name="uni100016.small" unicode="J&#x20dd;" horiz-adv-x="1858" 
d="M929 -114c-438 0 -797 359 -797 796c0 438 359 797 797 797c437 0 796 -359 796 -797c0 -437 -358 -796 -796 -796zM929 116c314 0 567 253 566 566c0 314 -253 567 -566 567c-314 0 -566 -253 -566 -567c0 -313 252 -566 566 -566zM899 340c-130 0 -229 59 -257 151
c-5 14 -7 30 -7 47c0 58 40 97 98 98c55 0 86 -24 100 -70c11 -28 30 -43 61 -43c38 0 57 25 57 80v301c0 76 39 122 109 122c69 0 110 -46 110 -122v-307c0 -164 -101 -257 -271 -257z" />
    <glyph glyph-name="uni100017.small" unicode="J&#x20dd;&#x25cf;" horiz-adv-x="1858" 
d="M929 -114c-438 0 -797 359 -797 796c0 438 359 797 797 797c437 0 796 -359 796 -797c0 -437 -358 -796 -796 -796zM908 323c178 0 284 98 284 269v323c0 80 -42 128 -115 128s-115 -48 -115 -128v-316c0 -58 -19 -84 -59 -84c-33 0 -52 15 -64 45c-15 49 -47 73 -105 73
c-62 0 -103 -42 -103 -102c0 -18 3 -34 7 -50c30 -96 134 -158 270 -158z" />
    <glyph glyph-name="uni100018.small" unicode="K&#x20dd;" horiz-adv-x="1858" 
d="M929 -114c-438 0 -797 359 -797 796c0 438 359 797 797 797c437 0 796 -359 796 -797c0 -437 -358 -796 -796 -796zM929 116c314 0 567 253 566 566c0 314 -253 567 -566 567c-314 0 -566 -253 -566 -567c0 -313 252 -566 566 -566zM734 353c-65 0 -102 41 -102 113v437
c0 72 37 113 102 113c64 0 102 -42 102 -113v-159h7l188 224c28 35 50 48 85 48c52 0 94 -36 94 -83c0 -28 -7 -45 -29 -71l-133 -151l145 -195c19 -26 25 -45 25 -71c0 -53 -42 -92 -98 -92c-37 0 -62 14 -89 51l-134 185l-61 -70v-59c0 -68 -39 -107 -102 -107z" />
    <glyph glyph-name="uni100019.small" unicode="K&#x20dd;&#x25cf;" horiz-adv-x="1858" 
d="M929 -114c-438 0 -797 359 -797 796c0 438 359 797 797 797c437 0 796 -359 796 -797c0 -437 -358 -796 -796 -796zM733 336c66 0 108 42 108 114v61l64 74l141 -196c28 -38 53 -53 93 -53c59 0 103 42 103 98c0 27 -7 46 -27 74l-151 205l139 158c23 27 31 45 31 75
c0 49 -45 87 -99 87c-37 0 -60 -14 -89 -51l-198 -235h-7v167c0 75 -40 119 -108 119s-106 -43 -106 -119v-459c0 -75 38 -119 106 -119z" />
    <glyph glyph-name="uni10001A.small" unicode="L&#x20dd;" horiz-adv-x="1858" 
d="M929 -114c-438 0 -797 359 -797 796c0 438 359 797 797 797c437 0 796 -359 796 -797c0 -437 -358 -796 -796 -796zM929 116c314 0 567 253 566 566c0 314 -253 567 -566 567c-314 0 -566 -253 -566 -567c0 -313 252 -566 566 -566zM803 356c-73 0 -115 48 -115 128v414
c0 80 42 128 115 128s116 -48 116 -128v-363h181c59 0 96 -33 96 -89c0 -57 -37 -90 -96 -90h-297z" />
    <glyph glyph-name="uni10001B.small" unicode="L&#x20dd;&#x25cf;" horiz-adv-x="1858" 
d="M929 -114c-438 0 -797 359 -797 796c0 438 359 797 797 797c437 0 796 -359 796 -797c0 -437 -358 -796 -796 -796zM805 340h311c63 0 102 34 102 93c0 60 -39 94 -102 94h-189v381c0 84 -45 134 -122 134s-120 -50 -120 -134v-435c0 -83 43 -133 120 -133z" />
    <glyph glyph-name="uni10001C.small" unicode="M&#x20dd;" horiz-adv-x="1858" 
d="M929 -114c-438 0 -797 359 -797 796c0 438 359 797 797 797c437 0 796 -359 796 -797c0 -437 -358 -796 -796 -796zM929 116c314 0 567 253 566 566c0 314 -253 567 -566 567c-314 0 -566 -253 -566 -567c0 -313 252 -566 566 -566zM664 342c-50 0 -79 31 -79 86v490
c0 65 44 108 111 108c60 0 98 -29 117 -90l113 -331h5l113 331c19 60 56 90 117 90c67 0 111 -43 111 -108v-490c0 -55 -30 -86 -79 -86c-50 0 -79 31 -79 86v315h-7l-107 -300c-13 -38 -35 -55 -74 -55c-37 0 -60 18 -72 55l-104 300h-7v-315c0 -55 -30 -86 -79 -86z" />
    <glyph glyph-name="uni10001D.small" unicode="M&#x20dd;&#x25cf;" horiz-adv-x="1858" 
d="M929 -114c-438 0 -797 359 -797 796c0 438 359 797 797 797c437 0 796 -359 796 -797c0 -437 -358 -796 -796 -796zM651 324c52 0 82 36 82 94v328h8l110 -315c12 -39 36 -58 75 -58c41 0 64 18 78 57l112 316h8v-328c0 -57 30 -94 82 -94s83 36 83 94v512
c0 68 -46 113 -117 113c-63 0 -103 -31 -122 -95l-119 -346h-5l-119 346c-20 64 -59 95 -122 95c-70 0 -117 -45 -117 -113v-512c0 -57 31 -94 83 -94z" />
    <glyph glyph-name="uni10001E.small" unicode="N&#x20dd;" horiz-adv-x="1858" 
d="M929 -114c-438 0 -797 359 -797 796c0 438 359 797 797 797c437 0 796 -359 796 -797c0 -437 -358 -796 -796 -796zM929 116c314 0 567 253 566 566c0 314 -253 567 -566 567c-314 0 -566 -253 -566 -567c0 -313 252 -566 566 -566zM724 343c-58 0 -91 38 -91 100v492
c0 55 33 91 84 91c39 0 59 -12 94 -57l224 -298h7v255c0 63 33 100 91 100c57 0 91 -37 91 -100v-496c0 -54 -31 -87 -82 -87c-38 0 -60 13 -91 54l-229 307h-6v-261c0 -62 -34 -100 -92 -100z" />
    <glyph glyph-name="uni10001F.small" unicode="N&#x20dd;&#x25cf;" horiz-adv-x="1858" 
d="M929 -114c-438 0 -797 359 -797 796c0 438 359 797 797 797c437 0 796 -359 796 -797c0 -437 -358 -796 -796 -796zM714 326c60 0 96 40 96 105v274h7l241 -323c31 -42 55 -56 95 -56c53 0 86 35 86 91v521c0 66 -35 105 -96 105c-60 0 -96 -39 -96 -105v-268h-7
l-235 313c-36 47 -57 60 -98 60c-54 0 -89 -38 -89 -95v-517c0 -66 35 -105 96 -105z" />
    <glyph glyph-name="uni100020.small" unicode="O&#x20dd;" horiz-adv-x="1858" 
d="M929 -114c-438 0 -797 359 -797 796c0 438 359 797 797 797c437 0 796 -359 796 -797c0 -437 -358 -796 -796 -796zM929 116c314 0 567 253 566 566c0 314 -253 567 -566 567c-314 0 -566 -253 -566 -567c0 -313 252 -566 566 -566zM929 340c-191 0 -331 131 -331 344
c0 215 140 345 331 345c190 0 330 -130 330 -345c0 -213 -140 -344 -330 -344zM929 509c69 0 120 61 120 175c0 116 -51 176 -120 176c-70 0 -121 -60 -121 -176c0 -114 51 -175 121 -175z" />
    <glyph glyph-name="uni100021.small" unicode="O&#x20dd;&#x25cf;" horiz-adv-x="1858" 
d="M929 -114c-438 0 -797 359 -797 796c0 438 359 797 797 797c437 0 796 -359 796 -797c0 -437 -358 -796 -796 -796zM929 323c199 0 347 137 347 361c0 225 -148 362 -347 362c-200 0 -348 -137 -348 -362c0 -224 148 -361 348 -361zM929 501c-73 0 -127 63 -127 183
c0 121 54 184 127 184c72 0 126 -63 126 -184c0 -120 -54 -183 -126 -183z" />
    <glyph glyph-name="uni100022.small" unicode="P&#x20dd;" horiz-adv-x="1858" 
d="M929 -114c-438 0 -797 359 -797 796c0 438 359 797 797 797c437 0 796 -359 796 -797c0 -437 -358 -796 -796 -796zM929 116c314 0 567 253 566 566c0 314 -253 567 -566 567c-314 0 -566 -253 -566 -567c0 -313 252 -566 566 -566zM765 343c-68 0 -106 45 -106 118v431
c0 78 39 121 117 121h193c155 0 255 -96 255 -246c0 -151 -101 -247 -258 -247h-95v-59c0 -73 -39 -118 -106 -118zM871 673h66c58 0 88 33 88 93c0 62 -30 94 -88 94h-66v-187z" />
    <glyph glyph-name="uni100023.small" unicode="P&#x20dd;&#x25cf;" horiz-adv-x="1858" 
d="M929 -114c-438 0 -797 359 -797 796c0 438 359 797 797 797c437 0 796 -359 796 -797c0 -437 -358 -796 -796 -796zM769 327c70 0 112 46 112 123v62h99c165 0 271 101 271 259s-105 259 -268 259h-203c-81 0 -123 -45 -123 -127v-453c0 -77 40 -123 112 -123zM881 673
v196h69c61 0 92 -33 92 -98c0 -64 -32 -98 -92 -98h-69z" />
    <glyph glyph-name="uni100024.small" unicode="Q&#x20dd;" horiz-adv-x="1858" 
d="M929 -114c-438 0 -797 359 -797 796c0 438 359 797 797 797c437 0 796 -359 796 -797c0 -437 -358 -796 -796 -796zM929 116c314 0 567 253 566 566c0 314 -253 567 -566 567c-314 0 -566 -253 -566 -567c0 -313 252 -566 566 -566zM929 340c-191 0 -331 131 -331 344
c0 215 140 345 331 345c190 0 330 -130 330 -345c0 -112 -39 -202 -104 -262l15 -20c16 -23 22 -40 22 -59c0 -43 -33 -74 -78 -74c-34 0 -57 14 -78 50l-23 32c-26 -7 -54 -11 -84 -11zM929 509c8 0 16 1 24 3l-11 16c-7 9 -11 19 -11 32c0 29 23 50 52 50
c13 0 21 -4 28 -11l15 -17c15 26 23 61 23 102c0 116 -51 176 -120 176c-70 0 -121 -60 -121 -176c0 -114 51 -175 121 -175z" />
    <glyph glyph-name="uni100025.small" unicode="Q&#x20dd;&#x25cf;" horiz-adv-x="1858" 
d="M929 -114c-438 0 -797 359 -797 796c0 438 359 797 797 797c437 0 796 -359 796 -797c0 -437 -358 -796 -796 -796zM929 325c31 0 61 4 89 11l23 -34c23 -38 46 -52 82 -52c48 0 82 32 82 78c0 20 -6 37 -23 62l-15 21c68 63 109 157 109 275c0 225 -148 362 -347 362
c-200 0 -348 -137 -348 -362s148 -361 348 -361zM929 503c-73 0 -127 63 -127 183c0 121 54 184 127 184s126 -63 126 -184c0 -43 -9 -80 -24 -107l-16 18c-6 7 -15 11 -29 11c-31 0 -55 -22 -55 -53c0 -13 4 -23 12 -33l11 -16c-8 -2 -17 -3 -25 -3z" />
    <glyph glyph-name="uni100026.small" unicode="R&#x20dd;" horiz-adv-x="1858" 
d="M929 -114c-438 0 -797 359 -797 796c0 438 359 797 797 797c437 0 796 -359 796 -797c0 -437 -358 -796 -796 -796zM929 116c314 0 567 253 566 566c0 314 -253 567 -566 567c-314 0 -566 -253 -566 -567c0 -313 252 -566 566 -566zM732 343c-62 0 -96 40 -96 108v441
c0 78 39 121 117 121h194c172 0 270 -79 270 -219c0 -90 -51 -162 -131 -188l82 -116c15 -20 21 -38 21 -62c0 -50 -38 -85 -91 -85c-43 0 -67 18 -100 71l-97 155h-72v-118c0 -68 -36 -108 -97 -108zM829 711h92c55 0 89 30 89 79s-33 80 -87 80h-94v-159z" />
    <glyph glyph-name="uni100027.small" unicode="R&#x20dd;&#x25cf;" horiz-adv-x="1858" 
d="M929 -114c-438 0 -797 359 -797 796c0 438 359 797 797 797c437 0 796 -359 796 -797c0 -437 -358 -796 -796 -796zM735 327c65 0 103 41 103 112v125h75l102 -163c34 -56 60 -74 105 -74c56 0 95 37 95 89c0 24 -6 43 -22 64l-87 122c85 28 138 104 138 198
c0 147 -102 230 -283 230h-203c-82 0 -123 -45 -123 -127v-464c0 -71 36 -112 100 -112zM838 713v166h98c56 0 91 -32 91 -84c0 -51 -36 -82 -93 -82h-96z" />
    <glyph glyph-name="uni100028.small" unicode="S&#x20dd;" horiz-adv-x="1858" 
d="M929 -114c-438 0 -797 359 -797 796c0 438 359 797 797 797c437 0 796 -359 796 -797c0 -437 -358 -796 -796 -796zM929 116c314 0 567 253 566 566c0 314 -253 567 -566 567c-314 0 -566 -253 -566 -567c0 -313 252 -566 566 -566zM916 340c-129 0 -222 46 -256 107
c-9 16 -13 32 -13 50c0 45 33 76 82 76c29 0 52 -9 77 -31c41 -36 73 -50 122 -50c53 0 89 19 89 54c0 32 -21 43 -102 58l-77 15c-126 23 -197 87 -197 191c0 131 113 219 283 219c116 0 212 -46 248 -111c10 -17 15 -34 15 -52c0 -43 -32 -69 -78 -69c-35 0 -54 10 -85 36
c-32 34 -59 47 -102 47c-47 0 -75 -19 -75 -52c0 -29 22 -44 93 -55l82 -16c128 -22 197 -84 197 -192c0 -137 -118 -225 -303 -225z" />
    <glyph glyph-name="uni100029.small" unicode="S&#x20dd;&#x25cf;" horiz-adv-x="1858" 
d="M929 -114c-438 0 -797 359 -797 796c0 438 359 797 797 797c437 0 796 -359 796 -797c0 -437 -358 -796 -796 -796zM915 317c197 0 323 93 323 239c0 115 -74 182 -210 206l-88 16c-75 13 -99 28 -99 60c0 36 30 56 81 56c45 0 75 -14 109 -51c33 -27 53 -38 90 -38
c50 0 83 27 83 73c0 19 -6 38 -16 56c-38 69 -141 118 -264 118c-182 0 -302 -94 -302 -233c0 -111 75 -179 210 -203l83 -18c86 -16 108 -28 108 -62c0 -38 -38 -58 -95 -58c-53 0 -87 15 -131 54c-26 23 -50 34 -82 34c-51 0 -87 -33 -87 -82c0 -18 5 -36 14 -53
c36 -64 135 -114 273 -114z" />
    <glyph glyph-name="uni10002A.small" unicode="T&#x20dd;" horiz-adv-x="1858" 
d="M929 -114c-438 0 -797 359 -797 796c0 438 359 797 797 797c437 0 796 -359 796 -797c0 -437 -358 -796 -796 -796zM929 116c314 0 567 253 566 566c0 314 -253 567 -566 567c-314 0 -566 -253 -566 -567c0 -313 252 -566 566 -566zM928 342c-73 0 -115 48 -115 128v378
h-103c-59 0 -95 32 -95 87c0 54 36 86 95 86h438c58 0 94 -32 94 -86c0 -55 -36 -87 -94 -87h-104v-378c0 -80 -43 -128 -116 -128z" />
    <glyph glyph-name="uni10002B.small" unicode="T&#x20dd;&#x25cf;" horiz-adv-x="1858" 
d="M929 -114c-438 0 -797 359 -797 796c0 438 359 797 797 797c437 0 796 -359 796 -797c0 -437 -358 -796 -796 -796zM929 327c76 0 121 50 121 133v398h109c62 0 99 33 99 90c0 58 -37 92 -99 92h-460c-62 0 -99 -34 -99 -92c0 -57 37 -90 99 -90h109v-398
c0 -83 43 -133 121 -133z" />
    <glyph glyph-name="uni10002C.small" unicode="U&#x20dd;" horiz-adv-x="1858" 
d="M929 -114c-438 0 -797 359 -797 796c0 438 359 797 797 797c437 0 796 -359 796 -797c0 -437 -358 -796 -796 -796zM929 116c314 0 567 253 566 566c0 314 -253 567 -566 567c-314 0 -566 -253 -566 -567c0 -313 252 -566 566 -566zM929 340c-181 0 -305 100 -305 248
v324c0 73 38 114 104 114c67 0 105 -42 105 -114v-304c0 -58 38 -98 96 -98c57 0 96 40 96 98v304c0 72 37 114 103 114c67 0 105 -41 105 -114v-324c0 -148 -124 -248 -304 -248z" />
    <glyph glyph-name="uni10002D.small" unicode="U&#x20dd;&#x25cf;" horiz-adv-x="1858" 
d="M929 -114c-438 0 -797 359 -797 796c0 438 359 797 797 797c437 0 796 -359 796 -797c0 -437 -358 -796 -796 -796zM929 323c190 0 319 105 319 260v341c0 76 -39 119 -110 119c-69 0 -109 -44 -109 -119v-320c0 -61 -40 -103 -100 -103c-61 0 -101 42 -101 103v320
c0 75 -40 119 -110 119s-109 -43 -109 -119v-341c0 -155 130 -260 320 -260z" />
    <glyph glyph-name="uni10002E.small" unicode="V&#x20dd;" horiz-adv-x="1858" 
d="M929 -114c-438 0 -797 359 -797 796c0 438 359 797 797 797c437 0 796 -359 796 -797c0 -437 -358 -796 -796 -796zM929 116c314 0 567 253 566 566c0 314 -253 567 -566 567c-314 0 -566 -253 -566 -567c0 -313 252 -566 566 -566zM926 340c-95 0 -141 39 -169 126
l-137 403c-7 21 -9 35 -9 54c0 62 44 102 109 102c61 0 92 -28 107 -98l98 -383h6l98 383c15 71 45 98 107 98c65 0 110 -40 110 -100c0 -18 -2 -33 -9 -56l-136 -398c-29 -89 -79 -131 -175 -131z" />
    <glyph glyph-name="uni10002F.small" unicode="V&#x20dd;&#x25cf;" horiz-adv-x="1858" 
d="M929 -114c-438 0 -797 359 -797 796c0 438 359 797 797 797c437 0 796 -359 796 -797c0 -437 -358 -796 -796 -796zM926 323c101 0 153 44 183 138l143 417c8 23 10 40 10 58c0 64 -47 107 -116 107c-64 0 -96 -30 -112 -103l-103 -403h-6l-103 403
c-16 73 -48 103 -112 103c-69 0 -115 -44 -115 -109c0 -19 2 -34 10 -56l143 -422c30 -92 79 -133 178 -133z" />
    <glyph glyph-name="uni100030.small" unicode="W&#x20dd;" horiz-adv-x="1858" 
d="M929 -114c-438 0 -797 359 -797 796c0 438 359 797 797 797c437 0 796 -359 796 -797c0 -437 -358 -796 -796 -796zM929 116c314 0 567 253 566 566c0 314 -253 567 -566 567c-314 0 -566 -253 -566 -567c0 -313 252 -566 566 -566zM747 340c-62 0 -98 31 -110 95
l-102 481c-2 9 -3 17 -3 25c0 49 34 84 85 84s80 -29 88 -87l56 -360h7l75 367c9 48 37 71 85 71c49 0 77 -24 86 -72l74 -366h7l57 360c8 58 37 87 88 87s85 -35 85 -84c0 -8 -1 -16 -3 -25l-102 -481c-13 -64 -48 -95 -110 -95c-60 0 -98 33 -111 97l-67 306h-7l-68 -306
c-12 -64 -51 -97 -110 -97z" />
    <glyph glyph-name="uni100031.small" unicode="W&#x20dd;&#x25cf;" horiz-adv-x="1858" 
d="M929 -114c-438 0 -797 359 -797 796c0 438 359 797 797 797c437 0 796 -359 796 -797c0 -437 -358 -796 -796 -796zM738 323c63 0 103 35 116 102l71 321h7l71 -321c14 -67 54 -102 116 -102c65 0 103 33 116 100l107 506c2 8 3 17 3 25c0 51 -36 89 -89 89
s-84 -31 -92 -92l-60 -378h-7l-78 385c-10 49 -40 75 -90 75c-51 0 -80 -24 -90 -75l-79 -385h-7l-59 378c-8 61 -39 92 -93 92c-53 0 -88 -38 -88 -90c0 -8 0 -16 2 -24l107 -506c13 -67 51 -100 116 -100z" />
    <glyph glyph-name="uni100032.small" unicode="X&#x20dd;" horiz-adv-x="1858" 
d="M929 -114c-438 0 -797 359 -797 796c0 438 359 797 797 797c437 0 796 -359 796 -797c0 -437 -358 -796 -796 -796zM929 116c314 0 567 253 566 566c0 314 -253 567 -566 567c-314 0 -566 -253 -566 -567c0 -313 252 -566 566 -566zM727 343c-55 0 -93 37 -93 88
c0 25 8 46 28 72l138 183l-134 177c-20 27 -29 48 -29 74c0 52 39 89 94 89c42 0 65 -15 97 -64l102 -156h6l97 155c29 48 53 65 96 65c55 0 93 -36 93 -88c0 -25 -8 -46 -28 -73l-138 -181l137 -179c20 -26 29 -48 29 -73c0 -52 -39 -89 -95 -89c-42 0 -66 17 -96 66
l-99 154h-6l-103 -154c-32 -51 -55 -66 -96 -66z" />
    <glyph glyph-name="uni100033.small" unicode="X&#x20dd;&#x25cf;" horiz-adv-x="1858" 
d="M929 -114c-438 0 -797 359 -797 796c0 438 359 797 797 797c437 0 796 -359 796 -797c0 -437 -358 -796 -796 -796zM717 326c44 0 67 16 101 69l108 162h6l104 -162c32 -52 56 -69 101 -69c60 0 99 38 99 94c0 26 -9 48 -29 76l-144 188l144 190c21 28 30 50 30 76
c0 55 -40 93 -98 93c-45 0 -70 -17 -101 -68l-102 -163h-6l-107 164c-33 51 -57 67 -101 67c-59 0 -100 -39 -100 -94c0 -27 10 -49 31 -77l140 -186l-144 -192c-21 -27 -30 -49 -30 -75c0 -55 40 -93 98 -93z" />
    <glyph glyph-name="uni100034.small" unicode="Y&#x20dd;" horiz-adv-x="1858" 
d="M929 -114c-438 0 -797 359 -797 796c0 438 359 797 797 797c437 0 796 -359 796 -797c0 -437 -358 -796 -796 -796zM929 116c314 0 567 253 566 566c0 314 -253 567 -566 567c-314 0 -566 -253 -566 -567c0 -313 252 -566 566 -566zM929 343c-72 0 -113 47 -113 126v87
l-175 315c-12 21 -17 39 -17 59c0 55 43 96 102 96c51 0 77 -19 103 -78l97 -200h6l98 200c25 58 51 78 101 78c60 0 102 -41 102 -96c0 -20 -5 -39 -16 -59l-175 -314v-88c0 -79 -42 -126 -113 -126z" />
    <glyph glyph-name="uni100035.small" unicode="Y&#x20dd;&#x25cf;" horiz-adv-x="1858" 
d="M929 -114c-438 0 -797 359 -797 796c0 438 359 797 797 797c437 0 796 -359 796 -797c0 -437 -358 -796 -796 -796zM929 326c75 0 118 49 118 132v92l184 330c11 21 17 41 17 62c0 58 -44 101 -107 101c-53 0 -80 -20 -106 -82l-103 -210h-6l-103 210
c-26 62 -53 82 -107 82c-62 0 -107 -43 -107 -100c0 -22 6 -41 17 -63l185 -330v-92c0 -83 42 -132 118 -132z" />
    <glyph glyph-name="uni100036.small" unicode="Z&#x20dd;" horiz-adv-x="1858" 
d="M929 -114c-438 0 -797 359 -797 796c0 438 359 797 797 797c437 0 796 -359 796 -797c0 -437 -358 -796 -796 -796zM929 116c314 0 567 253 566 566c0 314 -253 567 -566 567c-314 0 -566 -253 -566 -567c0 -313 252 -566 566 -566zM749 356c-56 0 -95 36 -95 90
c0 34 11 60 40 94l241 298v8h-199c-58 0 -95 31 -95 84c0 52 36 83 95 83h364c57 0 96 -37 96 -91c0 -38 -8 -56 -39 -92l-242 -299v-8h208c58 0 95 -31 95 -83s-38 -84 -95 -84h-374z" />
    <glyph glyph-name="uni100037.small" unicode="Z&#x20dd;&#x25cf;" horiz-adv-x="1858" 
d="M929 -114c-438 0 -797 359 -797 796c0 438 359 797 797 797c437 0 796 -359 796 -797c0 -437 -358 -796 -796 -796zM739 340h393c60 0 100 33 100 88s-39 87 -100 87h-219v8l255 314c33 38 41 58 41 97c0 57 -41 96 -100 96h-383c-62 0 -100 -33 -100 -88s39 -88 100 -88
h209v-8l-253 -313c-30 -36 -42 -63 -42 -99c0 -56 41 -94 99 -94z" />
    <glyph glyph-name="uni100038.small" unicode="&#x30;&#x20dd;" horiz-adv-x="1858" 
d="M929 -114c-438 0 -797 359 -797 796c0 438 359 797 797 797c437 0 796 -359 796 -797c0 -437 -358 -796 -796 -796zM929 116c314 0 567 253 566 566c0 314 -253 567 -566 567c-314 0 -566 -253 -566 -567c0 -313 252 -566 566 -566zM926 339c-175 0 -286 134 -286 344
s111 343 286 343s291 -133 291 -343s-116 -344 -291 -344zM929 501c51 0 85 55 85 182s-34 182 -85 182s-86 -55 -86 -182s35 -182 86 -182z" />
    <glyph glyph-name="uni100039.small" unicode="&#x30;&#x20dd;&#x25cf;" horiz-adv-x="1858" 
d="M929 -114c-438 0 -797 359 -797 796c0 438 359 797 797 797c437 0 796 -359 796 -797c0 -437 -358 -796 -796 -796zM922 322c183 0 305 141 305 361s-122 360 -305 360c-184 0 -301 -140 -301 -360s117 -361 301 -361zM924 492c-53 0 -89 58 -89 191s36 191 89 191
c54 0 90 -58 90 -191s-36 -191 -90 -191z" />
    <glyph glyph-name="uni10003A.small" unicode="&#x31;&#x20dd;" horiz-adv-x="1858" 
d="M929 -114c-438 0 -797 359 -797 796c0 438 359 797 797 797c437 0 796 -359 796 -797c0 -437 -358 -796 -796 -796zM929 116c314 0 567 253 566 566c0 314 -253 567 -566 567c-314 0 -566 -253 -566 -567c0 -313 252 -566 566 -566zM979 346c-65 0 -107 35 -107 112v358
h-7l-64 -43c-25 -17 -37 -19 -55 -19c-40 0 -70 32 -70 73c0 34 15 56 45 75l112 75c49 31 85 43 131 43c73 0 123 -45 123 -112v-450c0 -77 -43 -112 -108 -112z" />
    <glyph glyph-name="uni10003B.small" unicode="&#x31;&#x20dd;&#x25cf;" horiz-adv-x="1858" 
d="M929 -114c-438 0 -797 359 -797 796c0 438 359 797 797 797c437 0 796 -359 796 -797c0 -437 -358 -796 -796 -796zM976 329c68 0 113 37 113 118v472c0 70 -52 118 -129 118c-48 0 -86 -13 -137 -46l-117 -78c-32 -21 -47 -44 -47 -78c0 -44 31 -78 73 -78
c19 0 31 2 56 20l68 45h8v-375c0 -81 44 -118 112 -118z" />
    <glyph glyph-name="uni10003C.small" unicode="&#x32;&#x20dd;" horiz-adv-x="1858" 
d="M929 -114c-438 0 -797 359 -797 796c0 438 359 797 797 797c437 0 796 -359 796 -797c0 -437 -358 -796 -796 -796zM929 116c314 0 567 253 566 566c0 314 -253 567 -566 567c-314 0 -566 -253 -566 -567c0 -313 252 -566 566 -566zM763 358c-52 0 -88 34 -88 81
c0 30 8 57 44 87l190 174c49 43 75 75 75 109c0 33 -23 54 -61 54c-40 0 -60 -29 -79 -55c-18 -23 -39 -44 -82 -44c-54 0 -90 27 -90 78c0 14 3 28 8 41c30 85 130 143 252 143c154 0 258 -80 258 -199c0 -72 -41 -130 -124 -201l-99 -94v-7h158c59 0 93 -30 93 -83
c0 -52 -36 -84 -93 -84h-362z" />
    <glyph glyph-name="uni10003D.small" unicode="&#x32;&#x20dd;&#x25cf;" horiz-adv-x="1858" 
d="M929 -114c-438 0 -797 359 -797 796c0 438 359 797 797 797c437 0 796 -359 796 -797c0 -437 -358 -796 -796 -796zM751 342h379c61 0 99 34 99 88c0 55 -37 87 -99 87h-165v8l104 98c87 74 131 135 131 211c0 125 -110 209 -272 209c-128 0 -233 -61 -265 -150
c-5 -15 -7 -30 -7 -44c0 -54 38 -82 95 -82c44 0 66 23 85 47c19 27 41 57 83 57c40 0 64 -22 64 -56c0 -36 -27 -70 -79 -115l-200 -182c-37 -32 -45 -60 -45 -91c0 -50 37 -85 92 -85z" />
    <glyph glyph-name="uni10003E.small" unicode="&#x33;&#x20dd;" horiz-adv-x="1858" 
d="M929 -115c-438 0 -797 358 -797 796s359 797 797 797c437 0 796 -359 796 -797s-358 -796 -796 -796zM929 115c314 0 567 252 566 566c0 314 -253 567 -566 567c-314 0 -566 -253 -566 -567s252 -566 566 -566zM931 338c-127 0 -232 55 -258 133c-5 13 -7 26 -7 40
c0 48 35 79 90 79c35 0 60 -13 80 -43c21 -32 50 -52 99 -52c46 0 77 22 77 56c0 36 -30 58 -82 58h-17c-54 0 -88 31 -88 78s33 76 88 76h15c44 0 72 24 72 60c0 31 -26 51 -68 51c-40 0 -70 -19 -89 -53c-20 -30 -45 -43 -80 -43c-56 0 -91 31 -91 79c0 14 3 27 7 40
c27 80 122 128 254 128c161 0 266 -72 266 -180c0 -68 -56 -131 -125 -140v-10c82 -7 143 -73 143 -157c0 -121 -109 -200 -286 -200z" />
    <glyph glyph-name="uni10003F.small" unicode="&#x33;&#x20dd;&#x25cf;" horiz-adv-x="1858" 
d="M929 -114c-438 0 -797 359 -797 796c0 438 359 797 797 797c437 0 796 -359 796 -797c0 -437 -358 -796 -796 -796zM927 322c186 0 301 83 301 211c0 87 -64 157 -150 164v10c72 10 131 76 131 147c0 114 -110 189 -279 189c-139 0 -238 -51 -266 -134
c-5 -14 -7 -27 -7 -42c0 -51 36 -83 95 -83c37 0 62 14 84 46c20 34 51 55 93 55c44 0 71 -21 71 -54c0 -37 -29 -63 -75 -63h-17c-56 0 -91 -30 -91 -80c0 -49 36 -81 91 -81h19c54 0 86 -23 86 -61c0 -35 -33 -59 -80 -59c-52 0 -83 21 -104 55c-22 31 -48 45 -85 45
c-58 0 -95 -33 -95 -84c0 -14 3 -27 7 -41c29 -82 139 -140 271 -140z" />
    <glyph glyph-name="uni100040.small" unicode="&#x34;&#x20dd;" horiz-adv-x="1858" 
d="M929 -114c-438 0 -797 359 -797 796c0 438 359 797 797 797c437 0 796 -359 796 -797c0 -437 -358 -796 -796 -796zM929 116c314 0 567 253 566 566c0 314 -253 567 -566 567c-314 0 -566 -253 -566 -567c0 -313 252 -566 566 -566zM1027 346c-53 0 -87 31 -87 92v22
h-207c-75 0 -123 44 -123 112c0 30 7 62 25 101c37 68 90 157 143 242c48 82 97 111 187 111c86 0 149 -55 149 -130v-277h22c55 0 88 -31 88 -80c0 -48 -34 -79 -89 -79h-21v-22c0 -61 -34 -92 -87 -92zM940 619v264h-7c-52 -89 -107 -189 -143 -259v-5h150z" />
    <glyph glyph-name="uni100041.small" unicode="&#x34;&#x20dd;&#x25cf;" horiz-adv-x="1858" 
d="M929 -114c-438 0 -797 359 -797 796c0 438 359 797 797 797c437 0 796 -359 796 -797c0 -437 -358 -796 -796 -796zM1037 329c57 0 93 33 93 98v22h21c58 0 94 33 94 83c0 51 -35 83 -93 83h-22v292c0 78 -67 136 -157 136c-94 0 -146 -31 -197 -117
c-55 -89 -111 -182 -149 -254c-19 -41 -26 -74 -26 -105c0 -72 50 -118 129 -118h216v-22c0 -65 36 -98 91 -98zM946 615h-157v6c39 73 96 178 150 272h7v-278z" />
    <glyph glyph-name="uni100042.small" unicode="&#x35;&#x20dd;" horiz-adv-x="1858" 
d="M929 -114c-438 0 -797 359 -797 796c0 438 359 797 797 797c437 0 796 -359 796 -797c0 -437 -358 -796 -796 -796zM929 116c314 0 567 253 566 566c0 314 -253 567 -566 567c-314 0 -566 -253 -566 -567c0 -313 252 -566 566 -566zM925 339c-134 0 -225 43 -254 111
c-6 13 -9 27 -9 42c0 46 32 76 87 76c40 0 62 -13 80 -30c22 -24 49 -42 91 -42c49 0 85 36 85 83s-31 79 -77 79c-27 0 -45 -8 -68 -21c-25 -14 -47 -23 -85 -23c-74 0 -112 37 -108 106l13 187c4 60 46 101 109 101h305c54 0 84 -27 84 -74c0 -46 -32 -74 -84 -74h-252
l-10 -125h10c22 38 82 63 146 63c132 0 220 -84 220 -214c0 -150 -110 -245 -283 -245z" />
    <glyph glyph-name="uni100043.small" unicode="&#x35;&#x20dd;&#x25cf;" horiz-adv-x="1858" 
d="M929 -114c-438 0 -797 359 -797 796c0 438 359 797 797 797c437 0 796 -359 796 -797c0 -437 -358 -796 -796 -796zM937 323c181 0 297 100 297 257c0 136 -92 224 -231 224c-68 0 -130 -27 -153 -67h-11l11 132h264c55 0 88 29 88 78s-32 77 -88 77h-320
c-66 0 -110 -43 -114 -105l-13 -196c-5 -72 35 -112 113 -112c40 0 63 9 88 23c24 15 44 23 72 23c49 0 81 -33 81 -83c0 -49 -38 -86 -89 -86c-44 0 -73 18 -96 44c-19 17 -41 31 -83 31c-58 0 -92 -32 -92 -79c0 -16 4 -31 10 -45c30 -71 125 -116 266 -116z" />
    <glyph glyph-name="uni100044.small" unicode="&#x36;&#x20dd;" horiz-adv-x="1858" 
d="M929 -114c-438 0 -797 359 -797 796c0 438 359 797 797 797c437 0 796 -359 796 -797c0 -437 -358 -796 -796 -796zM929 116c314 0 567 253 566 566c0 314 -253 567 -566 567c-314 0 -566 -253 -566 -567c0 -313 252 -566 566 -566zM936 339c-111 0 -196 42 -247 123
c-35 55 -53 129 -53 222c0 223 119 342 318 342c97 0 178 -34 209 -86c11 -17 16 -34 16 -53c0 -41 -30 -69 -77 -69c-36 0 -56 14 -78 29c-20 14 -38 28 -73 28c-69 0 -112 -62 -112 -148c0 -8 0 -16 2 -25h7c26 44 84 79 159 79c118 0 208 -76 208 -201
c0 -149 -113 -241 -279 -241zM926 491c50 0 83 34 83 84c0 49 -34 83 -83 83c-50 0 -84 -34 -84 -82c0 -50 34 -85 84 -85z" />
    <glyph glyph-name="uni100045.small" unicode="&#x36;&#x20dd;&#x25cf;" horiz-adv-x="1858" 
d="M929 -114c-438 0 -797 359 -797 796c0 438 359 797 797 797c437 0 796 -359 796 -797c0 -437 -358 -796 -796 -796zM939 322c175 0 293 96 293 253c0 131 -94 211 -219 211c-78 0 -139 -37 -166 -83h-7c-2 9 -2 17 -2 26c0 90 45 156 118 156c36 0 55 -15 76 -30
c23 -16 44 -31 82 -31c48 0 81 30 81 73c0 21 -6 39 -17 56c-33 54 -118 90 -220 90c-208 0 -334 -125 -334 -359c0 -97 20 -175 57 -233c53 -84 142 -129 258 -129zM928 482c-51 0 -87 36 -87 89c0 50 36 86 87 86c52 0 88 -36 88 -87c0 -53 -35 -88 -88 -88z" />
    <glyph glyph-name="uni100046.small" unicode="&#x37;&#x20dd;" horiz-adv-x="1858" 
d="M929 -114c-438 0 -797 359 -797 796c0 438 359 797 797 797c437 0 796 -359 796 -797c0 -437 -358 -796 -796 -796zM929 116c314 0 567 253 566 566c0 314 -253 567 -566 567c-314 0 -566 -253 -566 -567c0 -313 252 -566 566 -566zM857 340c-60 0 -101 35 -101 89
c0 24 6 44 18 63l216 343v8h-242c-56 0 -92 32 -92 82c0 51 35 83 92 83h339c80 0 129 -45 129 -113c0 -35 -9 -66 -32 -104l-226 -382c-32 -52 -57 -69 -101 -69z" />
    <glyph glyph-name="uni100047.small" unicode="&#x37;&#x20dd;&#x25cf;" horiz-adv-x="1858" 
d="M929 -114c-438 0 -797 359 -797 796c0 438 359 797 797 797c437 0 796 -359 796 -797c0 -437 -358 -796 -796 -796zM852 323c45 0 72 19 105 73l237 400c25 41 34 73 34 109c0 73 -51 119 -136 119h-356c-58 0 -95 -33 -95 -86s37 -86 95 -86h254v-9l-226 -360
c-12 -20 -19 -41 -19 -66c0 -56 43 -94 107 -94z" />
    <glyph glyph-name="uni100048.small" unicode="&#x38;&#x20dd;" horiz-adv-x="1858" 
d="M929 -114c-438 0 -797 359 -797 796c0 438 359 797 797 797c437 0 796 -359 796 -797c0 -437 -358 -796 -796 -796zM929 116c314 0 567 253 566 566c0 314 -253 567 -566 567c-314 0 -566 -253 -566 -567c0 -313 252 -566 566 -566zM928 339c-185 0 -301 77 -301 200
c0 84 59 146 152 159v8c-83 23 -124 70 -124 141c0 109 107 179 274 179s273 -70 273 -179c0 -71 -42 -118 -124 -141v-8c93 -13 152 -74 152 -159c0 -123 -117 -200 -302 -200zM929 758c40 0 69 28 69 66c0 37 -30 65 -69 65c-40 0 -70 -28 -70 -65c0 -38 30 -66 70 -66z
M929 477c49 0 85 33 85 78s-35 79 -85 79c-49 0 -85 -34 -85 -79s35 -78 85 -78z" />
    <glyph glyph-name="uni100049.small" unicode="&#x38;&#x20dd;&#x25cf;" horiz-adv-x="1858" 
d="M929 -114c-438 0 -797 359 -797 796c0 438 359 797 797 797c437 0 796 -359 796 -797c0 -437 -358 -796 -796 -796zM928 322c194 0 317 81 317 211c0 87 -62 152 -160 166v8c87 23 130 74 130 148c0 114 -111 188 -286 188s-287 -74 -287 -188c0 -74 43 -124 130 -148v-8
c-98 -14 -159 -79 -159 -167c0 -129 121 -210 315 -210zM929 762c-42 0 -73 29 -73 69c0 39 31 68 73 68c41 0 73 -29 73 -68c0 -40 -31 -69 -73 -69zM929 467c-52 0 -89 34 -89 82c0 47 37 82 89 82s89 -35 89 -82c0 -48 -37 -82 -89 -82z" />
    <glyph glyph-name="uni10004A.small" unicode="&#x39;&#x20dd;" horiz-adv-x="1858" 
d="M929 -114c-438 0 -797 359 -797 796c0 438 359 797 797 797c437 0 796 -359 796 -797c0 -437 -358 -796 -796 -796zM929 116c314 0 567 253 566 566c0 314 -253 567 -566 567c-314 0 -566 -253 -566 -567c0 -313 252 -566 566 -566zM922 339c-128 0 -202 45 -228 98
c-6 12 -9 25 -9 39c0 42 35 74 80 74c39 0 59 -12 76 -25c24 -20 46 -33 80 -33c67 0 111 72 101 172h-7c-23 -50 -74 -85 -152 -85c-125 0 -216 78 -216 207c0 142 115 240 280 240c187 0 297 -123 297 -336c0 -223 -110 -351 -302 -351zM936 707c50 0 84 35 84 84
s-36 86 -84 86c-51 0 -86 -35 -86 -86c0 -49 36 -84 86 -84z" />
    <glyph glyph-name="uni10004B.small" unicode="&#x39;&#x20dd;&#x25cf;" horiz-adv-x="1858" 
d="M929 -114c-438 0 -797 359 -797 796c0 438 359 797 797 797c437 0 796 -359 796 -797c0 -437 -358 -796 -796 -796zM930 322c202 0 318 134 318 368c0 224 -115 353 -311 353c-174 0 -295 -103 -295 -252c0 -136 96 -217 227 -217c82 0 135 37 160 90h7
c10 -106 -36 -181 -106 -181c-36 0 -59 13 -84 35c-18 13 -39 26 -80 26c-46 0 -84 -34 -84 -78c0 -15 3 -28 9 -41c28 -56 106 -103 239 -103zM945 708c-52 0 -89 36 -89 88c0 53 36 90 89 90c51 0 89 -38 89 -90c0 -51 -36 -88 -89 -88z" />
    <glyph glyph-name="uni100094.small" unicode="A&#x20de;" horiz-adv-x="1822" 
d="M466 -40c-177 0 -277 99 -277 276v892c0 177 100 276 277 276h890c177 0 277 -99 277 -276v-892c0 -177 -100 -276 -277 -276h-890zM495 187h832c52 0 79 24 79 80v830c0 56 -27 80 -79 80h-832c-52 0 -79 -24 -79 -80v-830c0 -56 27 -80 79 -80zM697 340
c-62 0 -99 36 -99 95c0 16 5 38 14 68l135 397c29 88 80 129 162 129c84 0 138 -42 166 -129l135 -397c9 -30 14 -52 14 -68c0 -59 -37 -95 -99 -95c-52 0 -85 30 -99 92l-17 50h-196l-17 -50c-14 -62 -46 -92 -99 -92zM849 628h124l-58 222h-8z" />
    <glyph glyph-name="uni100095.small" unicode="A&#x20de;&#x25a0;" horiz-adv-x="1822" 
d="M466 -40c-177 0 -277 99 -277 276v892c0 177 100 276 277 276h890c177 0 277 -99 277 -276v-892c0 -177 -100 -276 -277 -276h-890zM693 323c55 0 89 31 104 96l18 53h205l18 -53c14 -65 49 -96 104 -96c65 0 104 37 104 99c0 18 -6 41 -15 72l-142 417
c-29 92 -86 135 -174 135c-86 0 -140 -43 -170 -135l-142 -417c-9 -31 -14 -54 -14 -72c0 -62 39 -99 104 -99zM852 625l61 233h8l61 -233h-130z" />
    <glyph glyph-name="uni100096.small" unicode="B&#x20de;" horiz-adv-x="1822" 
d="M466 -40c-177 0 -277 99 -277 276v892c0 177 100 276 277 276h890c177 0 277 -99 277 -276v-892c0 -177 -100 -276 -277 -276h-890zM495 187h832c52 0 79 24 79 80v830c0 56 -27 80 -79 80h-832c-52 0 -79 -24 -79 -80v-830c0 -56 27 -80 79 -80zM748 356
c-80 0 -120 41 -120 121v415c0 80 41 121 120 121h224c130 0 210 -61 210 -161c0 -74 -51 -130 -129 -143v-7c100 -12 158 -73 158 -165c0 -107 -94 -181 -230 -181h-233zM823 752h71c61 0 94 24 94 68c0 40 -31 65 -81 65h-84v-133zM823 492h77c70 0 105 25 105 74
c0 45 -34 73 -93 73h-89v-147z" />
    <glyph glyph-name="uni100097.small" unicode="B&#x20de;&#x25a0;" horiz-adv-x="1822" 
d="M466 -40c-177 0 -277 99 -277 276v892c0 177 100 276 277 276h890c177 0 277 -99 277 -276v-892c0 -177 -100 -276 -277 -276h-890zM755 340h245c143 0 242 77 242 189c0 97 -62 161 -166 174v7c82 14 135 73 135 150c0 105 -84 170 -220 170h-236
c-83 0 -126 -44 -126 -128v-435c0 -84 43 -127 126 -127zM834 756v139h88c52 0 86 -27 86 -68c0 -46 -35 -71 -100 -71h-74zM833 482v155h95c61 0 97 -29 97 -77c0 -51 -37 -78 -111 -78h-81z" />
    <glyph glyph-name="uni100098.small" unicode="C&#x20de;" horiz-adv-x="1822" 
d="M466 -40c-177 0 -277 99 -277 276v892c0 177 100 276 277 276h890c177 0 277 -99 277 -276v-892c0 -177 -100 -276 -277 -276h-890zM495 187h832c52 0 79 24 79 80v830c0 56 -27 80 -79 80h-832c-52 0 -79 -24 -79 -80v-830c0 -56 27 -80 79 -80zM908 340
c-199 0 -329 136 -329 344c0 209 130 345 329 345c132 0 240 -60 280 -155c8 -16 11 -33 11 -51c0 -51 -35 -82 -94 -82c-42 0 -65 14 -88 54c-22 42 -58 63 -106 63c-75 0 -122 -66 -122 -174c0 -107 47 -173 122 -173c48 0 84 21 106 62c21 37 47 53 88 53
c59 0 94 -31 94 -82c0 -18 -3 -35 -11 -50c-39 -95 -147 -154 -280 -154z" />
    <glyph glyph-name="uni100099.small" unicode="C&#x20de;&#x25a0;" horiz-adv-x="1822" 
d="M466 -40c-177 0 -277 99 -277 276v892c0 177 100 276 277 276h890c177 0 277 -99 277 -276v-892c0 -177 -100 -276 -277 -276h-890zM931 317c142 0 257 62 301 163c7 18 11 35 11 55c0 54 -38 87 -101 87c-44 0 -73 -16 -95 -57c-23 -43 -61 -65 -113 -65
c-80 0 -130 70 -130 184c0 115 50 185 131 185c51 0 89 -23 112 -67c24 -42 49 -57 95 -57c63 0 101 33 101 88c0 19 -4 37 -11 54c-44 101 -160 165 -301 165c-213 0 -352 -145 -352 -368c0 -222 139 -367 352 -367z" />
    <glyph glyph-name="uni10009A.small" unicode="D&#x20de;" horiz-adv-x="1822" 
d="M466 -40c-177 0 -277 99 -277 276v892c0 177 100 276 277 276h890c177 0 277 -99 277 -276v-892c0 -177 -100 -276 -277 -276h-890zM495 187h832c52 0 79 24 79 80v830c0 56 -27 80 -79 80h-832c-52 0 -79 -24 -79 -80v-830c0 -56 27 -80 79 -80zM737 356
c-78 0 -117 42 -117 121v415c0 78 39 121 117 121h181c205 0 320 -118 320 -328c0 -211 -115 -329 -320 -329h-181zM822 513h62c95 0 138 52 138 171c0 118 -43 172 -138 172h-62v-343z" />
    <glyph glyph-name="uni10009B.small" unicode="D&#x20de;&#x25a0;" horiz-adv-x="1822" 
d="M466 -40c-177 0 -277 99 -277 276v892c0 177 100 276 277 276h890c177 0 277 -99 277 -276v-892c0 -177 -100 -276 -277 -276h-890zM746 340h190c215 0 336 123 336 345c0 221 -120 345 -336 345h-190c-81 0 -123 -46 -123 -128v-435c0 -83 41 -127 123 -127zM836 504
v360h64c100 0 146 -56 146 -180c0 -125 -45 -180 -146 -180h-64z" />
    <glyph glyph-name="uni10009C.small" unicode="E&#x20de;" horiz-adv-x="1822" 
d="M466 -40c-177 0 -277 99 -277 276v892c0 177 100 276 277 276h890c177 0 277 -99 277 -276v-892c0 -177 -100 -276 -277 -276h-890zM495 187h832c52 0 79 24 79 80v830c0 56 -27 80 -79 80h-832c-52 0 -79 -24 -79 -80v-830c0 -56 27 -80 79 -80zM761 356
c-79 0 -118 42 -118 121v415c0 78 40 121 118 121h299c55 0 88 -29 88 -79c0 -51 -33 -80 -88 -80h-215v-98h209c47 0 75 -25 75 -68c0 -44 -28 -68 -75 -68h-209v-105h215c55 0 88 -29 88 -79c0 -51 -33 -80 -88 -80h-299z" />
    <glyph glyph-name="uni10009D.small" unicode="E&#x20de;&#x25a0;" horiz-adv-x="1822" 
d="M466 -40c-177 0 -277 99 -277 276v892c0 177 100 276 277 276h890c177 0 277 -99 277 -276v-892c0 -177 -100 -276 -277 -276h-890zM770 340h313c58 0 93 30 93 83s-35 84 -93 84h-225v109h219c49 0 79 27 79 72c0 46 -30 72 -79 72h-219v102h225c58 0 93 31 93 84
s-35 84 -93 84h-313c-82 0 -124 -46 -124 -128v-435c0 -83 42 -127 124 -127z" />
    <glyph glyph-name="uni10009E.small" unicode="F&#x20de;" horiz-adv-x="1822" 
d="M466 -40c-177 0 -277 99 -277 276v892c0 177 100 276 277 276h890c177 0 277 -99 277 -276v-892c0 -177 -100 -276 -277 -276h-890zM495 187h832c52 0 79 24 79 80v830c0 56 -27 80 -79 80h-832c-52 0 -79 -24 -79 -80v-830c0 -56 27 -80 79 -80zM764 344
c-68 0 -106 44 -106 117v431c0 78 39 121 117 121h302c55 0 88 -29 88 -79c0 -51 -33 -80 -88 -80h-208v-110h199c47 0 75 -27 75 -72c0 -44 -28 -71 -75 -71h-197v-140c0 -73 -40 -117 -107 -117z" />
    <glyph glyph-name="uni10009F.small" unicode="F&#x20de;&#x25a0;" horiz-adv-x="1822" 
d="M466 -40c-177 0 -277 99 -277 276v892c0 177 100 276 277 276h890c177 0 277 -99 277 -276v-892c0 -177 -100 -276 -277 -276h-890zM775 327c71 0 113 46 113 123v147h206c49 0 80 28 80 75s-31 75 -80 75h-209v116h219c58 0 93 30 93 83s-35 84 -93 84h-317
c-82 0 -123 -45 -123 -127v-453c0 -77 40 -123 111 -123z" />
    <glyph glyph-name="uni1000A0.small" unicode="G&#x20de;" horiz-adv-x="1822" 
d="M466 -40c-177 0 -277 99 -277 276v892c0 177 100 276 277 276h890c177 0 277 -99 277 -276v-892c0 -177 -100 -276 -277 -276h-890zM495 187h832c52 0 79 24 79 80v830c0 56 -27 80 -79 80h-832c-52 0 -79 -24 -79 -80v-830c0 -56 27 -80 79 -80zM909 340
c-200 0 -330 136 -330 344c0 209 130 345 329 345c133 0 238 -54 274 -139c7 -15 10 -31 10 -47c0 -47 -33 -75 -86 -75c-52 0 -73 20 -91 44c-22 35 -51 58 -100 58c-77 0 -126 -74 -126 -186c0 -113 49 -191 127 -191c67 0 106 36 106 87v20h-53c-44 0 -69 25 -69 63
s24 63 69 63h155c61 0 93 -33 93 -95v-23c0 -152 -119 -268 -308 -268z" />
    <glyph glyph-name="uni1000A1.small" unicode="G&#x20de;&#x25a0;" horiz-adv-x="1822" 
d="M466 -40c-177 0 -277 99 -277 276v892c0 177 100 276 277 276h890c177 0 277 -99 277 -276v-892c0 -177 -100 -276 -277 -276h-890zM925 323c199 0 324 122 324 281v25c0 65 -34 99 -98 99h-163c-48 0 -73 -26 -73 -66c0 -39 26 -66 73 -66h55v-21
c0 -53 -40 -92 -110 -92c-82 0 -134 82 -134 201c0 118 51 196 133 196c51 0 82 -25 104 -61c19 -26 42 -47 96 -47c56 0 91 30 91 79c0 17 -4 33 -11 49c-38 89 -149 146 -288 146c-209 0 -346 -142 -346 -362c0 -219 137 -361 347 -361z" />
    <glyph glyph-name="uni1000A2.small" unicode="H&#x20de;" horiz-adv-x="1822" 
d="M466 -40c-177 0 -277 99 -277 276v892c0 177 100 276 277 276h890c177 0 277 -99 277 -276v-892c0 -177 -100 -276 -277 -276h-890zM495 187h832c52 0 79 24 79 80v830c0 56 -27 80 -79 80h-832c-52 0 -79 -24 -79 -80v-830c0 -56 27 -80 79 -80zM702 344
c-70 0 -110 45 -110 122v437c0 78 40 123 110 123s111 -46 111 -123v-134h195v134c0 78 41 123 111 123s111 -46 111 -123v-437c0 -77 -41 -122 -111 -122s-111 45 -111 122v137h-195v-137c0 -77 -41 -122 -111 -122z" />
    <glyph glyph-name="uni1000A3.small" unicode="H&#x20de;&#x25a0;" horiz-adv-x="1822" 
d="M466 -40c-177 0 -277 99 -277 276v892c0 177 100 276 277 276h890c177 0 277 -99 277 -276v-892c0 -177 -100 -276 -277 -276h-890zM698 326c73 0 117 48 117 129v144h205v-144c0 -81 42 -129 115 -129c74 0 117 48 117 129v459c0 81 -43 129 -117 129
c-73 0 -115 -48 -115 -129v-141h-205v141c0 81 -44 129 -117 129s-116 -48 -116 -129v-459c0 -81 43 -129 116 -129z" />
    <glyph glyph-name="uni1000A4.small" unicode="I&#x20de;" horiz-adv-x="1822" 
d="M466 -40c-177 0 -277 99 -277 276v892c0 177 100 276 277 276h890c177 0 277 -99 277 -276v-892c0 -177 -100 -276 -277 -276h-890zM495 187h832c52 0 79 24 79 80v830c0 56 -27 80 -79 80h-832c-52 0 -79 -24 -79 -80v-830c0 -56 27 -80 79 -80zM911 344
c-74 0 -115 47 -115 127v427c0 80 41 128 115 128c73 0 115 -48 115 -128v-427c0 -80 -42 -127 -115 -127z" />
    <glyph glyph-name="uni1000A5.small" unicode="I&#x20de;&#x25a0;" horiz-adv-x="1822" 
d="M466 -40c-177 0 -277 99 -277 276v892c0 177 100 276 277 276h890c177 0 277 -99 277 -276v-892c0 -177 -100 -276 -277 -276h-890zM917 326c77 0 121 51 121 134v449c0 84 -44 134 -121 134s-121 -50 -121 -134v-449c0 -83 44 -134 121 -134z" />
    <glyph glyph-name="uni1000A6.small" unicode="J&#x20de;" horiz-adv-x="1822" 
d="M466 -40c-177 0 -277 99 -277 276v892c0 177 100 276 277 276h890c177 0 277 -99 277 -276v-892c0 -177 -100 -276 -277 -276h-890zM495 187h832c52 0 79 24 79 80v830c0 56 -27 80 -79 80h-832c-52 0 -79 -24 -79 -80v-830c0 -56 27 -80 79 -80zM881 340
c-129 0 -228 59 -257 151c-4 14 -7 30 -7 47c0 58 40 97 99 98c54 0 85 -23 100 -70c11 -28 30 -43 60 -43c38 0 57 25 57 80v301c0 76 40 122 110 122c69 0 109 -46 109 -122v-307c0 -164 -101 -257 -271 -257z" />
    <glyph glyph-name="uni1000A7.small" unicode="J&#x20de;&#x25a0;" horiz-adv-x="1822" 
d="M466 -40c-177 0 -277 99 -277 276v892c0 177 100 276 277 276h890c177 0 277 -99 277 -276v-892c0 -177 -100 -276 -277 -276h-890zM897 323c178 0 284 98 284 269v323c0 80 -42 128 -115 128s-115 -48 -115 -128v-316c0 -58 -19 -84 -60 -84c-32 0 -52 15 -63 45
c-15 49 -48 73 -105 73c-62 0 -103 -42 -103 -102c0 -18 2 -34 7 -50c30 -96 133 -158 270 -158z" />
    <glyph glyph-name="uni1000A8.small" unicode="K&#x20de;" horiz-adv-x="1822" 
d="M466 -40c-177 0 -277 99 -277 276v892c0 177 100 276 277 276h890c177 0 277 -99 277 -276v-892c0 -177 -100 -276 -277 -276h-890zM495 187h832c52 0 79 24 79 80v830c0 56 -27 80 -79 80h-832c-52 0 -79 -24 -79 -80v-830c0 -56 27 -80 79 -80zM716 353
c-65 0 -102 41 -102 113v437c0 72 37 113 102 113s103 -42 103 -113v-159h6l189 224c27 35 49 48 84 48c52 0 95 -36 95 -83c0 -28 -8 -45 -30 -71l-132 -151l144 -195c19 -26 26 -44 26 -71c0 -53 -42 -92 -99 -92c-37 0 -61 14 -88 51l-135 185l-60 -70v-58
c0 -69 -40 -108 -103 -108z" />
    <glyph glyph-name="uni1000A9.small" unicode="K&#x20de;&#x25a0;" horiz-adv-x="1822" 
d="M466 -40c-177 0 -277 99 -277 276v892c0 177 100 276 277 276h890c177 0 277 -99 277 -276v-892c0 -177 -100 -276 -277 -276h-890zM722 336c66 0 108 42 108 114v61l63 74l142 -196c28 -38 53 -53 92 -53c59 0 104 42 104 98c0 27 -7 46 -27 74l-151 205l138 158
c24 27 32 45 32 75c0 49 -45 87 -100 87c-36 0 -60 -14 -89 -51l-197 -235h-7v167c0 75 -40 119 -108 119s-107 -43 -107 -119v-459c0 -75 39 -119 107 -119z" />
    <glyph glyph-name="uni1000AA.small" unicode="L&#x20de;" horiz-adv-x="1822" 
d="M466 -40c-177 0 -277 99 -277 276v892c0 177 100 276 277 276h890c177 0 277 -99 277 -276v-892c0 -177 -100 -276 -277 -276h-890zM495 187h832c52 0 79 24 79 80v830c0 56 -27 80 -79 80h-832c-52 0 -79 -24 -79 -80v-830c0 -56 27 -80 79 -80zM786 356
c-74 0 -115 48 -115 128v414c0 80 41 128 115 128c73 0 115 -48 115 -128v-363h181c59 0 97 -33 97 -89c0 -57 -38 -90 -97 -90h-296z" />
    <glyph glyph-name="uni1000AB.small" unicode="L&#x20de;&#x25a0;" horiz-adv-x="1822" 
d="M466 -40c-177 0 -277 99 -277 276v892c0 177 100 276 277 276h890c177 0 277 -99 277 -276v-892c0 -177 -100 -276 -277 -276h-890zM794 340h311c63 0 102 34 102 93c0 60 -39 94 -102 94h-190v381c0 84 -44 134 -121 134s-121 -50 -121 -134v-435
c0 -83 44 -133 121 -133z" />
    <glyph glyph-name="uni1000AC.small" unicode="M&#x20de;" horiz-adv-x="1822" 
d="M466 -40c-177 0 -277 99 -277 276v892c0 177 100 276 277 276h890c177 0 277 -99 277 -276v-892c0 -177 -100 -276 -277 -276h-890zM495 187h832c52 0 79 24 79 80v830c0 56 -27 80 -79 80h-832c-52 0 -79 -24 -79 -80v-830c0 -56 27 -80 79 -80zM646 342
c-49 0 -78 31 -78 86v490c0 65 44 108 111 108c60 0 97 -29 116 -90l114 -331h5l113 331c18 60 56 90 117 90c66 0 110 -43 110 -108v-490c0 -55 -29 -86 -79 -86c-49 0 -78 31 -78 86v315h-8l-106 -300c-13 -38 -36 -55 -74 -55c-37 0 -60 18 -72 55l-104 300h-8v-315
c0 -55 -29 -86 -79 -86z" />
    <glyph glyph-name="uni1000AD.small" unicode="M&#x20de;&#x25a0;" horiz-adv-x="1822" 
d="M466 -40c-177 0 -277 99 -277 276v892c0 177 100 276 277 276h890c177 0 277 -99 277 -276v-892c0 -177 -100 -276 -277 -276h-890zM640 324c52 0 82 36 82 94v328h8l110 -315c12 -39 36 -58 75 -58c40 0 64 18 77 57l113 316h7v-328c0 -57 30 -94 82 -94s84 36 84 94
v512c0 68 -47 113 -117 113c-64 0 -103 -31 -122 -95l-119 -346h-5l-119 346c-20 64 -59 95 -123 95c-70 0 -116 -45 -116 -113v-512c0 -57 31 -94 83 -94z" />
    <glyph glyph-name="uni1000AE.small" unicode="N&#x20de;" horiz-adv-x="1822" 
d="M466 -40c-177 0 -277 99 -277 276v892c0 177 100 276 277 276h890c177 0 277 -99 277 -276v-892c0 -177 -100 -276 -277 -276h-890zM495 187h832c52 0 79 24 79 80v830c0 56 -27 80 -79 80h-832c-52 0 -79 -24 -79 -80v-830c0 -56 27 -80 79 -80zM706 344
c-57 0 -90 37 -90 99v492c0 55 32 91 84 91c39 0 59 -12 93 -57l224 -298h7v255c0 63 33 100 91 100s92 -37 92 -100v-496c0 -54 -32 -86 -82 -86c-39 0 -60 12 -91 53l-229 307h-7v-261c0 -62 -34 -99 -92 -99z" />
    <glyph glyph-name="uni1000AF.small" unicode="N&#x20de;&#x25a0;" horiz-adv-x="1822" 
d="M466 -40c-177 0 -277 99 -277 276v892c0 177 100 276 277 276h890c177 0 277 -99 277 -276v-892c0 -177 -100 -276 -277 -276h-890zM703 326c60 0 95 40 95 105v274h8l240 -323c32 -42 55 -56 96 -56c53 0 86 35 86 91v521c0 66 -36 105 -97 105c-60 0 -95 -39 -95 -105
v-268h-7l-235 313c-36 47 -57 60 -99 60c-54 0 -88 -38 -88 -95v-517c0 -66 35 -105 96 -105z" />
    <glyph glyph-name="uni1000B0.small" unicode="O&#x20de;" horiz-adv-x="1822" 
d="M466 -40c-177 0 -277 99 -277 276v892c0 177 100 276 277 276h890c177 0 277 -99 277 -276v-892c0 -177 -100 -276 -277 -276h-890zM495 187h832c52 0 79 24 79 80v830c0 56 -27 80 -79 80h-832c-52 0 -79 -24 -79 -80v-830c0 -56 27 -80 79 -80zM911 340
c-190 0 -331 131 -331 344c0 215 141 345 331 345s331 -130 331 -345c0 -213 -141 -344 -331 -344zM911 510c70 0 120 60 120 174c0 116 -50 176 -120 176s-120 -60 -120 -176c0 -114 50 -174 120 -174z" />
    <glyph glyph-name="uni1000B1.small" unicode="O&#x20de;&#x25a0;" horiz-adv-x="1822" 
d="M466 -40c-177 0 -277 99 -277 276v892c0 177 100 276 277 276h890c177 0 277 -99 277 -276v-892c0 -177 -100 -276 -277 -276h-890zM917 323c200 0 348 137 348 361c0 225 -148 362 -348 362c-199 0 -347 -137 -347 -362c0 -224 148 -361 347 -361zM917 501
c-73 0 -126 63 -126 183c0 121 53 184 126 184s126 -63 126 -184c0 -120 -53 -183 -126 -183z" />
    <glyph glyph-name="uni1000B2.small" unicode="P&#x20de;" horiz-adv-x="1822" 
d="M466 -40c-177 0 -277 99 -277 276v892c0 177 100 276 277 276h890c177 0 277 -99 277 -276v-892c0 -177 -100 -276 -277 -276h-890zM495 187h832c52 0 79 24 79 80v830c0 56 -27 80 -79 80h-832c-52 0 -79 -24 -79 -80v-830c0 -56 27 -80 79 -80zM747 344
c-68 0 -106 44 -106 117v431c0 78 40 121 117 121h193c156 0 255 -96 255 -246c0 -151 -101 -247 -258 -247h-94v-59c0 -73 -39 -117 -107 -117zM854 673h66c57 0 88 33 88 93c0 62 -30 94 -88 94h-66v-187z" />
    <glyph glyph-name="uni1000B3.small" unicode="P&#x20de;&#x25a0;" horiz-adv-x="1822" 
d="M466 -40c-177 0 -277 99 -277 276v892c0 177 100 276 277 276h890c177 0 277 -99 277 -276v-892c0 -177 -100 -276 -277 -276h-890zM757 327c71 0 112 46 112 123v62h100c164 0 271 101 271 259s-105 259 -268 259h-203c-82 0 -123 -45 -123 -127v-453
c0 -77 40 -123 111 -123zM869 673v196h69c61 0 93 -33 93 -98c0 -64 -32 -98 -93 -98h-69z" />
    <glyph glyph-name="uni1000B4.small" unicode="Q&#x20de;" horiz-adv-x="1822" 
d="M466 -40c-177 0 -277 99 -277 276v892c0 177 100 276 277 276h890c177 0 277 -99 277 -276v-892c0 -177 -100 -276 -277 -276h-890zM495 187h832c52 0 79 24 79 80v830c0 56 -27 80 -79 80h-832c-52 0 -79 -24 -79 -80v-830c0 -56 27 -80 79 -80zM911 340
c-190 0 -331 131 -331 345s141 344 331 344s331 -130 331 -344c0 -113 -39 -203 -104 -263l14 -20c17 -23 23 -40 23 -59c0 -43 -33 -74 -79 -74c-34 0 -56 14 -78 50l-22 32c-26 -7 -55 -11 -85 -11zM911 510c8 0 17 0 24 2l-11 16c-7 9 -11 19 -11 32c0 29 24 50 52 50
c14 0 22 -4 29 -11l14 -17c15 26 23 61 23 103c0 115 -50 175 -120 175s-120 -60 -120 -175s50 -175 120 -175z" />
    <glyph glyph-name="uni1000B5.small" unicode="Q&#x20de;&#x25a0;" horiz-adv-x="1822" 
d="M466 -40c-177 0 -277 99 -277 276v892c0 177 100 276 277 276h890c177 0 277 -99 277 -276v-892c0 -177 -100 -276 -277 -276h-890zM917 325c31 0 61 4 89 11l24 -34c22 -38 46 -52 82 -52c48 0 82 32 82 78c0 20 -7 37 -23 62l-16 21c69 63 110 157 110 275
c0 225 -148 362 -348 362c-199 0 -347 -137 -347 -362s148 -361 347 -361zM917 503c-73 0 -126 63 -126 183c0 121 53 184 126 184s126 -63 126 -184c0 -43 -8 -80 -24 -107l-15 18c-7 7 -16 11 -30 11c-30 0 -54 -22 -54 -53c0 -13 4 -23 11 -33l12 -16
c-8 -2 -17 -3 -26 -3z" />
    <glyph glyph-name="uni1000B6.small" unicode="R&#x20de;" horiz-adv-x="1822" 
d="M466 -40c-177 0 -277 99 -277 276v892c0 177 100 276 277 276h890c177 0 277 -99 277 -276v-892c0 -177 -100 -276 -277 -276h-890zM495 187h832c52 0 79 24 79 80v830c0 56 -27 80 -79 80h-832c-52 0 -79 -24 -79 -80v-830c0 -56 27 -80 79 -80zM714 344
c-61 0 -96 39 -96 107v441c0 78 40 121 118 121h194c171 0 269 -79 269 -219c0 -90 -50 -162 -131 -188l82 -116c15 -20 22 -38 22 -62c0 -50 -38 -84 -92 -84c-42 0 -67 17 -100 70l-96 155h-72v-118c0 -68 -36 -107 -98 -107zM812 711h92c54 0 88 30 88 79s-33 80 -87 80
h-93v-159z" />
    <glyph glyph-name="uni1000B7.small" unicode="R&#x20de;&#x25a0;" horiz-adv-x="1822" 
d="M466 -40c-177 0 -277 99 -277 276v892c0 177 100 276 277 276h890c177 0 277 -99 277 -276v-892c0 -177 -100 -276 -277 -276h-890zM724 327c65 0 102 41 102 112v125h76l101 -163c35 -56 60 -74 105 -74c56 0 96 37 96 89c0 24 -7 43 -22 64l-87 122
c85 28 138 104 138 198c0 147 -103 230 -283 230h-204c-81 0 -123 -45 -123 -127v-464c0 -71 36 -112 101 -112zM826 713v166h98c57 0 92 -32 92 -84c0 -51 -36 -82 -93 -82h-97z" />
    <glyph glyph-name="uni1000B8.small" unicode="S&#x20de;" horiz-adv-x="1822" 
d="M466 -40c-177 0 -277 99 -277 276v892c0 177 100 276 277 276h890c177 0 277 -99 277 -276v-892c0 -177 -100 -276 -277 -276h-890zM495 187h832c52 0 79 24 79 80v830c0 56 -27 80 -79 80h-832c-52 0 -79 -24 -79 -80v-830c0 -56 27 -80 79 -80zM898 340
c-129 0 -221 46 -255 107c-9 16 -14 32 -14 50c0 45 34 76 82 76c30 0 52 -9 77 -31c42 -36 74 -50 123 -50c52 0 88 19 88 54c0 32 -21 43 -101 58l-77 15c-127 23 -198 87 -198 191c0 131 113 219 283 219c116 0 212 -46 248 -111c10 -17 15 -34 15 -52
c0 -43 -31 -69 -78 -69c-34 0 -54 10 -84 36c-33 34 -60 47 -102 47c-48 0 -76 -19 -76 -52c0 -29 23 -44 93 -55l82 -16c128 -22 197 -84 197 -192c0 -137 -118 -225 -303 -225z" />
    <glyph glyph-name="uni1000B9.small" unicode="S&#x20de;&#x25a0;" horiz-adv-x="1822" 
d="M466 -40c-177 0 -277 99 -277 276v892c0 177 100 276 277 276h890c177 0 277 -99 277 -276v-892c0 -177 -100 -276 -277 -276h-890zM904 317c196 0 323 93 323 239c0 115 -74 182 -210 206l-89 16c-74 13 -99 28 -99 60c0 36 31 56 82 56c45 0 74 -14 109 -51
c32 -27 53 -38 90 -38c49 0 83 27 83 73c0 19 -6 38 -16 56c-38 69 -141 118 -264 118c-182 0 -302 -94 -302 -233c0 -111 75 -179 210 -203l82 -18c87 -16 109 -28 109 -62c0 -38 -39 -58 -95 -58c-53 0 -87 15 -131 54c-27 23 -51 34 -82 34c-52 0 -87 -33 -87 -82
c0 -18 4 -36 14 -53c36 -64 135 -114 273 -114z" />
    <glyph glyph-name="uni1000BA.small" unicode="T&#x20de;" horiz-adv-x="1822" 
d="M466 -40c-177 0 -277 99 -277 276v892c0 177 100 276 277 276h890c177 0 277 -99 277 -276v-892c0 -177 -100 -276 -277 -276h-890zM495 187h832c52 0 79 24 79 80v830c0 56 -27 80 -79 80h-832c-52 0 -79 -24 -79 -80v-830c0 -56 27 -80 79 -80zM911 342
c-74 0 -115 48 -115 128v378h-104c-59 0 -94 32 -94 87c0 54 35 86 94 86h438c59 0 94 -32 94 -86c0 -55 -35 -87 -94 -87h-104v-378c0 -80 -42 -128 -115 -128z" />
    <glyph glyph-name="uni1000BB.small" unicode="T&#x20de;&#x25a0;" horiz-adv-x="1822" 
d="M466 -40c-177 0 -277 99 -277 276v892c0 177 100 276 277 276h890c177 0 277 -99 277 -276v-892c0 -177 -100 -276 -277 -276h-890zM917 327c77 0 121 50 121 133v398h110c62 0 99 33 99 90c0 58 -37 92 -99 92h-460c-62 0 -99 -34 -99 -92c0 -57 37 -90 99 -90h109v-398
c0 -83 43 -133 120 -133z" />
    <glyph glyph-name="uni1000BC.small" unicode="U&#x20de;" horiz-adv-x="1822" 
d="M466 -40c-177 0 -277 99 -277 276v892c0 177 100 276 277 276h890c177 0 277 -99 277 -276v-892c0 -177 -100 -276 -277 -276h-890zM495 187h832c52 0 79 24 79 80v830c0 56 -27 80 -79 80h-832c-52 0 -79 -24 -79 -80v-830c0 -56 27 -80 79 -80zM911 340
c-181 0 -304 100 -304 248v324c0 73 37 114 104 114c66 0 104 -42 104 -114v-304c0 -58 38 -98 96 -98s96 40 96 98v304c0 72 38 114 104 114c67 0 105 -41 105 -114v-324c0 -148 -124 -248 -305 -248z" />
    <glyph glyph-name="uni1000BD.small" unicode="U&#x20de;&#x25a0;" horiz-adv-x="1822" 
d="M466 -40c-177 0 -277 99 -277 276v892c0 177 100 276 277 276h890c177 0 277 -99 277 -276v-892c0 -177 -100 -276 -277 -276h-890zM917 323c190 0 320 105 320 260v341c0 76 -39 119 -110 119c-69 0 -109 -44 -109 -119v-320c0 -61 -40 -103 -101 -103
c-60 0 -101 42 -101 103v320c0 75 -39 119 -109 119s-109 -43 -109 -119v-341c0 -155 129 -260 319 -260z" />
    <glyph glyph-name="uni1000BE.small" unicode="V&#x20de;" horiz-adv-x="1822" 
d="M466 -40c-177 0 -277 99 -277 276v892c0 177 100 276 277 276h890c177 0 277 -99 277 -276v-892c0 -177 -100 -276 -277 -276h-890zM495 187h832c52 0 79 24 79 80v830c0 56 -27 80 -79 80h-832c-52 0 -79 -24 -79 -80v-830c0 -56 27 -80 79 -80zM909 340
c-95 0 -142 39 -170 126l-137 403c-6 21 -9 35 -9 54c0 62 44 102 110 102c60 0 91 -28 106 -98l98 -383h7l97 383c16 71 46 98 107 98c66 0 111 -40 111 -100c0 -18 -3 -33 -10 -56l-136 -398c-29 -89 -78 -131 -174 -131z" />
    <glyph glyph-name="uni1000BF.small" unicode="V&#x20de;&#x25a0;" horiz-adv-x="1822" 
d="M466 -40c-177 0 -277 99 -277 276v892c0 177 100 276 277 276h890c177 0 277 -99 277 -276v-892c0 -177 -100 -276 -277 -276h-890zM915 323c101 0 152 44 183 138l142 417c8 23 11 40 11 58c0 64 -47 107 -116 107c-65 0 -97 -30 -113 -103l-102 -403h-7l-103 403
c-15 73 -48 103 -112 103c-68 0 -114 -44 -114 -109c0 -19 2 -34 10 -56l143 -422c30 -92 78 -133 178 -133z" />
    <glyph glyph-name="uni1000C0.small" unicode="W&#x20de;" horiz-adv-x="1822" 
d="M466 -40c-177 0 -277 99 -277 276v892c0 177 100 276 277 276h890c177 0 277 -99 277 -276v-892c0 -177 -100 -276 -277 -276h-890zM495 187h832c52 0 79 24 79 80v830c0 56 -27 80 -79 80h-832c-52 0 -79 -24 -79 -80v-830c0 -56 27 -80 79 -80zM729 340
c-62 0 -97 31 -110 95l-102 481c-2 9 -2 17 -2 25c0 49 33 84 84 84s80 -29 88 -87l57 -360h7l74 367c10 48 37 71 86 71c48 0 77 -24 86 -72l74 -366h7l56 360c8 58 38 87 89 87c50 0 84 -35 84 -84c0 -8 0 -16 -2 -25l-103 -481c-12 -64 -48 -95 -110 -95
c-59 0 -98 33 -110 97l-68 306h-7l-67 -306c-13 -64 -51 -97 -111 -97z" />
    <glyph glyph-name="uni1000C1.small" unicode="W&#x20de;&#x25a0;" horiz-adv-x="1822" 
d="M466 -40c-177 0 -277 99 -277 276v892c0 177 100 276 277 276h890c177 0 277 -99 277 -276v-892c0 -177 -100 -276 -277 -276h-890zM727 323c62 0 102 35 116 102l71 321h7l71 -321c13 -67 54 -102 116 -102c65 0 103 33 116 100l107 506c2 8 3 17 3 25
c0 51 -36 89 -89 89c-54 0 -85 -31 -93 -92l-59 -378h-7l-78 385c-10 49 -40 75 -91 75s-79 -24 -89 -75l-79 -385h-7l-59 378c-9 61 -39 92 -93 92c-53 0 -89 -38 -89 -90c0 -8 1 -16 3 -24l107 -506c13 -67 51 -100 116 -100z" />
    <glyph glyph-name="uni1000C2.small" unicode="X&#x20de;" horiz-adv-x="1822" 
d="M466 -40c-177 0 -277 99 -277 276v892c0 177 100 276 277 276h890c177 0 277 -99 277 -276v-892c0 -177 -100 -276 -277 -276h-890zM495 187h832c52 0 79 24 79 80v830c0 56 -27 80 -79 80h-832c-52 0 -79 -24 -79 -80v-830c0 -56 27 -80 79 -80zM709 344
c-55 0 -93 36 -93 87c0 25 9 46 28 73l138 182l-133 177c-21 27 -29 48 -29 74c0 52 38 89 94 89c42 0 65 -15 96 -64l102 -156h6l97 155c29 49 54 65 96 65c55 0 94 -36 94 -88c0 -25 -9 -46 -29 -73l-137 -181l137 -179c20 -26 28 -48 28 -73c0 -52 -38 -88 -94 -88
c-43 0 -67 16 -96 65l-100 154h-6l-102 -154c-33 -51 -55 -65 -97 -65z" />
    <glyph glyph-name="uni1000C3.small" unicode="X&#x20de;&#x25a0;" horiz-adv-x="1822" 
d="M466 -40c-177 0 -277 99 -277 276v892c0 177 100 276 277 276h890c177 0 277 -99 277 -276v-892c0 -177 -100 -276 -277 -276h-890zM705 326c45 0 68 16 102 69l107 162h6l105 -162c31 -52 56 -69 101 -69c59 0 99 38 99 94c0 26 -9 48 -30 76l-143 188l144 190
c21 28 30 50 30 76c0 55 -40 93 -98 93c-45 0 -71 -17 -101 -68l-102 -163h-7l-107 164c-33 51 -56 67 -101 67c-58 0 -99 -39 -99 -94c0 -27 9 -49 31 -77l140 -186l-145 -192c-20 -27 -29 -49 -29 -75c0 -55 39 -93 97 -93z" />
    <glyph glyph-name="uni1000C4.small" unicode="Y&#x20de;" horiz-adv-x="1822" 
d="M466 -40c-177 0 -277 99 -277 276v892c0 177 100 276 277 276h890c177 0 277 -99 277 -276v-892c0 -177 -100 -276 -277 -276h-890zM495 187h832c52 0 79 24 79 80v830c0 56 -27 80 -79 80h-832c-52 0 -79 -24 -79 -80v-830c0 -56 27 -80 79 -80zM911 344
c-72 0 -112 46 -112 125v87l-176 315c-11 21 -16 39 -16 59c0 55 43 96 102 96c51 0 76 -19 102 -78l97 -200h7l97 200c26 58 51 78 101 78c60 0 102 -41 102 -96c0 -20 -5 -39 -16 -59l-175 -314v-88c0 -79 -41 -125 -113 -125z" />
    <glyph glyph-name="uni1000C5.small" unicode="Y&#x20de;&#x25a0;" horiz-adv-x="1822" 
d="M466 -40c-177 0 -277 99 -277 276v892c0 177 100 276 277 276h890c177 0 277 -99 277 -276v-892c0 -177 -100 -276 -277 -276h-890zM917 326c76 0 119 49 119 132v92l184 330c11 21 17 41 17 62c0 58 -45 101 -107 101c-53 0 -80 -20 -107 -82l-102 -210h-7l-102 210
c-27 62 -53 82 -107 82c-62 0 -107 -43 -107 -100c0 -22 5 -41 17 -63l184 -330v-92c0 -83 43 -132 118 -132z" />
    <glyph glyph-name="uni1000C6.small" unicode="Z&#x20de;" horiz-adv-x="1822" 
d="M466 -40c-177 0 -277 99 -277 276v892c0 177 100 276 277 276h890c177 0 277 -99 277 -276v-892c0 -177 -100 -276 -277 -276h-890zM495 187h832c52 0 79 24 79 80v830c0 56 -27 80 -79 80h-832c-52 0 -79 -24 -79 -80v-830c0 -56 27 -80 79 -80zM731 356
c-56 0 -94 37 -94 90c0 35 11 60 40 94l240 298v8h-199c-58 0 -95 31 -95 84c0 52 36 83 95 83h365c56 0 95 -37 95 -91c0 -38 -7 -56 -39 -92l-242 -299v-8h208c59 0 95 -31 95 -83s-37 -84 -95 -84h-374z" />
    <glyph glyph-name="uni1000C7.small" unicode="Z&#x20de;&#x25a0;" horiz-adv-x="1822" 
d="M466 -40c-177 0 -277 99 -277 276v892c0 177 100 276 277 276h890c177 0 277 -99 277 -276v-892c0 -177 -100 -276 -277 -276h-890zM728 340h392c61 0 101 33 101 88s-39 87 -101 87h-218v8l254 314c33 38 41 58 41 97c0 57 -41 96 -99 96h-383c-62 0 -101 -33 -101 -88
s40 -88 101 -88h208v-8l-252 -313c-31 -36 -43 -63 -43 -99c0 -56 42 -94 100 -94z" />
    <glyph glyph-name="uni1000C8.small" unicode="&#x30;&#x20de;" horiz-adv-x="1822" 
d="M466 -40c-177 0 -277 99 -277 276v892c0 177 100 276 277 276h890c177 0 277 -99 277 -276v-892c0 -177 -100 -276 -277 -276h-890zM495 187h832c52 0 79 24 79 80v830c0 56 -27 80 -79 80h-832c-52 0 -79 -24 -79 -80v-830c0 -56 27 -80 79 -80zM909 339
c-175 0 -287 134 -287 344s112 343 287 343c174 0 291 -133 291 -343s-117 -344 -291 -344zM911 501c51 0 86 55 86 182s-35 182 -86 182s-86 -55 -86 -182s35 -182 86 -182z" />
    <glyph glyph-name="uni1000C9.small" unicode="&#x30;&#x20de;&#x25a0;" horiz-adv-x="1822" 
d="M466 -40c-177 0 -277 99 -277 276v892c0 177 100 276 277 276h890c177 0 277 -99 277 -276v-892c0 -177 -100 -276 -277 -276h-890zM910 322c183 0 306 141 306 361s-123 360 -306 360s-300 -140 -300 -360s117 -361 300 -361zM913 492c-54 0 -90 58 -90 191
s36 191 90 191s90 -58 90 -191s-36 -191 -90 -191z" />
    <glyph glyph-name="uni1000CA.small" unicode="&#x31;&#x20de;" horiz-adv-x="1822" 
d="M466 -40c-177 0 -277 99 -277 276v892c0 177 100 276 277 276h890c177 0 277 -99 277 -276v-892c0 -177 -100 -276 -277 -276h-890zM495 187h832c52 0 79 24 79 80v830c0 56 -27 80 -79 80h-832c-52 0 -79 -24 -79 -80v-830c0 -56 27 -80 79 -80zM961 346
c-64 0 -107 35 -107 112v358h-7l-64 -43c-25 -17 -36 -19 -54 -19c-41 0 -70 32 -70 73c0 34 14 56 45 75l112 75c48 31 85 43 131 43c73 0 122 -45 122 -112v-450c0 -77 -43 -112 -108 -112z" />
    <glyph glyph-name="uni1000CB.small" unicode="&#x31;&#x20de;&#x25a0;" horiz-adv-x="1822" 
d="M466 -40c-177 0 -277 99 -277 276v892c0 177 100 276 277 276h890c177 0 277 -99 277 -276v-892c0 -177 -100 -276 -277 -276h-890zM965 329c67 0 113 37 113 118v472c0 70 -52 118 -129 118c-48 0 -87 -13 -137 -46l-118 -78c-32 -21 -47 -44 -47 -78
c0 -44 31 -78 74 -78c19 0 30 2 56 20l68 45h7v-375c0 -81 44 -118 113 -118z" />
    <glyph glyph-name="uni1000CC.small" unicode="&#x32;&#x20de;" horiz-adv-x="1822" 
d="M466 -40c-177 0 -277 99 -277 276v892c0 177 100 276 277 276h890c177 0 277 -99 277 -276v-892c0 -177 -100 -276 -277 -276h-890zM495 187h832c52 0 79 24 79 80v830c0 56 -27 80 -79 80h-832c-52 0 -79 -24 -79 -80v-830c0 -56 27 -80 79 -80zM745 358
c-51 0 -88 34 -88 81c0 30 8 57 44 87l190 174c50 43 76 75 76 109c0 33 -24 54 -61 54c-40 0 -61 -29 -80 -55c-18 -22 -38 -44 -81 -44c-54 0 -90 27 -90 78c0 14 2 28 7 42c30 84 130 142 252 142c155 0 259 -80 259 -199c0 -72 -42 -130 -124 -201l-100 -94v-7h158
c59 0 94 -30 94 -83c0 -52 -36 -84 -94 -84h-362z" />
    <glyph glyph-name="uni1000CD.small" unicode="&#x32;&#x20de;&#x25a0;" horiz-adv-x="1822" 
d="M466 -40c-177 0 -277 99 -277 276v892c0 177 100 276 277 276h890c177 0 277 -99 277 -276v-892c0 -177 -100 -276 -277 -276h-890zM740 342h379c61 0 98 34 98 88c0 55 -36 87 -98 87h-166v8l105 98c87 74 130 135 130 211c0 125 -109 209 -271 209
c-128 0 -233 -61 -265 -150c-5 -15 -7 -30 -7 -44c0 -54 37 -82 94 -82c45 0 67 23 86 47c19 27 41 57 83 57c39 0 63 -22 63 -56c0 -36 -27 -70 -78 -115l-200 -182c-37 -32 -46 -60 -46 -91c0 -50 38 -85 93 -85z" />
    <glyph glyph-name="uni1000CE.small" unicode="&#x33;&#x20de;" horiz-adv-x="1822" 
d="M466 -40c-177 0 -277 99 -277 276v892c0 177 100 276 277 276h890c177 0 277 -99 277 -276v-892c0 -177 -100 -276 -277 -276h-890zM495 187h832c52 0 79 24 79 80v830c0 56 -27 80 -79 80h-832c-52 0 -79 -24 -79 -80v-830c0 -56 27 -80 79 -80zM913 339
c-126 0 -231 55 -258 133c-5 14 -7 26 -7 40c0 48 35 80 90 80c35 0 61 -14 81 -43c20 -33 50 -53 99 -53c45 0 77 23 77 56c0 36 -31 59 -83 59h-17c-53 0 -88 30 -88 77s34 76 88 76h16c43 0 71 25 71 60c0 32 -26 51 -68 51c-39 0 -69 -19 -89 -53
c-20 -29 -45 -43 -79 -43c-56 0 -91 31 -91 79c0 15 2 27 7 40c27 80 122 128 254 128c160 0 266 -71 266 -180c0 -68 -57 -131 -125 -140v-10c82 -6 142 -73 142 -156c0 -122 -109 -201 -286 -201z" />
    <glyph glyph-name="uni1000CF.small" unicode="&#x33;&#x20de;&#x25a0;" horiz-adv-x="1822" 
d="M466 -40c-177 0 -277 99 -277 276v892c0 177 100 276 277 276h890c177 0 277 -99 277 -276v-892c0 -177 -100 -276 -277 -276h-890zM916 322c186 0 300 83 300 211c0 87 -63 157 -149 164v10c71 10 131 76 131 147c0 114 -111 189 -279 189c-139 0 -239 -51 -266 -134
c-6 -14 -8 -27 -8 -42c0 -51 37 -83 95 -83c37 0 63 14 84 46c21 34 52 55 93 55c45 0 72 -21 72 -54c0 -37 -30 -63 -75 -63h-17c-57 0 -92 -30 -92 -80c0 -49 37 -81 92 -81h18c55 0 87 -23 87 -61c0 -35 -33 -59 -81 -59c-51 0 -82 21 -103 55c-22 31 -48 45 -85 45
c-58 0 -95 -33 -95 -84c0 -14 2 -27 7 -41c29 -82 139 -140 271 -140z" />
    <glyph glyph-name="uni1000D0.small" unicode="&#x34;&#x20de;" horiz-adv-x="1822" 
d="M466 -40c-177 0 -277 99 -277 276v892c0 177 100 276 277 276h890c177 0 277 -99 277 -276v-892c0 -177 -100 -276 -277 -276h-890zM495 187h832c52 0 79 24 79 80v830c0 56 -27 80 -79 80h-832c-52 0 -79 -24 -79 -80v-830c0 -56 27 -80 79 -80zM1009 346
c-53 0 -87 31 -87 92v22h-207c-75 0 -122 44 -122 112c0 30 7 62 25 101c36 69 90 157 142 242c49 82 98 111 188 111c85 0 149 -55 149 -130v-277h21c55 0 88 -31 88 -80c0 -48 -34 -79 -88 -79h-21v-22c0 -61 -34 -92 -88 -92zM922 619v264h-7
c-51 -89 -107 -189 -142 -259v-5h149z" />
    <glyph glyph-name="uni1000D1.small" unicode="&#x34;&#x20de;&#x25a0;" horiz-adv-x="1822" 
d="M466 -40c-177 0 -277 99 -277 276v892c0 177 100 276 277 276h890c177 0 277 -99 277 -276v-892c0 -177 -100 -276 -277 -276h-890zM1026 329c57 0 92 33 92 98v22h22c58 0 93 33 93 83c0 51 -34 83 -92 83h-23v292c0 78 -66 136 -156 136c-95 0 -146 -31 -197 -117
c-55 -89 -111 -182 -149 -254c-19 -41 -27 -74 -27 -105c0 -72 50 -118 129 -118h217v-22c0 -65 36 -98 91 -98zM935 615h-157v6c38 73 96 178 150 272h7v-278z" />
    <glyph glyph-name="uni1000D2.small" unicode="&#x35;&#x20de;" horiz-adv-x="1822" 
d="M466 -40c-177 0 -277 99 -277 276v892c0 177 100 276 277 276h890c177 0 277 -99 277 -276v-892c0 -177 -100 -276 -277 -276h-890zM495 187h832c52 0 79 24 79 80v830c0 56 -27 80 -79 80h-832c-52 0 -79 -24 -79 -80v-830c0 -56 27 -80 79 -80zM908 339
c-135 0 -226 43 -255 111c-5 13 -8 27 -8 42c0 46 32 76 86 76c41 0 63 -13 80 -30c23 -24 49 -42 91 -42c49 0 86 36 86 83s-31 79 -77 79c-28 0 -46 -8 -69 -21c-24 -14 -46 -23 -84 -23c-75 0 -113 38 -108 106l13 187c3 60 45 101 108 101h305c54 0 85 -27 85 -74
c0 -46 -33 -74 -85 -74h-251l-10 -125h10c22 38 81 63 145 63c132 0 220 -84 220 -214c0 -150 -110 -245 -282 -245z" />
    <glyph glyph-name="uni1000D3.small" unicode="&#x35;&#x20de;&#x25a0;" horiz-adv-x="1822" 
d="M466 -40c-177 0 -277 99 -277 276v892c0 177 100 276 277 276h890c177 0 277 -99 277 -276v-892c0 -177 -100 -276 -277 -276h-890zM926 323c181 0 296 100 296 257c0 136 -92 224 -231 224c-67 0 -129 -27 -152 -67h-11l11 132h264c54 0 88 29 88 78s-32 77 -88 77h-321
c-66 0 -109 -43 -113 -105l-14 -196c-4 -72 35 -112 113 -112c40 0 63 9 89 23c24 15 44 23 72 23c48 0 81 -33 81 -83c0 -49 -38 -86 -90 -86c-44 0 -72 18 -95 44c-19 17 -42 31 -84 31c-57 0 -91 -32 -91 -79c0 -16 3 -31 9 -45c30 -71 126 -116 267 -116z" />
    <glyph glyph-name="uni1000D4.small" unicode="&#x36;&#x20de;" horiz-adv-x="1822" 
d="M466 -40c-177 0 -277 99 -277 276v892c0 177 100 276 277 276h890c177 0 277 -99 277 -276v-892c0 -177 -100 -276 -277 -276h-890zM495 187h832c52 0 79 24 79 80v830c0 56 -27 80 -79 80h-832c-52 0 -79 -24 -79 -80v-830c0 -56 27 -80 79 -80zM918 339
c-110 0 -196 42 -246 123c-35 55 -54 129 -54 222c0 223 119 342 318 342c97 0 178 -34 209 -86c11 -17 17 -34 17 -53c0 -41 -31 -69 -77 -69c-36 0 -56 14 -78 29c-20 14 -39 28 -73 28c-70 0 -113 -62 -113 -148c0 -8 1 -16 2 -25h7c26 44 84 79 159 79
c118 0 208 -76 208 -201c0 -149 -112 -241 -279 -241zM908 491c50 0 84 34 84 84c0 49 -35 83 -84 83s-84 -34 -84 -82c0 -50 35 -85 84 -85z" />
    <glyph glyph-name="uni1000D5.small" unicode="&#x36;&#x20de;&#x25a0;" horiz-adv-x="1822" 
d="M466 -40c-177 0 -277 99 -277 276v892c0 177 100 276 277 276h890c177 0 277 -99 277 -276v-892c0 -177 -100 -276 -277 -276h-890zM928 322c175 0 293 96 293 253c0 131 -95 211 -219 211c-78 0 -139 -37 -166 -83h-8c-1 9 -2 17 -2 26c0 90 46 156 119 156
c36 0 55 -15 76 -30c23 -16 44 -31 82 -31c48 0 81 30 81 73c0 21 -7 39 -18 56c-33 54 -118 90 -219 90c-209 0 -334 -125 -334 -359c0 -97 20 -175 56 -233c53 -84 143 -129 259 -129zM917 482c-51 0 -88 36 -88 89c0 50 36 86 88 86s88 -36 88 -87c0 -53 -35 -88 -88 -88
z" />
    <glyph glyph-name="uni1000D6.small" unicode="&#x37;&#x20de;" horiz-adv-x="1822" 
d="M466 -40c-177 0 -277 99 -277 276v892c0 177 100 276 277 276h890c177 0 277 -99 277 -276v-892c0 -177 -100 -276 -277 -276h-890zM495 187h832c52 0 79 24 79 80v830c0 56 -27 80 -79 80h-832c-52 0 -79 -24 -79 -80v-830c0 -56 27 -80 79 -80zM840 340
c-60 0 -102 35 -102 89c0 24 6 44 19 63l216 343v8h-243c-56 0 -91 32 -91 82c0 51 35 83 91 83h340c80 0 129 -45 129 -113c0 -35 -9 -65 -33 -104l-225 -382c-32 -52 -57 -69 -101 -69z" />
    <glyph glyph-name="uni1000D7.small" unicode="&#x37;&#x20de;&#x25a0;" horiz-adv-x="1822" 
d="M466 -40c-177 0 -277 99 -277 276v892c0 177 100 276 277 276h890c177 0 277 -99 277 -276v-892c0 -177 -100 -276 -277 -276h-890zM840 323c46 0 72 19 106 73l237 400c24 41 34 73 34 109c0 73 -52 119 -136 119h-356c-59 0 -96 -33 -96 -86s38 -86 96 -86h254v-9
l-227 -360c-12 -20 -19 -41 -19 -66c0 -56 44 -94 107 -94z" />
    <glyph glyph-name="uni1000D8.small" unicode="&#x38;&#x20de;" horiz-adv-x="1822" 
d="M466 -40c-177 0 -277 99 -277 276v892c0 177 100 276 277 276h890c177 0 277 -99 277 -276v-892c0 -177 -100 -276 -277 -276h-890zM495 187h832c52 0 79 24 79 80v830c0 56 -27 80 -79 80h-832c-52 0 -79 -24 -79 -80v-830c0 -56 27 -80 79 -80zM910 339
c-184 0 -300 77 -300 200c0 84 59 146 152 159v8c-83 23 -124 70 -124 141c0 109 106 179 273 179s273 -70 273 -179c0 -71 -41 -118 -124 -141v-8c93 -13 152 -74 152 -158c0 -124 -116 -201 -302 -201zM911 758c41 0 70 28 70 66c0 37 -31 65 -70 65s-70 -28 -70 -65
c0 -38 30 -66 70 -66zM911 477c50 0 85 33 85 78s-35 79 -85 79c-49 0 -85 -34 -85 -79s36 -78 85 -78z" />
    <glyph glyph-name="uni1000D9.small" unicode="&#x38;&#x20de;&#x25a0;" horiz-adv-x="1822" 
d="M466 -40c-177 0 -277 99 -277 276v892c0 177 100 276 277 276h890c177 0 277 -99 277 -276v-892c0 -177 -100 -276 -277 -276h-890zM917 322c194 0 316 81 316 211c0 87 -62 152 -159 166v8c86 23 130 74 130 148c0 114 -112 188 -287 188s-286 -74 -286 -188
c0 -74 42 -124 129 -148v-8c-97 -14 -159 -79 -159 -167c0 -129 122 -210 316 -210zM917 762c-42 0 -73 29 -73 69c0 39 32 68 73 68s73 -29 73 -68c0 -40 -30 -69 -73 -69zM918 467c-52 0 -90 34 -90 82c0 47 38 82 90 82s88 -35 88 -82c0 -48 -37 -82 -88 -82z" />
    <glyph glyph-name="uni1000DA.small" unicode="&#x39;&#x20de;" horiz-adv-x="1822" 
d="M466 -40c-177 0 -277 99 -277 276v892c0 177 100 276 277 276h890c177 0 277 -99 277 -276v-892c0 -177 -100 -276 -277 -276h-890zM495 187h832c52 0 79 24 79 80v830c0 56 -27 80 -79 80h-832c-52 0 -79 -24 -79 -80v-830c0 -56 27 -80 79 -80zM904 339
c-128 0 -201 45 -228 98c-6 12 -9 25 -9 39c0 42 36 74 81 74c38 0 58 -12 76 -25c23 -20 45 -33 79 -33c67 0 111 72 102 172h-8c-22 -49 -74 -85 -151 -85c-125 0 -217 78 -217 207c0 143 115 240 281 240c186 0 296 -123 296 -336c0 -223 -110 -351 -302 -351zM918 707
c50 0 85 35 85 84s-36 86 -85 86c-51 0 -86 -35 -86 -86c0 -49 36 -84 86 -84z" />
    <glyph glyph-name="uni1000DB.small" unicode="&#x39;&#x20de;&#x25a0;" horiz-adv-x="1822" 
d="M466 -40c-177 0 -277 99 -277 276v892c0 177 100 276 277 276h890c177 0 277 -99 277 -276v-892c0 -177 -100 -276 -277 -276h-890zM919 322c202 0 317 134 317 368c0 224 -115 353 -310 353c-174 0 -295 -103 -295 -252c0 -136 96 -217 227 -217c81 0 135 37 159 90h7
c10 -106 -35 -181 -106 -181c-36 0 -59 13 -83 35c-19 13 -39 26 -80 26c-47 0 -84 -34 -84 -78c0 -15 3 -28 9 -41c28 -56 105 -103 239 -103zM934 708c-53 0 -90 36 -90 88c0 53 36 90 90 90c51 0 89 -38 89 -90c0 -51 -36 -88 -89 -88z" />
    <glyph glyph-name=".notdef" horiz-adv-x="2048" 
d="M100 1765v185h1848v-185h-1848zM100 1313v185h1848v-185h-1848zM100 861v186h1848v-186h-1848zM100 409v186h1848v-186h-1848zM100 -42v185h1848v-185h-1848zM100 -494v185h1848v-185h-1848z" />
    <glyph glyph-name=".null" horiz-adv-x="0" 
 />
    <glyph glyph-name="nonmarkingreturn" horiz-adv-x="0" 
 />
    <glyph glyph-name="space" unicode=" " horiz-adv-x="398" 
 />
    <glyph glyph-name="A" unicode="A" horiz-adv-x="1299" 
d="M195 -11c-90 0 -152 56 -152 136c0 33 9 71 32 138l302 885c54 162 132 227 276 227s220 -64 275 -227l301 -885c18 -56 27 -96 27 -131c0 -87 -62 -143 -157 -143c-88 0 -139 48 -172 161l-52 163h-459l-53 -163c-33 -116 -80 -161 -168 -161zM484 552h324l-153 517h-16
z" />
    <glyph glyph-name="Agrave" unicode="&#xc0;" horiz-adv-x="1298" 
d="M567 1529l-113 127c-15 18 -24 43 -24 69c0 58 47 105 104 105c28 0 56 -6 84 -45l93 -136c11 -16 19 -36 19 -58c0 -53 -42 -96 -92 -96c-29 0 -54 14 -71 34zM194 -11c-89 0 -152 56 -152 136c0 33 9 71 32 138l302 885c54 162 132 227 276 227s221 -64 275 -227
l302 -885c18 -56 26 -96 26 -131c0 -87 -62 -143 -156 -143c-89 0 -140 48 -172 161l-53 163h-459l-52 -163c-33 -116 -81 -161 -169 -161zM483 552h324l-152 517h-17z" />
    <glyph glyph-name="Aacute" unicode="&#xc1;" horiz-adv-x="1298" 
d="M562 1590c0 22 9 42 20 58l93 136c28 39 55 45 84 45c57 0 104 -47 104 -105c0 -27 -9 -51 -24 -69l-113 -127c-17 -21 -43 -34 -71 -34c-50 0 -93 43 -93 96zM194 -11c-89 0 -152 56 -152 136c0 33 9 71 32 138l302 885c54 162 132 227 276 227s221 -64 275 -227
l302 -885c18 -56 26 -96 26 -131c0 -87 -62 -143 -156 -143c-89 0 -140 48 -172 161l-53 163h-459l-52 -163c-33 -116 -81 -161 -169 -161zM483 552h324l-152 517h-17z" />
    <glyph glyph-name="Adieresis" unicode="&#xc4;" horiz-adv-x="1299" 
d="M349 1583c0 66 48 117 112 117c66 0 120 -51 120 -117s-54 -115 -120 -115c-64 0 -112 49 -112 115zM720 1583c0 66 50 117 114 117c66 0 117 -51 117 -117s-51 -115 -117 -115c-64 0 -114 49 -114 115zM195 -11c-90 0 -152 56 -152 136c0 33 9 71 32 138l302 885
c54 162 132 227 276 227s220 -64 275 -227l301 -885c18 -56 27 -96 27 -131c0 -87 -62 -143 -157 -143c-88 0 -139 48 -172 161l-52 163h-459l-53 -163c-33 -116 -80 -161 -168 -161zM484 552h324l-153 517h-16z" />
    <glyph glyph-name="Adieresismacron" unicode="&#x1de;" horiz-adv-x="1299" 
d="M350 1855c0 45 36 74 93 74h411c57 0 93 -28 93 -73s-36 -74 -93 -74h-411c-57 0 -93 28 -93 73zM348 1583c0 66 48 117 112 117c66 0 120 -51 120 -117s-54 -115 -120 -115c-64 0 -112 49 -112 115zM718 1583c0 66 50 117 114 117c67 0 118 -51 118 -117
s-51 -115 -118 -115c-64 0 -114 49 -114 115zM195 -11c-90 0 -152 56 -152 136c0 33 9 71 32 138l302 885c54 162 132 227 276 227s220 -64 275 -227l301 -885c18 -56 27 -96 27 -131c0 -87 -62 -143 -157 -143c-88 0 -139 48 -172 161l-52 163h-459l-53 -163
c-33 -116 -80 -161 -168 -161zM484 552h324l-153 517h-16z" />
    <glyph glyph-name="Aring" unicode="&#xc5;" horiz-adv-x="1299" 
d="M650 1450c-130 0 -230 91 -230 221s99 220 230 220c130 0 228 -90 228 -220s-98 -221 -228 -221zM560 1670c0 -51 38 -89 89 -89s89 38 89 89c0 52 -38 90 -89 90s-89 -38 -89 -90zM195 -11c-90 0 -152 56 -152 136c0 33 9 71 32 138l302 885c54 162 132 227 276 227
s220 -64 275 -227l301 -885c18 -56 27 -96 27 -131c0 -87 -62 -143 -157 -143c-88 0 -139 48 -172 161l-52 163h-459l-53 -163c-33 -116 -80 -161 -168 -161zM484 552h324l-153 517h-16z" />
    <glyph glyph-name="Aringacute" unicode="&#x1fa;" horiz-adv-x="1299" 
d="M730 1817l-110 -15c-3 -1 -9 -1 -13 -1c-26 0 -60 18 -60 56c0 29 20 47 56 56l100 26c8 3 20 5 27 5c38 0 67 -24 67 -60c0 -37 -24 -63 -67 -67zM649 1408c-107 0 -190 76 -190 182s82 180 190 180c107 0 189 -74 189 -180s-82 -182 -189 -182zM577 1589
c0 -41 30 -72 71 -72s73 31 73 72s-32 71 -73 71s-71 -30 -71 -71zM195 -11c-90 0 -152 56 -152 136c0 33 9 71 32 138l302 885c54 162 132 227 276 227s220 -64 275 -227l301 -885c18 -56 27 -96 27 -131c0 -87 -62 -143 -157 -143c-88 0 -139 48 -172 161l-52 163h-459
l-53 -163c-33 -116 -80 -161 -168 -161zM484 552h324l-153 517h-16z" />
    <glyph glyph-name="Atilde" unicode="&#xc3;" horiz-adv-x="1298" 
d="M336 1560c0 87 83 159 190 159c78 0 125 -26 161 -56c29 -24 51 -38 70 -38c22 0 39 21 51 48c12 24 32 45 71 45c48 0 76 -30 76 -81c0 -84 -82 -154 -184 -154c-81 0 -124 25 -161 56c-28 23 -50 38 -69 38c-23 0 -40 -20 -54 -48c-13 -25 -33 -45 -75 -45
c-49 0 -76 28 -76 76zM194 -11c-89 0 -152 56 -152 136c0 33 9 71 32 138l302 885c54 162 132 227 276 227s221 -64 275 -227l302 -885c18 -56 26 -96 26 -131c0 -87 -62 -143 -156 -143c-89 0 -140 48 -172 161l-53 163h-459l-52 -163c-33 -116 -81 -161 -169 -161z
M483 552h324l-152 517h-17z" />
    <glyph glyph-name="Abrevegrave" unicode="&#x1eb0;" horiz-adv-x="1299" 
d="M720 1799c0 -35 -29 -64 -66 -64c-26 0 -41 4 -68 21l-79 46c-29 18 -44 43 -44 73c0 38 34 70 74 70c25 0 38 -5 71 -28l78 -56c25 -19 34 -36 34 -62zM956 1676c0 -42 -29 -87 -82 -134c-57 -50 -134 -75 -225 -75c-78 0 -151 20 -210 62c-63 45 -97 96 -97 148
c0 43 36 76 82 76c35 0 65 -18 82 -51c36 -69 76 -97 143 -97c66 0 109 28 141 90c19 37 48 58 83 58c47 0 83 -34 83 -77zM195 -11c-90 0 -152 56 -152 136c0 33 9 71 32 138l302 885c54 162 132 227 276 227s220 -64 275 -227l301 -885c18 -56 27 -96 27 -131
c0 -87 -62 -143 -157 -143c-88 0 -139 48 -172 161l-52 163h-459l-53 -163c-33 -116 -80 -161 -168 -161zM484 552h324l-153 517h-16z" />
    <glyph glyph-name="Adotmacron" unicode="&#x1e0;" horiz-adv-x="1299" 
d="M350 1855c0 45 36 74 93 74h411c57 0 93 -28 93 -73s-36 -74 -93 -74h-411c-57 0 -93 28 -93 73zM515 1580c0 75 59 131 134 131c74 0 134 -56 134 -131c0 -74 -59 -128 -134 -128s-134 54 -134 128zM195 -11c-90 0 -152 56 -152 136c0 33 9 71 32 138l302 885
c54 162 132 227 276 227s220 -64 275 -227l301 -885c18 -56 27 -96 27 -131c0 -87 -62 -143 -157 -143c-88 0 -139 48 -172 161l-52 163h-459l-53 -163c-33 -116 -80 -161 -168 -161zM484 552h324l-153 517h-16z" />
    <glyph glyph-name="Aringbelow" unicode="&#x1e00;" horiz-adv-x="1299" 
d="M195 -11c-90 0 -152 56 -152 136c0 33 9 71 32 138l302 885c54 162 132 227 276 227s220 -64 275 -227l301 -885c18 -56 27 -96 27 -131c0 -87 -62 -143 -157 -143c-88 0 -139 48 -172 161l-52 163h-459l-53 -163c-33 -116 -80 -161 -168 -161zM484 552h324l-153 517h-16
zM650 -545c-130 0 -230 91 -230 222c0 130 99 219 230 219c130 0 228 -89 228 -219c0 -131 -98 -222 -228 -222zM560 -325c0 -51 38 -89 89 -89s89 38 89 89c0 52 -38 90 -89 90s-89 -38 -89 -90z" />
    <glyph glyph-name="Acircumflex" unicode="&#xc2;" horiz-adv-x="1299" 
d="M652 1647h-6l-125 -128c-25 -21 -47 -32 -75 -32c-48 0 -80 32 -80 75c0 30 12 50 43 72l122 107c34 25 68 39 118 39c51 0 83 -13 118 -39l122 -108c32 -22 43 -42 43 -71c0 -43 -32 -75 -80 -75c-29 0 -50 11 -75 33zM195 -11c-90 0 -152 56 -152 136c0 33 9 71 32 138
l302 885c54 162 132 227 276 227s220 -64 275 -227l301 -885c18 -56 27 -96 27 -131c0 -87 -62 -143 -157 -143c-88 0 -139 48 -172 161l-52 163h-459l-53 -163c-33 -116 -80 -161 -168 -161zM484 552h324l-153 517h-16z" />
    <glyph glyph-name="Acircumflexdotbelow" unicode="&#x1eac;" horiz-adv-x="1299" 
d="M652 1647h-6l-125 -128c-25 -21 -47 -32 -75 -32c-48 0 -80 32 -80 75c0 30 12 50 43 72l122 107c34 25 68 39 118 39c51 0 83 -13 118 -39l122 -108c32 -22 43 -42 43 -71c0 -43 -32 -75 -80 -75c-29 0 -50 11 -75 33zM195 -11c-90 0 -152 56 -152 136c0 33 9 71 32 138
l302 885c54 162 132 227 276 227s220 -64 275 -227l301 -885c18 -56 27 -96 27 -131c0 -87 -62 -143 -157 -143c-88 0 -139 48 -172 161l-52 163h-459l-53 -163c-33 -116 -80 -161 -168 -161zM484 552h324l-153 517h-16zM513 -253c0 75 60 134 133 134
c74 0 134 -59 134 -134c0 -74 -60 -133 -134 -133c-73 0 -133 59 -133 133z" />
    <glyph glyph-name="Acircumflexacute" unicode="&#x1ea4;" horiz-adv-x="1299" 
d="M832 1751c0 22 6 40 35 61l77 56c23 16 39 28 72 28c43 0 74 -34 74 -70c0 -22 -7 -50 -44 -73l-80 -46c-25 -16 -41 -21 -67 -21c-37 0 -67 29 -67 65zM652 1589h-6l-116 -90c-20 -14 -43 -29 -74 -29c-46 0 -73 31 -73 69c0 23 7 44 43 66l115 75c35 21 65 33 108 33
c42 0 73 -12 108 -33l115 -75c36 -22 43 -43 43 -66c0 -38 -27 -69 -73 -69c-31 0 -54 15 -74 29zM195 -11c-90 0 -152 56 -152 136c0 33 9 71 32 138l302 885c54 162 132 227 276 227s220 -64 275 -227l301 -885c18 -56 27 -96 27 -131c0 -87 -62 -143 -157 -143
c-88 0 -139 48 -172 161l-52 163h-459l-53 -163c-33 -116 -80 -161 -168 -161zM484 552h324l-153 517h-16z" />
    <glyph glyph-name="Acircumflextilde" unicode="&#x1eaa;" horiz-adv-x="1299" 
d="M369 1805c0 31 16 63 44 88c30 31 74 47 125 47c67 0 112 -21 145 -47c28 -22 42 -33 64 -33c20 0 33 15 43 36c13 25 30 44 66 44c34 0 68 -17 68 -70c0 -29 -16 -64 -43 -88c-30 -28 -72 -45 -122 -45c-62 0 -104 19 -145 53c-29 20 -39 28 -59 28
c-24 0 -37 -14 -47 -35c-14 -26 -30 -45 -69 -45c-40 0 -70 24 -70 67zM383 1539c0 23 7 44 43 66l115 75c40 24 68 33 108 33s68 -9 108 -33l115 -75c36 -22 43 -43 43 -66c0 -39 -28 -69 -73 -69c-29 0 -49 11 -74 29l-116 90h-6l-116 -90c-25 -18 -45 -29 -74 -29
c-45 0 -73 30 -73 69zM195 -11c-90 0 -152 56 -152 136c0 33 9 71 32 138l302 885c54 162 132 227 276 227s220 -64 275 -227l301 -885c18 -56 27 -96 27 -131c0 -87 -62 -143 -157 -143c-88 0 -139 48 -172 161l-52 163h-459l-53 -163c-33 -116 -80 -161 -168 -161z
M484 552h324l-153 517h-16z" />
    <glyph glyph-name="Acircumflexgrave" unicode="&#x1ea6;" horiz-adv-x="1299" 
d="M1057 1751c0 -36 -29 -65 -66 -65c-27 0 -42 5 -68 21l-80 46c-36 23 -44 51 -44 73c0 36 31 70 75 70c33 0 49 -12 71 -28l77 -56c29 -21 35 -39 35 -61zM652 1589h-6l-116 -90c-20 -14 -43 -29 -74 -29c-46 0 -73 31 -73 69c0 23 7 44 43 66l115 75c35 21 65 33 108 33
c42 0 73 -12 108 -33l115 -75c36 -22 43 -43 43 -66c0 -38 -27 -69 -73 -69c-31 0 -54 15 -74 29zM195 -11c-90 0 -152 56 -152 136c0 33 9 71 32 138l302 885c54 162 132 227 276 227s220 -64 275 -227l301 -885c18 -56 27 -96 27 -131c0 -87 -62 -143 -157 -143
c-88 0 -139 48 -172 161l-52 163h-459l-53 -163c-33 -116 -80 -161 -168 -161zM484 552h324l-153 517h-16z" />
    <glyph glyph-name="Acircumflexhookabove" unicode="&#x1ea8;" horiz-adv-x="1299" 
d="M802 1879c0 18 7 31 22 41c18 12 49 18 93 18c105 0 172 -52 172 -135c0 -78 -73 -140 -158 -140c-38 0 -64 19 -64 48c0 24 21 43 49 44c34 2 58 18 58 47c0 26 -22 43 -52 43c-31 0 -46 -6 -72 -6c-30 0 -48 16 -48 40zM652 1589h-6l-116 -90c-30 -21 -50 -29 -74 -29
c-43 0 -73 28 -73 69c0 28 12 47 43 66l115 75c38 25 66 33 108 33s70 -8 108 -33l115 -75c31 -19 43 -38 43 -66c0 -41 -30 -69 -73 -69c-24 0 -44 8 -74 29zM195 -11c-90 0 -152 56 -152 136c0 33 9 71 32 138l302 885c54 162 132 227 276 227s220 -64 275 -227l301 -885
c18 -56 27 -96 27 -131c0 -87 -62 -143 -157 -143c-88 0 -139 48 -172 161l-52 163h-459l-53 -163c-33 -116 -80 -161 -168 -161zM484 552h324l-153 517h-16z" />
    <glyph glyph-name="Abreve" unicode="&#x102;" horiz-adv-x="1299" 
d="M962 1715c0 -59 -40 -116 -83 -160c-52 -53 -124 -84 -230 -84c-91 0 -162 28 -215 71c-54 45 -99 106 -99 173c0 47 37 83 84 83c38 0 67 -23 82 -55c25 -57 58 -118 148 -118c87 0 123 56 144 109c14 34 41 64 84 64c48 0 85 -35 85 -83zM195 -11
c-90 0 -152 56 -152 136c0 33 9 71 32 138l302 885c54 162 132 227 276 227s220 -64 275 -227l301 -885c18 -56 27 -96 27 -131c0 -87 -62 -143 -157 -143c-88 0 -139 48 -172 161l-52 163h-459l-53 -163c-33 -116 -80 -161 -168 -161zM484 552h324l-153 517h-16z" />
    <glyph glyph-name="Abreveacute" unicode="&#x1eae;" horiz-adv-x="1299" 
d="M581 1799c0 24 7 42 34 62l78 56c28 19 41 28 71 28c43 0 75 -34 75 -70c0 -24 -11 -51 -44 -73l-80 -46c-28 -17 -43 -21 -68 -21c-37 0 -66 29 -66 64zM956 1676c0 -51 -39 -98 -82 -134c-53 -47 -125 -75 -225 -75c-85 0 -156 25 -210 62c-54 38 -97 89 -97 148
c0 43 36 76 82 76c37 0 65 -20 82 -51c28 -58 67 -97 143 -97c73 0 114 34 141 90c14 30 40 58 83 58c47 0 83 -34 83 -77zM195 -11c-90 0 -152 56 -152 136c0 33 9 71 32 138l302 885c54 162 132 227 276 227s220 -64 275 -227l301 -885c18 -56 27 -96 27 -131
c0 -87 -62 -143 -157 -143c-88 0 -139 48 -172 161l-52 163h-459l-53 -163c-33 -116 -80 -161 -168 -161zM484 552h324l-153 517h-16z" />
    <glyph glyph-name="Abrevetilde" unicode="&#x1eb4;" horiz-adv-x="1299" 
d="M362 1802c0 33 17 66 45 93c32 30 76 46 129 46c59 0 106 -17 151 -49c23 -19 41 -31 63 -31c21 0 32 12 44 35c20 32 39 45 68 45c44 0 69 -26 69 -70c0 -31 -17 -68 -44 -90c-33 -28 -76 -44 -125 -44c-57 0 -101 15 -148 50c-27 21 -45 30 -64 30s-33 -8 -46 -34
c-21 -35 -38 -46 -74 -46c-41 0 -68 25 -68 65zM938 1636c0 -36 -26 -84 -75 -121c-51 -39 -122 -63 -214 -63c-76 0 -149 19 -202 55c-57 38 -88 82 -88 126c0 41 33 69 76 69c35 0 58 -15 79 -45c36 -51 71 -85 137 -85c61 0 101 27 131 79c20 34 43 51 79 51
c44 0 77 -27 77 -66zM195 -11c-90 0 -152 56 -152 136c0 33 9 71 32 138l302 885c54 162 132 227 276 227s220 -64 275 -227l301 -885c18 -56 27 -96 27 -131c0 -87 -62 -143 -157 -143c-88 0 -139 48 -172 161l-52 163h-459l-53 -163c-33 -116 -80 -161 -168 -161zM484 552
h324l-153 517h-16z" />
    <glyph glyph-name="Abrevehookabove" unicode="&#x1eb2;" horiz-adv-x="1299" 
d="M497 1879c0 22 13 38 41 49c17 6 42 9 75 9c105 0 172 -52 172 -135c0 -76 -74 -140 -162 -140c-35 0 -62 20 -62 47c0 21 14 32 58 45c30 8 51 25 51 41c0 27 -32 47 -74 47c-14 0 -24 -1 -46 -3c-28 -4 -53 14 -53 40zM939 1637c0 -36 -25 -75 -78 -121
c-53 -43 -122 -64 -212 -64c-76 0 -145 19 -200 56c-58 37 -90 83 -90 130c0 36 33 64 76 64c35 0 60 -15 79 -45c35 -55 71 -85 135 -85c65 0 107 25 133 79c16 34 43 51 79 51c44 0 78 -28 78 -65zM195 -11c-90 0 -152 56 -152 136c0 33 9 71 32 138l302 885
c54 162 132 227 276 227s220 -64 275 -227l301 -885c18 -56 27 -96 27 -131c0 -87 -62 -143 -157 -143c-88 0 -139 48 -172 161l-52 163h-459l-53 -163c-33 -116 -80 -161 -168 -161zM484 552h324l-153 517h-16z" />
    <glyph glyph-name="Abrevedotbelow" unicode="&#x1eb6;" horiz-adv-x="1299" 
d="M962 1715c0 -59 -40 -116 -83 -160c-52 -53 -124 -84 -230 -84c-91 0 -162 28 -215 71c-54 45 -99 106 -99 173c0 47 37 83 84 83c38 0 67 -23 82 -55c25 -57 58 -118 148 -118c87 0 123 56 144 109c14 34 41 64 84 64c48 0 85 -35 85 -83zM195 -11
c-90 0 -152 56 -152 136c0 33 9 71 32 138l302 885c54 162 132 227 276 227s220 -64 275 -227l301 -885c18 -56 27 -96 27 -131c0 -87 -62 -143 -157 -143c-88 0 -139 48 -172 161l-52 163h-459l-53 -163c-33 -116 -80 -161 -168 -161zM484 552h324l-153 517h-16zM515 -253
c0 75 60 134 134 134s134 -59 134 -134c0 -74 -60 -133 -134 -133s-134 59 -134 133z" />
    <glyph glyph-name="Ainvertedbreve" unicode="&#x202;" horiz-adv-x="1299" 
d="M323 1540c0 71 46 136 103 183c55 45 129 75 223 75c109 0 184 -33 238 -88c45 -47 87 -107 87 -170c0 -50 -40 -89 -90 -89c-44 0 -72 33 -86 70c-22 55 -60 113 -149 113c-93 0 -127 -63 -153 -124c-15 -34 -46 -59 -86 -59c-49 0 -87 39 -87 89zM195 -11
c-90 0 -152 56 -152 136c0 33 9 71 32 138l302 885c54 162 132 227 276 227s220 -64 275 -227l301 -885c18 -56 27 -96 27 -131c0 -87 -62 -143 -157 -143c-88 0 -139 48 -172 161l-52 163h-459l-53 -163c-33 -116 -80 -161 -168 -161zM484 552h324l-153 517h-16z" />
    <glyph glyph-name="Acaron" unicode="&#x1cd;" horiz-adv-x="1299" 
d="M366 1707c0 43 33 75 80 75c29 0 51 -11 75 -32l125 -128h6l126 127c24 22 46 33 74 33c48 0 80 -32 80 -75c0 -29 -11 -49 -42 -71l-123 -108c-34 -26 -67 -39 -117 -39c-51 0 -84 14 -118 39l-122 107c-32 22 -44 42 -44 72zM195 -11c-90 0 -152 56 -152 136
c0 33 9 71 32 138l302 885c54 162 132 227 276 227s220 -64 275 -227l301 -885c18 -56 27 -96 27 -131c0 -87 -62 -143 -157 -143c-88 0 -139 48 -172 161l-52 163h-459l-53 -163c-33 -116 -80 -161 -168 -161zM484 552h324l-153 517h-16z" />
    <glyph glyph-name="Adotaccent" unicode="&#x226;" horiz-adv-x="1299" 
d="M515 1638c0 74 59 131 134 131c74 0 134 -57 134 -131c0 -75 -59 -129 -134 -129s-134 54 -134 129zM195 -11c-90 0 -152 56 -152 136c0 33 9 71 32 138l302 885c54 162 132 227 276 227s220 -64 275 -227l301 -885c18 -56 27 -96 27 -131c0 -87 -62 -143 -157 -143
c-88 0 -139 48 -172 161l-52 163h-459l-53 -163c-33 -116 -80 -161 -168 -161zM484 552h324l-153 517h-16z" />
    <glyph glyph-name="Adotbelow" unicode="&#x1ea0;" horiz-adv-x="1299" 
d="M195 -11c-90 0 -152 56 -152 136c0 33 9 71 32 138l302 885c54 162 132 227 276 227s220 -64 275 -227l301 -885c18 -56 27 -96 27 -131c0 -87 -62 -143 -157 -143c-88 0 -139 48 -172 161l-52 163h-459l-53 -163c-33 -116 -80 -161 -168 -161zM484 552h324l-153 517h-16
zM513 -253c0 75 60 134 133 134c74 0 134 -59 134 -134c0 -74 -60 -133 -134 -133c-73 0 -133 59 -133 133z" />
    <glyph glyph-name="Ahookabove" unicode="&#x1ea2;" horiz-adv-x="1298" 
d="M470 1727c0 32 19 55 55 68c18 7 50 12 87 12c136 0 222 -70 222 -179c0 -99 -94 -185 -202 -185c-47 0 -81 26 -81 63c0 31 21 50 69 60c42 10 64 30 64 59c0 34 -30 56 -77 56c-37 0 -55 -4 -78 -4c-35 0 -59 20 -59 50zM194 -11c-89 0 -152 56 -152 136
c0 33 9 71 32 138l302 885c54 162 132 227 276 227s221 -64 275 -227l302 -885c18 -56 26 -96 26 -131c0 -87 -62 -143 -156 -143c-89 0 -140 48 -172 161l-53 163h-459l-52 -163c-33 -116 -81 -161 -169 -161zM483 552h324l-152 517h-17z" />
    <glyph glyph-name="Adblgrave" unicode="&#x200;" horiz-adv-x="1298" 
d="M561 1589c0 -49 -40 -90 -87 -90c-27 0 -50 12 -67 31l-108 123c-14 16 -22 40 -22 65c0 55 44 99 97 99c28 0 54 -5 80 -42l89 -130c11 -16 18 -35 18 -56zM904 1589c0 -49 -40 -90 -87 -90c-27 0 -51 12 -67 31l-108 123c-15 16 -23 40 -23 65c0 55 45 99 98 99
c28 0 53 -5 80 -42l88 -130c11 -16 19 -35 19 -56zM194 -11c-89 0 -152 56 -152 136c0 33 9 71 32 138l302 885c54 162 132 227 276 227s221 -64 275 -227l302 -885c18 -56 26 -96 26 -131c0 -87 -62 -143 -156 -143c-89 0 -140 48 -172 161l-53 163h-459l-52 -163
c-33 -116 -81 -161 -169 -161zM483 552h324l-152 517h-17z" />
    <glyph glyph-name="Amacron" unicode="&#x100;" horiz-adv-x="1299" 
d="M349 1576c0 44 36 73 93 73h412c56 0 92 -28 92 -73s-36 -74 -92 -74h-412c-57 0 -93 29 -93 74zM195 -11c-90 0 -152 56 -152 136c0 33 9 71 32 138l302 885c54 162 132 227 276 227s220 -64 275 -227l301 -885c18 -56 27 -96 27 -131c0 -87 -62 -143 -157 -143
c-88 0 -139 48 -172 161l-52 163h-459l-53 -163c-33 -116 -80 -161 -168 -161zM484 552h324l-153 517h-16z" />
    <glyph glyph-name="Aogonek" unicode="&#x104;" horiz-adv-x="1299" 
d="M1122 -398c-155 0 -253 82 -253 211c0 85 40 160 118 228c-33 26 -97 197 -113 272h-458l-53 -163c-31 -113 -85 -161 -174 -161c-88 0 -146 54 -146 136c0 33 9 71 32 138l302 885c54 162 131 227 275 227s221 -64 275 -227l302 -885c17 -57 26 -95 26 -125
c0 -51 -20 -87 -75 -124c-72 -51 -97 -85 -97 -131c0 -58 42 -92 106 -95c26 -1 43 -4 62 -11c26 -9 41 -31 41 -62c0 -65 -73 -113 -170 -113zM484 552h323l-152 517h-16z" />
    <glyph glyph-name="B" unicode="B" horiz-adv-x="1281" 
d="M133 189v987c0 122 67 189 192 189h413c258 0 420 -129 420 -335c0 -156 -94 -270 -244 -298v-15c183 -12 309 -146 309 -330c0 -232 -190 -387 -475 -387h-423c-125 0 -192 66 -192 189zM460 810h159c151 0 216 66 216 163c0 96 -66 158 -181 158h-194v-321zM460 234
h177c177 0 250 69 250 180s-73 184 -217 184h-210v-364z" />
    <glyph glyph-name="Blinebelow" unicode="&#x1e06;" horiz-adv-x="1281" 
d="M133 189v987c0 122 67 189 192 189h413c258 0 420 -129 420 -335c0 -156 -94 -270 -244 -298v-15c183 -12 309 -146 309 -330c0 -232 -190 -387 -475 -387h-423c-125 0 -192 66 -192 189zM460 810h159c151 0 216 66 216 163c0 96 -66 158 -181 158h-194v-321zM460 234
h177c177 0 250 69 250 180s-73 184 -217 184h-210v-364zM313 -283c0 50 37 83 98 83h427c61 0 98 -33 98 -82c0 -50 -37 -84 -98 -84h-427c-61 0 -98 33 -98 83z" />
    <glyph glyph-name="Bdotbelow" unicode="&#x1e04;" horiz-adv-x="1281" 
d="M133 189v987c0 122 67 189 192 189h413c258 0 420 -129 420 -335c0 -156 -94 -270 -244 -298v-15c183 -12 309 -146 309 -330c0 -232 -190 -387 -475 -387h-423c-125 0 -192 66 -192 189zM460 810h159c151 0 216 66 216 163c0 96 -66 158 -181 158h-194v-321zM460 234
h177c177 0 250 69 250 180s-73 184 -217 184h-210v-364zM492 -253c0 75 60 134 133 134c74 0 134 -59 134 -134c0 -74 -60 -133 -134 -133s-133 59 -133 133z" />
    <glyph glyph-name="Bdotaccent" unicode="&#x1e02;" horiz-adv-x="1281" 
d="M492 1638c0 74 58 131 133 131s134 -57 134 -131c0 -75 -59 -129 -134 -129s-133 54 -133 129zM133 189v987c0 122 67 189 192 189h413c258 0 420 -129 420 -335c0 -156 -94 -270 -244 -298v-15c183 -12 309 -146 309 -330c0 -232 -190 -387 -475 -387h-423
c-125 0 -192 66 -192 189zM460 810h159c151 0 216 66 216 163c0 96 -66 158 -181 158h-194v-321zM460 234h177c177 0 250 69 250 180s-73 184 -217 184h-210v-364z" />
    <glyph glyph-name="C" unicode="C" horiz-adv-x="1299" 
d="M84 614v148c0 393 217 628 593 628c178 0 336 -54 434 -149c66 -64 106 -142 106 -204c0 -80 -55 -133 -135 -133c-53 0 -92 20 -144 73c-75 92 -145 134 -241 134c-180 0 -282 -133 -282 -364v-118c0 -246 100 -379 282 -379c97 0 175 42 246 132c53 55 89 74 140 74
c81 0 136 -54 136 -133s-54 -167 -141 -232c-98 -76 -236 -121 -401 -121c-382 0 -593 234 -593 644z" />
    <glyph glyph-name="Cacute" unicode="&#x106;" horiz-adv-x="1299" 
d="M571 1590c0 22 9 42 20 58l93 136c27 39 55 45 84 45c57 0 104 -47 104 -105c0 -27 -9 -51 -24 -69l-113 -127c-18 -21 -43 -34 -71 -34c-50 0 -93 43 -93 96zM84 614v148c0 393 217 628 593 628c178 0 336 -54 434 -149c66 -64 106 -142 106 -204
c0 -80 -55 -133 -135 -133c-53 0 -92 20 -144 73c-75 92 -145 134 -241 134c-180 0 -282 -133 -282 -364v-118c0 -246 100 -379 282 -379c97 0 175 42 246 132c53 55 89 74 140 74c81 0 136 -54 136 -133s-54 -167 -141 -232c-98 -76 -236 -121 -401 -121
c-382 0 -593 234 -593 644z" />
    <glyph glyph-name="Ccaron" unicode="&#x10c;" horiz-adv-x="1299" 
d="M374 1707c0 43 32 75 80 75c28 0 50 -11 75 -32l125 -128h6l125 127c25 22 46 33 75 33c47 0 80 -32 80 -75c0 -29 -12 -49 -43 -71l-122 -108c-35 -26 -67 -39 -118 -39c-50 0 -84 14 -118 39l-122 107c-31 22 -43 42 -43 72zM84 614v148c0 393 217 628 593 628
c178 0 336 -54 434 -149c66 -64 106 -142 106 -204c0 -80 -55 -133 -135 -133c-53 0 -92 20 -144 73c-75 92 -145 134 -241 134c-180 0 -282 -133 -282 -364v-118c0 -246 100 -379 282 -379c97 0 175 42 246 132c53 55 89 74 140 74c81 0 136 -54 136 -133
s-54 -167 -141 -232c-98 -76 -236 -121 -401 -121c-382 0 -593 234 -593 644z" />
    <glyph glyph-name="Ccircumflex" unicode="&#x108;" horiz-adv-x="1299" 
d="M659 1647h-6l-125 -128c-24 -21 -46 -32 -75 -32c-47 0 -79 32 -79 75c0 30 11 50 43 72l122 107c34 25 67 39 118 39c50 0 83 -13 117 -39l123 -108c31 -22 43 -42 43 -71c0 -43 -33 -75 -80 -75c-29 0 -50 11 -75 33zM84 614v148c0 393 217 628 593 628
c178 0 336 -54 434 -149c66 -64 106 -142 106 -204c0 -80 -55 -133 -135 -133c-53 0 -92 20 -144 73c-75 92 -145 134 -241 134c-180 0 -282 -133 -282 -364v-118c0 -246 100 -379 282 -379c97 0 175 42 246 132c53 55 89 74 140 74c81 0 136 -54 136 -133
s-54 -167 -141 -232c-98 -76 -236 -121 -401 -121c-382 0 -593 234 -593 644z" />
    <glyph glyph-name="Cdotaccent" unicode="&#x10a;" horiz-adv-x="1299" 
d="M523 1638c0 74 59 131 133 131c75 0 134 -57 134 -131c0 -75 -59 -129 -134 -129s-133 54 -133 129zM84 614v148c0 393 217 628 593 628c178 0 336 -54 434 -149c66 -64 106 -142 106 -204c0 -80 -55 -133 -135 -133c-53 0 -92 20 -144 73c-75 92 -145 134 -241 134
c-180 0 -282 -133 -282 -364v-118c0 -246 100 -379 282 -379c97 0 175 42 246 132c53 55 89 74 140 74c81 0 136 -54 136 -133s-54 -167 -141 -232c-98 -76 -236 -121 -401 -121c-382 0 -593 234 -593 644z" />
    <glyph glyph-name="Ccedilla" unicode="&#xc7;" horiz-adv-x="1299" 
d="M677 -475c-107 0 -173 36 -173 94c0 37 24 61 62 61c27 0 50 -16 93 -16c45 0 73 21 73 58s-29 55 -87 55c-67 0 -103 27 -103 77c0 21 11 55 37 122c-319 37 -495 265 -495 638v148c0 393 217 628 593 628c178 0 336 -54 434 -149c66 -64 106 -142 106 -204
c0 -80 -55 -133 -135 -133c-53 0 -92 20 -144 73c-75 92 -145 134 -241 134c-180 0 -282 -133 -282 -364v-117c0 -246 100 -379 282 -379c97 0 175 41 246 131c53 55 89 74 140 74c81 0 136 -54 136 -133s-54 -167 -141 -232c-82 -64 -191 -106 -322 -117l-29 -73
c113 0 192 -74 192 -177c0 -117 -100 -199 -242 -199z" />
    <glyph glyph-name="Ccedillaacute" unicode="&#x1e08;" horiz-adv-x="1299" 
d="M571 1590c0 22 9 42 20 58l93 136c27 39 55 45 84 45c57 0 104 -47 104 -105c0 -27 -9 -51 -24 -69l-113 -127c-18 -21 -43 -34 -71 -34c-50 0 -93 43 -93 96zM677 -475c-107 0 -173 36 -173 94c0 37 24 61 62 61c27 0 50 -16 93 -16c45 0 73 21 73 58s-29 55 -87 55
c-67 0 -103 27 -103 77c0 21 11 55 37 122c-319 37 -495 265 -495 638v148c0 393 217 628 593 628c178 0 336 -54 434 -149c66 -64 106 -142 106 -204c0 -80 -55 -133 -135 -133c-53 0 -92 20 -144 73c-75 92 -145 134 -241 134c-180 0 -282 -133 -282 -364v-117
c0 -246 100 -379 282 -379c97 0 175 41 246 131c53 55 89 74 140 74c81 0 136 -54 136 -133s-54 -167 -141 -232c-82 -64 -191 -106 -322 -117l-29 -73c113 0 192 -74 192 -177c0 -117 -100 -199 -242 -199z" />
    <glyph glyph-name="D" unicode="D" horiz-adv-x="1351" 
d="M133 189v987c0 123 68 189 193 189h343c402 0 617 -238 617 -682c0 -445 -215 -683 -617 -683h-343c-125 0 -193 66 -193 189zM464 263h154c227 0 330 130 330 420c0 289 -103 420 -330 420h-154v-840z" />
    <glyph glyph-name="Ddotaccent" unicode="&#x1e0a;" horiz-adv-x="1351" 
d="M482 1638c0 74 59 131 134 131c74 0 133 -57 133 -131c0 -75 -59 -129 -133 -129c-75 0 -134 54 -134 129zM133 189v987c0 123 68 189 193 189h343c402 0 617 -238 617 -682c0 -445 -215 -683 -617 -683h-343c-125 0 -193 66 -193 189zM464 263h154
c227 0 330 130 330 420c0 289 -103 420 -330 420h-154v-840z" />
    <glyph glyph-name="Dcircumflexbelow" unicode="&#x1e12;" horiz-adv-x="1351" 
d="M133 189v987c0 123 68 189 193 189h343c402 0 617 -238 617 -682c0 -445 -215 -683 -617 -683h-343c-125 0 -193 66 -193 189zM464 263h154c227 0 330 130 330 420c0 289 -103 420 -330 420h-154v-840zM407 -420c-52 0 -91 40 -91 88c0 31 15 54 41 79l140 126
c37 33 68 46 118 46c51 0 80 -13 119 -47l139 -125c23 -21 42 -44 42 -80c0 -47 -39 -87 -91 -87c-35 0 -67 18 -89 45l-113 141h-13l-121 -142c-22 -26 -46 -44 -81 -44z" />
    <glyph glyph-name="Dcommaaccent" unicode="&#x1e10;" horiz-adv-x="1351" 
d="M133 189v987c0 123 68 189 193 189h343c402 0 617 -238 617 -682c0 -445 -215 -683 -617 -683h-343c-125 0 -193 66 -193 189zM464 263h154c227 0 330 130 330 420c0 289 -103 420 -330 420h-154v-840zM473 -391l40 216c8 51 56 81 105 81c74 0 117 -62 103 -115
l-67 -217c-13 -41 -48 -63 -91 -63c-68 0 -98 49 -90 98z" />
    <glyph glyph-name="Dlinebelow" unicode="&#x1e0e;" horiz-adv-x="1351" 
d="M133 189v987c0 123 68 189 193 189h343c402 0 617 -238 617 -682c0 -445 -215 -683 -617 -683h-343c-125 0 -193 66 -193 189zM464 263h154c227 0 330 130 330 420c0 289 -103 420 -330 420h-154v-840zM304 -283c0 50 37 83 98 83h427c60 0 98 -33 98 -82
c0 -50 -38 -84 -98 -84h-427c-61 0 -98 33 -98 83z" />
    <glyph glyph-name="Dcaron" unicode="&#x10e;" horiz-adv-x="1351" 
d="M333 1707c0 43 32 75 80 75c28 0 50 -11 75 -32l125 -128h6l125 127c25 22 46 33 75 33c48 0 80 -32 80 -75c0 -29 -11 -49 -43 -71l-122 -108c-35 -26 -67 -39 -118 -39c-50 0 -84 14 -118 39l-122 107c-31 22 -43 42 -43 72zM133 189v987c0 123 68 189 193 189h343
c402 0 617 -238 617 -682c0 -445 -215 -683 -617 -683h-343c-125 0 -193 66 -193 189zM464 263h154c227 0 330 130 330 420c0 289 -103 420 -330 420h-154v-840z" />
    <glyph glyph-name="Ddotbelow" unicode="&#x1e0c;" horiz-adv-x="1351" 
d="M133 189v987c0 123 68 189 193 189h343c402 0 617 -238 617 -682c0 -445 -215 -683 -617 -683h-343c-125 0 -193 66 -193 189zM464 263h154c227 0 330 130 330 420c0 289 -103 420 -330 420h-154v-840zM482 -253c0 75 60 134 134 134c73 0 133 -59 133 -134
c0 -74 -59 -133 -133 -133s-134 59 -134 133z" />
    <glyph glyph-name="Dcroat" unicode="&#x110;" horiz-adv-x="1446" 
d="M227 195v352h-32c-103 0 -167 54 -167 141c0 89 65 145 167 145h32v337c0 122 74 195 198 195h338c405 0 617 -233 617 -677c0 -448 -216 -688 -617 -688h-338c-124 0 -198 73 -198 195zM557 262h154c229 0 331 129 331 418c0 285 -108 423 -331 423h-154v-270h95
c102 0 166 -55 166 -144c0 -88 -64 -142 -166 -142h-95v-285z" />
    <glyph glyph-name="E" unicode="E" horiz-adv-x="1146" 
d="M133 189v987c0 122 67 189 192 189h619c76 0 130 -54 130 -132c0 -77 -54 -130 -130 -130h-484v-295h460c71 0 119 -50 119 -122c0 -73 -48 -120 -119 -120h-460v-304h480c80 0 134 -52 134 -131c0 -80 -54 -131 -135 -131h-614c-125 0 -192 66 -192 189z" />
    <glyph glyph-name="Egrave" unicode="&#xc8;" horiz-adv-x="1146" 
d="M499 1529l-113 127c-15 18 -23 43 -23 69c0 58 46 105 103 105c29 0 57 -6 84 -45l93 -136c12 -16 20 -36 20 -58c0 -53 -43 -96 -93 -96c-28 0 -53 14 -71 34zM133 189v987c0 122 67 189 192 189h619c76 0 130 -54 130 -132c0 -77 -54 -130 -130 -130h-484v-295h460
c71 0 119 -50 119 -122c0 -73 -48 -120 -119 -120h-460v-304h480c80 0 134 -52 134 -131c0 -80 -54 -131 -135 -131h-614c-125 0 -192 66 -192 189z" />
    <glyph glyph-name="Edblgrave" unicode="&#x204;" horiz-adv-x="1146" 
d="M494 1587c0 -49 -40 -90 -88 -90c-26 0 -50 12 -67 31l-107 123c-15 16 -23 40 -23 65c0 55 44 99 98 99c27 0 53 -5 80 -42l88 -130c11 -16 19 -35 19 -56zM837 1587c0 -49 -40 -90 -88 -90c-27 0 -50 12 -67 31l-108 123c-14 16 -22 40 -22 65c0 55 44 99 98 99
c27 0 53 -5 79 -42l89 -130c11 -16 19 -35 19 -56zM133 189v987c0 122 67 189 192 189h619c76 0 130 -54 130 -132c0 -77 -54 -130 -130 -130h-484v-295h460c71 0 119 -50 119 -122c0 -73 -48 -120 -119 -120h-460v-304h480c80 0 134 -52 134 -131c0 -80 -54 -131 -135 -131
h-614c-125 0 -192 66 -192 189z" />
    <glyph glyph-name="Eacute" unicode="&#xc9;" horiz-adv-x="1146" 
d="M495 1590c0 22 8 42 20 58l93 136c27 39 55 45 84 45c57 0 103 -47 103 -105c0 -27 -8 -51 -23 -69l-113 -127c-18 -21 -43 -34 -71 -34c-50 0 -93 43 -93 96zM133 189v987c0 122 67 189 192 189h619c76 0 130 -54 130 -132c0 -77 -54 -130 -130 -130h-484v-295h460
c71 0 119 -50 119 -122c0 -73 -48 -120 -119 -120h-460v-304h480c80 0 134 -52 134 -131c0 -80 -54 -131 -135 -131h-614c-125 0 -192 66 -192 189z" />
    <glyph glyph-name="Ecircumflex" unicode="&#xca;" horiz-adv-x="1146" 
d="M583 1647h-6l-125 -128c-25 -21 -46 -32 -75 -32c-47 0 -80 32 -80 75c0 30 12 50 44 72l121 107c35 25 68 39 119 39c50 0 82 -13 117 -39l122 -108c32 -22 43 -42 43 -71c0 -43 -32 -75 -80 -75c-29 0 -50 11 -75 33zM133 189v987c0 122 67 189 192 189h619
c76 0 130 -54 130 -132c0 -77 -54 -130 -130 -130h-484v-295h460c71 0 119 -50 119 -122c0 -73 -48 -120 -119 -120h-460v-304h480c80 0 134 -52 134 -131c0 -80 -54 -131 -135 -131h-614c-125 0 -192 66 -192 189z" />
    <glyph glyph-name="Ecircumflexhookabove" unicode="&#x1ec2;" horiz-adv-x="1146" 
d="M733 1879c0 18 7 31 22 41c19 12 49 18 93 18c106 0 173 -52 173 -135c0 -78 -74 -140 -158 -140c-39 0 -64 19 -64 48c0 24 20 43 49 44c34 2 57 18 57 47c0 26 -22 43 -52 43c-31 0 -45 -6 -71 -6c-31 0 -49 16 -49 40zM583 1589h-6l-116 -90c-30 -21 -49 -29 -74 -29
c-43 0 -73 28 -73 69c0 28 12 47 43 66l115 75c38 25 66 33 108 33s70 -8 108 -33l115 -75c31 -19 43 -38 43 -66c0 -41 -30 -69 -73 -69c-24 0 -44 8 -73 29zM133 189v987c0 122 67 189 192 189h619c76 0 130 -54 130 -132c0 -77 -54 -130 -130 -130h-484v-295h460
c71 0 119 -50 119 -122c0 -73 -48 -120 -119 -120h-460v-304h480c80 0 134 -52 134 -131c0 -80 -54 -131 -135 -131h-614c-125 0 -192 66 -192 189z" />
    <glyph glyph-name="Ecircumflexgrave" unicode="&#x1ec0;" horiz-adv-x="1146" 
d="M988 1751c0 -36 -29 -65 -66 -65c-26 0 -42 5 -68 21l-79 46c-37 23 -44 51 -44 73c0 36 30 70 74 70c33 0 49 -12 71 -28l78 -56c28 -21 34 -39 34 -61zM583 1589h-6l-116 -90c-20 -14 -43 -29 -74 -29c-45 0 -73 31 -73 69c0 23 7 44 43 66l115 75c35 21 66 33 108 33
c43 0 73 -12 108 -33l115 -75c36 -22 43 -43 43 -66c0 -38 -27 -69 -73 -69c-31 0 -54 15 -73 29zM133 189v987c0 122 67 189 192 189h619c76 0 130 -54 130 -132c0 -77 -54 -130 -130 -130h-484v-295h460c71 0 119 -50 119 -122c0 -73 -48 -120 -119 -120h-460v-304h480
c80 0 134 -52 134 -131c0 -80 -54 -131 -135 -131h-614c-125 0 -192 66 -192 189z" />
    <glyph glyph-name="Ecircumflextilde" unicode="&#x1ec4;" horiz-adv-x="1146" 
d="M300 1805c0 31 17 63 44 88c30 31 74 47 125 47c67 0 112 -21 145 -47c29 -22 42 -33 64 -33c21 0 33 15 43 36c13 25 30 44 66 44c34 0 68 -17 68 -70c0 -29 -16 -64 -43 -88c-30 -28 -72 -45 -122 -45c-62 0 -104 19 -145 53c-28 20 -38 28 -59 28
c-24 0 -37 -14 -47 -35c-14 -26 -30 -45 -69 -45s-70 24 -70 67zM314 1539c0 23 7 44 43 66l115 75c40 24 68 33 108 33s68 -9 108 -33l115 -75c36 -22 43 -43 43 -66c0 -39 -28 -69 -73 -69c-29 0 -48 11 -73 29l-117 90h-6l-116 -90c-25 -18 -45 -29 -74 -29
c-45 0 -73 30 -73 69zM133 189v987c0 122 67 189 192 189h619c76 0 130 -54 130 -132c0 -77 -54 -130 -130 -130h-484v-295h460c71 0 119 -50 119 -122c0 -73 -48 -120 -119 -120h-460v-304h480c80 0 134 -52 134 -131c0 -80 -54 -131 -135 -131h-614
c-125 0 -192 66 -192 189z" />
    <glyph glyph-name="Ecircumflexdotbelow" unicode="&#x1ec6;" horiz-adv-x="1146" 
d="M583 1647h-6l-125 -128c-25 -21 -46 -32 -75 -32c-47 0 -80 32 -80 75c0 30 12 50 44 72l121 107c35 25 68 39 119 39c50 0 82 -13 117 -39l122 -108c32 -22 43 -42 43 -71c0 -43 -32 -75 -80 -75c-29 0 -50 11 -75 33zM133 189v987c0 122 67 189 192 189h619
c76 0 130 -54 130 -132c0 -77 -54 -130 -130 -130h-484v-295h460c71 0 119 -50 119 -122c0 -73 -48 -120 -119 -120h-460v-304h480c80 0 134 -52 134 -131c0 -80 -54 -131 -135 -131h-614c-125 0 -192 66 -192 189zM447 -253c0 75 60 134 133 134c74 0 134 -59 134 -134
c0 -74 -60 -133 -134 -133s-133 59 -133 133z" />
    <glyph glyph-name="Ecircumflexacute" unicode="&#x1ebe;" horiz-adv-x="1146" 
d="M763 1751c0 22 6 40 35 61l77 56c23 16 39 28 72 28c43 0 74 -34 74 -70c0 -22 -7 -50 -44 -73l-80 -46c-25 -16 -41 -21 -67 -21c-37 0 -67 29 -67 65zM583 1589h-6l-116 -90c-20 -14 -43 -29 -74 -29c-45 0 -73 31 -73 69c0 23 7 44 43 66l115 75c35 21 66 33 108 33
c43 0 73 -12 108 -33l115 -75c36 -22 43 -43 43 -66c0 -38 -27 -69 -73 -69c-31 0 -54 15 -73 29zM133 189v987c0 122 67 189 192 189h619c76 0 130 -54 130 -132c0 -77 -54 -130 -130 -130h-484v-295h460c71 0 119 -50 119 -122c0 -73 -48 -120 -119 -120h-460v-304h480
c80 0 134 -52 134 -131c0 -80 -54 -131 -135 -131h-614c-125 0 -192 66 -192 189z" />
    <glyph glyph-name="Edieresis" unicode="&#xcb;" horiz-adv-x="1146" 
d="M279 1583c0 66 48 117 112 117c66 0 120 -51 120 -117s-54 -115 -120 -115c-64 0 -112 49 -112 115zM650 1583c0 66 50 117 113 117c67 0 118 -51 118 -117s-51 -115 -118 -115c-63 0 -113 49 -113 115zM133 189v987c0 122 67 189 192 189h619c76 0 130 -54 130 -132
c0 -77 -54 -130 -130 -130h-484v-295h460c71 0 119 -50 119 -122c0 -73 -48 -120 -119 -120h-460v-304h480c80 0 134 -52 134 -131c0 -80 -54 -131 -135 -131h-614c-125 0 -192 66 -192 189z" />
    <glyph glyph-name="Edotbelow" unicode="&#x1eb8;" horiz-adv-x="1146" 
d="M133 189v987c0 122 67 189 192 189h619c76 0 130 -54 130 -132c0 -77 -54 -130 -130 -130h-484v-295h460c71 0 119 -50 119 -122c0 -73 -48 -120 -119 -120h-460v-304h480c80 0 134 -52 134 -131c0 -80 -54 -131 -135 -131h-614c-125 0 -192 66 -192 189zM447 -253
c0 75 60 134 133 134c74 0 134 -59 134 -134c0 -74 -60 -133 -134 -133s-133 59 -133 133z" />
    <glyph glyph-name="Einvertedbreve" unicode="&#x206;" horiz-adv-x="1146" 
d="M254 1540c0 71 47 136 103 183c55 45 129 75 223 75c110 0 184 -33 238 -88c45 -47 87 -107 87 -170c0 -50 -40 -89 -89 -89c-45 0 -73 33 -87 70c-22 55 -60 113 -149 113c-92 0 -127 -63 -153 -124c-15 -34 -45 -59 -85 -59c-49 0 -88 39 -88 89zM133 189v987
c0 122 67 189 192 189h619c76 0 130 -54 130 -132c0 -77 -54 -130 -130 -130h-484v-295h460c71 0 119 -50 119 -122c0 -73 -48 -120 -119 -120h-460v-304h480c80 0 134 -52 134 -131c0 -80 -54 -131 -135 -131h-614c-125 0 -192 66 -192 189z" />
    <glyph glyph-name="Ehookabove" unicode="&#x1eba;" horiz-adv-x="1146" 
d="M402 1727c0 32 19 55 55 68c19 7 50 12 88 12c135 0 221 -70 221 -179c0 -99 -94 -185 -201 -185c-48 0 -81 26 -81 63c0 31 20 50 68 60c43 10 65 30 65 59c0 34 -31 56 -77 56c-37 0 -55 -4 -78 -4c-36 0 -60 20 -60 50zM133 189v987c0 122 67 189 192 189h619
c76 0 130 -54 130 -132c0 -77 -54 -130 -130 -130h-484v-295h460c71 0 119 -50 119 -122c0 -73 -48 -120 -119 -120h-460v-304h480c80 0 134 -52 134 -131c0 -80 -54 -131 -135 -131h-614c-125 0 -192 66 -192 189z" />
    <glyph glyph-name="Ecaron" unicode="&#x11a;" horiz-adv-x="1146" 
d="M298 1707c0 43 32 75 79 75c29 0 51 -11 75 -32l125 -128h6l126 127c25 22 46 33 75 33c47 0 80 -32 80 -75c0 -29 -12 -49 -43 -71l-123 -108c-34 -26 -67 -39 -117 -39c-51 0 -84 14 -118 39l-122 107c-32 22 -43 42 -43 72zM133 189v987c0 122 67 189 192 189h619
c76 0 130 -54 130 -132c0 -77 -54 -130 -130 -130h-484v-295h460c71 0 119 -50 119 -122c0 -73 -48 -120 -119 -120h-460v-304h480c80 0 134 -52 134 -131c0 -80 -54 -131 -135 -131h-614c-125 0 -192 66 -192 189z" />
    <glyph glyph-name="Emacron" unicode="&#x112;" horiz-adv-x="1146" 
d="M281 1576c0 44 36 73 93 73h411c57 0 93 -28 93 -73s-36 -74 -93 -74h-411c-57 0 -93 29 -93 74zM133 189v987c0 122 67 189 192 189h619c76 0 130 -54 130 -132c0 -77 -54 -130 -130 -130h-484v-295h460c71 0 119 -50 119 -122c0 -73 -48 -120 -119 -120h-460v-304h480
c80 0 134 -52 134 -131c0 -80 -54 -131 -135 -131h-614c-125 0 -192 66 -192 189z" />
    <glyph glyph-name="Emacrongrave" unicode="&#x1e14;" horiz-adv-x="1146" 
d="M626 1793c0 -36 -29 -65 -66 -65c-25 0 -40 4 -68 21l-79 46c-34 22 -45 49 -45 73c0 37 32 70 75 70c30 0 43 -8 71 -28l78 -56c27 -20 34 -38 34 -61zM281 1576c0 44 36 73 93 73h411c57 0 93 -28 93 -73s-36 -74 -93 -74h-411c-57 0 -93 29 -93 74zM133 189v987
c0 122 67 189 192 189h619c76 0 130 -54 130 -132c0 -77 -54 -130 -130 -130h-484v-295h460c71 0 119 -50 119 -122c0 -73 -48 -120 -119 -120h-460v-304h480c80 0 134 -52 134 -131c0 -80 -54 -131 -135 -131h-614c-125 0 -192 66 -192 189z" />
    <glyph glyph-name="Emacronacute" unicode="&#x1e16;" horiz-adv-x="1146" 
d="M525 1793c0 23 7 41 35 61l77 56c28 20 41 28 71 28c43 0 75 -33 75 -70c0 -24 -11 -51 -44 -73l-80 -46c-28 -17 -42 -21 -68 -21c-37 0 -66 29 -66 65zM281 1576c0 44 36 73 93 73h411c57 0 93 -28 93 -73s-36 -74 -93 -74h-411c-57 0 -93 29 -93 74zM133 189v987
c0 122 67 189 192 189h619c76 0 130 -54 130 -132c0 -77 -54 -130 -130 -130h-484v-295h460c71 0 119 -50 119 -122c0 -73 -48 -120 -119 -120h-460v-304h480c80 0 134 -52 134 -131c0 -80 -54 -131 -135 -131h-614c-125 0 -192 66 -192 189z" />
    <glyph glyph-name="Etilde" unicode="&#x1ebc;" horiz-adv-x="1146" 
d="M269 1560c0 87 83 159 189 159c79 0 125 -26 161 -56c30 -24 51 -38 70 -38c23 0 40 21 52 48c12 24 31 45 71 45c48 0 75 -30 75 -81c0 -84 -82 -154 -183 -154c-81 0 -124 25 -162 56c-27 23 -49 38 -69 38c-23 0 -40 -20 -54 -48c-12 -25 -32 -45 -75 -45
c-48 0 -75 28 -75 76zM133 189v987c0 122 67 189 192 189h619c76 0 130 -54 130 -132c0 -77 -54 -130 -130 -130h-484v-295h460c71 0 119 -50 119 -122c0 -73 -48 -120 -119 -120h-460v-304h480c80 0 134 -52 134 -131c0 -80 -54 -131 -135 -131h-614
c-125 0 -192 66 -192 189z" />
    <glyph glyph-name="Ecircumflexbelow" unicode="&#x1e18;" horiz-adv-x="1146" 
d="M133 189v987c0 122 67 189 192 189h619c76 0 130 -54 130 -132c0 -77 -54 -130 -130 -130h-484v-295h460c71 0 119 -50 119 -122c0 -73 -48 -120 -119 -120h-460v-304h480c80 0 134 -52 134 -131c0 -80 -54 -131 -135 -131h-614c-125 0 -192 66 -192 189zM371 -420
c-52 0 -91 40 -91 88c0 31 15 54 42 79l139 126c38 33 68 46 119 46c50 0 80 -13 119 -47l139 -125c22 -21 41 -44 41 -80c0 -47 -39 -87 -91 -87c-34 0 -67 18 -89 45l-113 141h-13l-120 -142c-22 -26 -46 -44 -82 -44z" />
    <glyph glyph-name="Ebreve" unicode="&#x114;" horiz-adv-x="1146" 
d="M893 1715c0 -59 -40 -116 -83 -160c-52 -53 -124 -84 -230 -84c-90 0 -162 28 -214 71c-55 45 -100 106 -100 173c0 47 37 83 85 83c37 0 67 -23 82 -55c25 -57 58 -118 147 -118c87 0 123 56 144 109c14 34 41 64 84 64c48 0 85 -35 85 -83zM133 189v987
c0 122 67 189 192 189h619c76 0 130 -54 130 -132c0 -77 -54 -130 -130 -130h-484v-295h460c71 0 119 -50 119 -122c0 -73 -48 -120 -119 -120h-460v-304h480c80 0 134 -52 134 -131c0 -80 -54 -131 -135 -131h-614c-125 0 -192 66 -192 189z" />
    <glyph glyph-name="Etildebelow" unicode="&#x1e1a;" horiz-adv-x="1146" 
d="M133 189v987c0 122 67 189 192 189h619c76 0 130 -54 130 -132c0 -77 -54 -130 -130 -130h-484v-295h460c71 0 119 -50 119 -122c0 -73 -48 -120 -119 -120h-460v-304h480c80 0 134 -52 134 -131c0 -80 -54 -131 -135 -131h-614c-125 0 -192 66 -192 189zM237 -293
c0 48 20 93 54 124c38 35 93 57 159 57c70 0 114 -23 157 -59c42 -34 61 -56 96 -56c39 0 55 23 70 61c14 25 33 48 70 48c48 0 81 -28 81 -83c0 -48 -21 -96 -58 -128c-40 -36 -94 -59 -156 -59s-102 23 -149 59c-45 35 -65 57 -103 57c-42 0 -57 -23 -72 -61
c-14 -27 -29 -48 -68 -48c-45 0 -81 27 -81 88z" />
    <glyph glyph-name="Edotaccent" unicode="&#x116;" horiz-adv-x="1146" 
d="M447 1638c0 74 58 131 133 131s134 -57 134 -131c0 -75 -59 -129 -134 -129s-133 54 -133 129zM133 189v987c0 122 67 189 192 189h619c76 0 130 -54 130 -132c0 -77 -54 -130 -130 -130h-484v-295h460c71 0 119 -50 119 -122c0 -73 -48 -120 -119 -120h-460v-304h480
c80 0 134 -52 134 -131c0 -80 -54 -131 -135 -131h-614c-125 0 -192 66 -192 189z" />
    <glyph glyph-name="Ecedilla" unicode="&#x228;" horiz-adv-x="1146" 
d="M594 -474c-47 0 -86 7 -114 21c-33 15 -49 37 -49 67c0 37 25 60 63 60c24 0 49 -10 83 -10c50 0 79 21 79 60c0 35 -27 52 -87 53c-68 1 -103 27 -103 77c0 24 10 55 47 146h-191c-125 0 -193 66 -193 189v987c0 122 68 189 193 189h622c76 0 130 -54 130 -132
c0 -77 -54 -131 -130 -131h-484v-294h460c71 0 119 -50 119 -122c0 -73 -47 -120 -119 -120h-460v-303h480c80 0 134 -53 134 -132c0 -80 -54 -131 -135 -131h-249l-39 -99c111 3 192 -71 192 -175c0 -120 -99 -200 -249 -200z" />
    <glyph glyph-name="Ecedillabreve" unicode="&#x1e1c;" horiz-adv-x="1146" 
d="M893 1715c0 -59 -40 -116 -83 -160c-52 -53 -124 -84 -230 -84c-90 0 -162 28 -214 71c-55 45 -100 106 -100 173c0 47 37 83 85 83c37 0 67 -23 82 -55c25 -57 58 -118 147 -118c87 0 123 56 144 109c14 34 41 64 84 64c48 0 85 -35 85 -83zM594 -474
c-47 0 -86 7 -114 21c-33 15 -49 37 -49 67c0 37 25 60 63 60c24 0 49 -10 83 -10c50 0 79 21 79 60c0 35 -27 52 -87 53c-68 1 -103 27 -103 77c0 24 10 55 47 146h-191c-125 0 -193 66 -193 189v987c0 122 68 189 193 189h622c76 0 130 -54 130 -132
c0 -77 -54 -131 -130 -131h-484v-294h460c71 0 119 -50 119 -122c0 -73 -47 -120 -119 -120h-460v-303h480c80 0 134 -53 134 -132c0 -80 -54 -131 -135 -131h-249l-39 -99c111 3 192 -71 192 -175c0 -120 -99 -200 -249 -200z" />
    <glyph glyph-name="Eogonek" unicode="&#x118;" horiz-adv-x="1146" 
d="M129 189v987c0 122 68 189 193 189h622c76 0 130 -54 130 -132c0 -77 -54 -131 -130 -131h-484v-294h460c71 0 119 -50 119 -122c0 -73 -47 -120 -119 -120h-460v-303h480c80 0 134 -53 134 -131c0 -54 -29 -93 -96 -122c-106 -49 -138 -81 -138 -134
c0 -54 49 -84 128 -87c27 -2 52 -6 67 -16c24 -9 37 -30 37 -59c0 -36 -21 -65 -59 -85c-34 -17 -81 -27 -131 -27c-152 0 -254 78 -254 202c0 74 41 141 108 181v15h-414c-125 0 -193 66 -193 189z" />
    <glyph glyph-name="F" unicode="F" horiz-adv-x="1093" 
d="M302 -10c-107 0 -169 66 -169 178v1008c0 122 67 189 191 189h611c76 0 131 -56 131 -134c0 -77 -55 -131 -131 -131h-471v-328h420c79 0 131 -52 131 -129s-53 -129 -131 -129h-420v-346c0 -114 -58 -178 -162 -178z" />
    <glyph glyph-name="Fdotaccent" unicode="&#x1e1e;" horiz-adv-x="1093" 
d="M432 1638c0 74 59 131 134 131c74 0 134 -57 134 -131c0 -75 -59 -129 -134 -129s-134 54 -134 129zM302 -10c-107 0 -169 66 -169 178v1008c0 122 67 189 191 189h611c76 0 131 -56 131 -134c0 -77 -55 -131 -131 -131h-471v-328h420c79 0 131 -52 131 -129
s-53 -129 -131 -129h-420v-346c0 -114 -58 -178 -162 -178z" />
    <glyph glyph-name="G" unicode="G" horiz-adv-x="1324" 
d="M81 593v182c0 378 226 615 594 615c155 0 292 -42 392 -117c90 -65 149 -151 149 -230s-55 -133 -134 -133c-39 0 -69 13 -98 42c-81 81 -156 159 -285 159c-189 0 -288 -121 -288 -352v-165c0 -228 101 -353 285 -353c143 0 239 84 239 209v58h-123
c-87 0 -135 42 -135 118c0 75 47 116 135 116h245c132 0 190 -57 190 -184v-83c0 -301 -227 -505 -564 -505c-379 0 -602 234 -602 623z" />
    <glyph glyph-name="Gacute" unicode="&#x1f4;" horiz-adv-x="1324" 
d="M583 1590c0 22 9 42 20 58l93 136c27 39 55 45 84 45c57 0 104 -47 104 -105c0 -27 -9 -51 -24 -69l-113 -127c-18 -21 -43 -34 -71 -34c-50 0 -93 43 -93 96zM81 593v182c0 378 226 615 594 615c155 0 292 -42 392 -117c90 -65 149 -151 149 -230s-55 -133 -134 -133
c-39 0 -69 13 -98 42c-81 81 -156 159 -285 159c-189 0 -288 -121 -288 -352v-165c0 -228 101 -353 285 -353c143 0 239 84 239 209v58h-123c-87 0 -135 42 -135 118c0 75 47 116 135 116h245c132 0 190 -57 190 -184v-83c0 -301 -227 -505 -564 -505
c-379 0 -602 234 -602 623z" />
    <glyph glyph-name="Gcaron" unicode="&#x1e6;" horiz-adv-x="1324" 
d="M386 1707c0 43 32 75 80 75c28 0 50 -11 75 -32l124 -128h7l125 127c25 22 46 33 75 33c47 0 80 -32 80 -75c0 -29 -12 -49 -43 -71l-122 -108c-35 -26 -67 -39 -118 -39c-50 0 -84 14 -118 39l-122 107c-31 22 -43 42 -43 72zM81 593v182c0 378 226 615 594 615
c155 0 292 -42 392 -117c90 -65 149 -151 149 -230s-55 -133 -134 -133c-39 0 -69 13 -98 42c-81 81 -156 159 -285 159c-189 0 -288 -121 -288 -352v-165c0 -228 101 -353 285 -353c143 0 239 84 239 209v58h-123c-87 0 -135 42 -135 118c0 75 47 116 135 116h245
c132 0 190 -57 190 -184v-83c0 -301 -227 -505 -564 -505c-379 0 -602 234 -602 623z" />
    <glyph glyph-name="Gcircumflex" unicode="&#x11c;" horiz-adv-x="1324" 
d="M671 1647h-6l-125 -128c-24 -21 -46 -32 -75 -32c-47 0 -79 32 -79 75c0 30 11 50 43 72l122 107c34 25 67 39 118 39c50 0 83 -13 117 -39l123 -108c31 -22 43 -42 43 -71c0 -43 -33 -75 -80 -75c-29 0 -50 11 -75 33zM81 593v182c0 378 226 615 594 615
c155 0 292 -42 392 -117c90 -65 149 -151 149 -230s-55 -133 -134 -133c-39 0 -69 13 -98 42c-81 81 -156 159 -285 159c-189 0 -288 -121 -288 -352v-165c0 -228 101 -353 285 -353c143 0 239 84 239 209v58h-123c-87 0 -135 42 -135 118c0 75 47 116 135 116h245
c132 0 190 -57 190 -184v-83c0 -301 -227 -505 -564 -505c-379 0 -602 234 -602 623z" />
    <glyph glyph-name="Gbreve" unicode="&#x11e;" horiz-adv-x="1324" 
d="M982 1715c0 -59 -40 -116 -84 -160c-52 -53 -124 -84 -229 -84c-91 0 -162 28 -215 71c-55 45 -99 106 -99 173c0 47 37 83 84 83c38 0 67 -23 82 -55c25 -57 58 -118 148 -118c86 0 122 56 144 109c14 34 40 64 83 64c48 0 86 -35 86 -83zM81 593v182
c0 378 226 615 594 615c155 0 292 -42 392 -117c90 -65 149 -151 149 -230s-55 -133 -134 -133c-39 0 -69 13 -98 42c-81 81 -156 159 -285 159c-189 0 -288 -121 -288 -352v-165c0 -228 101 -353 285 -353c143 0 239 84 239 209v58h-123c-87 0 -135 42 -135 118
c0 75 47 116 135 116h245c132 0 190 -57 190 -184v-83c0 -301 -227 -505 -564 -505c-379 0 -602 234 -602 623z" />
    <glyph glyph-name="Gmacron" unicode="&#x1e20;" horiz-adv-x="1324" 
d="M370 1576c0 44 35 73 92 73h412c57 0 92 -28 92 -73s-35 -74 -92 -74h-412c-57 0 -92 29 -92 74zM81 593v182c0 378 226 615 594 615c155 0 292 -42 392 -117c90 -65 149 -151 149 -230s-55 -133 -134 -133c-39 0 -69 13 -98 42c-81 81 -156 159 -285 159
c-189 0 -288 -121 -288 -352v-165c0 -228 101 -353 285 -353c143 0 239 84 239 209v58h-123c-87 0 -135 42 -135 118c0 75 47 116 135 116h245c132 0 190 -57 190 -184v-83c0 -301 -227 -505 -564 -505c-379 0 -602 234 -602 623z" />
    <glyph glyph-name="Gdotaccent" unicode="&#x120;" horiz-adv-x="1324" 
d="M535 1638c0 74 59 131 133 131c75 0 134 -57 134 -131c0 -75 -59 -129 -134 -129s-133 54 -133 129zM81 593v182c0 378 226 615 594 615c155 0 292 -42 392 -117c90 -65 149 -151 149 -230s-55 -133 -134 -133c-39 0 -69 13 -98 42c-81 81 -156 159 -285 159
c-189 0 -288 -121 -288 -352v-165c0 -228 101 -353 285 -353c143 0 239 84 239 209v58h-123c-87 0 -135 42 -135 118c0 75 47 116 135 116h245c132 0 190 -57 190 -184v-83c0 -301 -227 -505 -564 -505c-379 0 -602 234 -602 623z" />
    <glyph glyph-name="Gcommaaccent" unicode="&#x122;" horiz-adv-x="1324" 
d="M81 593v182c0 378 226 615 594 615c155 0 292 -42 392 -117c90 -65 149 -151 149 -230s-55 -133 -134 -133c-39 0 -69 13 -98 42c-81 81 -156 159 -285 159c-189 0 -288 -121 -288 -352v-165c0 -228 101 -353 285 -353c143 0 239 84 239 209v58h-123
c-87 0 -135 42 -135 118c0 75 47 116 135 116h245c132 0 190 -57 190 -184v-83c0 -301 -227 -505 -564 -505c-379 0 -602 234 -602 623zM526 -391l40 216c8 51 56 81 105 81c74 0 117 -62 102 -115l-67 -217c-12 -41 -48 -63 -90 -63c-68 0 -98 49 -90 98z" />
    <glyph glyph-name="H" unicode="H" horiz-adv-x="1428" 
d="M1130 -10c-106 0 -165 64 -165 178v392h-501v-392c0 -113 -60 -178 -166 -178s-165 64 -165 178v1029c0 114 59 178 165 178s166 -65 166 -178v-374h501v374c0 114 59 178 165 178s166 -65 166 -178v-1029c0 -113 -60 -178 -166 -178z" />
    <glyph glyph-name="Hdieresis" unicode="&#x1e26;" horiz-adv-x="1428" 
d="M414 1583c0 66 48 117 112 117c66 0 119 -51 119 -117s-53 -115 -119 -115c-64 0 -112 49 -112 115zM784 1583c0 66 50 117 114 117c67 0 118 -51 118 -117s-51 -115 -118 -115c-64 0 -114 49 -114 115zM1130 -10c-106 0 -165 64 -165 178v392h-501v-392
c0 -113 -60 -178 -166 -178s-165 64 -165 178v1029c0 114 59 178 165 178s166 -65 166 -178v-374h501v374c0 114 59 178 165 178s166 -65 166 -178v-1029c0 -113 -60 -178 -166 -178z" />
    <glyph glyph-name="Hcaron" unicode="&#x21e;" horiz-adv-x="1428" 
d="M432 1707c0 43 32 75 79 75c29 0 51 -11 75 -32l125 -128h6l126 127c25 22 46 33 75 33c47 0 80 -32 80 -75c0 -29 -12 -49 -43 -71l-123 -108c-34 -26 -67 -39 -117 -39c-51 0 -84 14 -118 39l-122 107c-32 22 -43 42 -43 72zM1130 -10c-106 0 -165 64 -165 178v392
h-501v-392c0 -113 -60 -178 -166 -178s-165 64 -165 178v1029c0 114 59 178 165 178s166 -65 166 -178v-374h501v374c0 114 59 178 165 178s166 -65 166 -178v-1029c0 -113 -60 -178 -166 -178z" />
    <glyph glyph-name="Hcircumflex" unicode="&#x124;" horiz-adv-x="1428" 
d="M717 1647h-6l-125 -128c-25 -21 -47 -32 -75 -32c-48 0 -80 32 -80 75c0 30 12 50 43 72l122 107c34 25 68 39 118 39c51 0 83 -13 118 -39l122 -108c32 -22 43 -42 43 -71c0 -43 -32 -75 -80 -75c-29 0 -50 11 -75 33zM1130 -10c-106 0 -165 64 -165 178v392h-501v-392
c0 -113 -60 -178 -166 -178s-165 64 -165 178v1029c0 114 59 178 165 178s166 -65 166 -178v-374h501v374c0 114 59 178 165 178s166 -65 166 -178v-1029c0 -113 -60 -178 -166 -178z" />
    <glyph glyph-name="Hdotbelow" unicode="&#x1e24;" horiz-adv-x="1428" 
d="M1130 -10c-106 0 -165 64 -165 178v392h-501v-392c0 -113 -60 -178 -166 -178s-165 64 -165 178v1029c0 114 59 178 165 178s166 -65 166 -178v-374h501v374c0 114 59 178 165 178s166 -65 166 -178v-1029c0 -113 -60 -178 -166 -178zM577 -253c0 75 61 134 134 134
c74 0 134 -59 134 -134c0 -74 -60 -133 -134 -133s-134 59 -134 133z" />
    <glyph glyph-name="Hdotaccent" unicode="&#x1e22;" horiz-adv-x="1428" 
d="M580 1638c0 74 59 131 134 131c74 0 133 -57 133 -131c0 -75 -58 -129 -133 -129s-134 54 -134 129zM1130 -10c-106 0 -165 64 -165 178v392h-501v-392c0 -113 -60 -178 -166 -178s-165 64 -165 178v1029c0 114 59 178 165 178s166 -65 166 -178v-374h501v374
c0 114 59 178 165 178s166 -65 166 -178v-1029c0 -113 -60 -178 -166 -178z" />
    <glyph glyph-name="Hbrevebelow" unicode="&#x1e2a;" horiz-adv-x="1428" 
d="M1130 -10c-106 0 -165 64 -165 178v392h-501v-392c0 -113 -60 -178 -166 -178s-165 64 -165 178v1029c0 114 59 178 165 178s166 -65 166 -178v-374h501v374c0 114 59 178 165 178s166 -65 166 -178v-1029c0 -113 -60 -178 -166 -178zM396 -203c0 61 42 92 86 92
c38 0 63 -22 82 -56c34 -71 72 -122 150 -122c79 0 117 53 143 111c17 35 38 67 84 67c49 0 87 -35 87 -92c0 -53 -37 -115 -80 -158c-53 -52 -127 -87 -233 -87c-89 0 -164 25 -222 73c-54 44 -97 112 -97 172z" />
    <glyph glyph-name="Hcedilla" unicode="&#x1e28;" horiz-adv-x="1428" 
d="M965 1197c0 114 59 178 165 178s166 -65 166 -178v-1029c0 -113 -60 -178 -166 -178s-165 64 -165 178v392h-501v-389c0 -68 -8 -103 -34 -147l-67 -123c112 3 192 -71 192 -175c0 -120 -99 -200 -248 -200c-47 0 -87 7 -114 21c-33 15 -49 38 -49 67c0 37 24 60 62 60
c24 0 50 -10 83 -10c50 0 80 20 80 58c0 36 -28 55 -88 55c-67 0 -102 27 -102 75c0 28 15 61 65 153c-75 20 -111 73 -111 166v1026c0 114 59 178 165 178s166 -65 166 -178v-374h501v374z" />
    <glyph glyph-name="Hbar" unicode="&#x126;" horiz-adv-x="1427" 
d="M132 953h-14c-72 0 -115 39 -115 99c0 55 40 99 115 99h14v52c0 110 62 172 165 172c104 0 166 -62 166 -172v-52h501v52c0 110 62 172 165 172c66 0 114 -27 138 -76c18 -24 28 -108 28 -148h11c71 0 114 -40 114 -99c0 -60 -43 -99 -114 -99h-11v-785
c0 -113 -60 -178 -166 -178c-105 0 -165 64 -165 178v392h-501v-392c0 -113 -60 -178 -166 -178c-105 0 -165 64 -165 178v785zM463 819h501v140h-501v-140z" />
    <glyph glyph-name="I" unicode="I" horiz-adv-x="596" 
d="M300 -10c-106 0 -167 65 -167 178v1029c0 114 59 178 165 178s166 -65 166 -178v-1029c0 -114 -59 -178 -164 -178z" />
    <glyph glyph-name="Idotaccent" unicode="&#x130;" horiz-adv-x="596" 
d="M164 1638c0 74 59 131 134 131c74 0 134 -57 134 -131c0 -75 -59 -129 -134 -129s-134 54 -134 129zM300 -10c-106 0 -167 65 -167 178v1029c0 114 59 178 165 178s166 -65 166 -178v-1029c0 -114 -59 -178 -164 -178z" />
    <glyph glyph-name="Igrave" unicode="&#xcc;" horiz-adv-x="596" 
d="M217 1529l-113 127c-15 18 -24 43 -24 69c0 58 47 105 104 105c29 0 57 -6 84 -45l93 -136c12 -16 20 -36 20 -58c0 -53 -43 -96 -93 -96c-28 0 -53 14 -71 34zM300 -10c-106 0 -167 65 -167 178v1029c0 114 59 178 165 178s166 -65 166 -178v-1029
c0 -114 -59 -178 -164 -178z" />
    <glyph glyph-name="Idblgrave" unicode="&#x208;" horiz-adv-x="596" 
d="M212 1587c0 -49 -40 -90 -88 -90c-27 0 -50 12 -67 31l-107 123c-15 16 -23 40 -23 65c0 55 44 99 98 99c27 0 53 -5 79 -42l89 -130c11 -16 19 -35 19 -56zM554 1587c0 -49 -40 -90 -87 -90c-27 0 -50 12 -67 31l-108 123c-14 16 -22 40 -22 65c0 55 44 99 97 99
c28 0 54 -5 80 -42l89 -130c11 -16 18 -35 18 -56zM300 -10c-106 0 -167 65 -167 178v1029c0 114 59 178 165 178s166 -65 166 -178v-1029c0 -114 -59 -178 -164 -178z" />
    <glyph glyph-name="Iacute" unicode="&#xcd;" horiz-adv-x="596" 
d="M213 1590c0 22 8 42 20 58l92 136c28 39 56 45 85 45c56 0 103 -47 103 -105c0 -27 -8 -51 -24 -69l-112 -127c-18 -21 -43 -34 -71 -34c-50 0 -93 43 -93 96zM300 -10c-106 0 -167 65 -167 178v1029c0 114 59 178 165 178s166 -65 166 -178v-1029
c0 -114 -59 -178 -164 -178z" />
    <glyph glyph-name="Icircumflex" unicode="&#xce;" horiz-adv-x="596" 
d="M301 1647h-6l-125 -128c-25 -21 -47 -32 -75 -32c-48 0 -80 32 -80 75c0 30 12 50 43 72l122 107c34 25 68 39 118 39c51 0 83 -13 118 -39l122 -108c32 -22 43 -42 43 -71c0 -43 -32 -75 -80 -75c-29 0 -50 11 -75 33zM300 -10c-106 0 -167 65 -167 178v1029
c0 114 59 178 165 178s166 -65 166 -178v-1029c0 -114 -59 -178 -164 -178z" />
    <glyph glyph-name="Icaron" unicode="&#x1cf;" horiz-adv-x="596" 
d="M15 1707c0 43 32 75 80 75c28 0 50 -11 75 -32l125 -128h6l125 127c25 22 46 33 75 33c48 0 80 -32 80 -75c0 -29 -11 -49 -43 -71l-122 -108c-35 -26 -67 -39 -118 -39c-50 0 -84 14 -118 39l-122 107c-31 22 -43 42 -43 72zM300 -10c-107 0 -168 65 -168 178v1029
c0 114 60 178 166 178c105 0 165 -65 165 -178v-1029c0 -114 -58 -178 -163 -178z" />
    <glyph glyph-name="Idieresis" unicode="&#xcf;" horiz-adv-x="596" 
d="M-3 1583c0 66 48 117 112 117c66 0 120 -51 120 -117s-54 -115 -120 -115c-64 0 -112 49 -112 115zM367 1583c0 66 51 117 114 117c67 0 118 -51 118 -117s-51 -115 -118 -115c-63 0 -114 49 -114 115zM300 -10c-106 0 -167 65 -167 178v1029c0 114 59 178 165 178
s166 -65 166 -178v-1029c0 -114 -59 -178 -164 -178z" />
    <glyph glyph-name="Idieresisacute" unicode="&#x1e2e;" horiz-adv-x="596" 
d="M223 1793c0 23 7 41 35 61l77 56c28 20 41 28 71 28c43 0 75 -33 75 -70c0 -24 -11 -51 -44 -73l-80 -46c-27 -17 -42 -21 -68 -21c-36 0 -66 29 -66 65zM-3 1583c0 66 48 117 112 117c66 0 120 -51 120 -117s-54 -115 -120 -115c-64 0 -112 49 -112 115zM367 1583
c0 66 51 117 114 117c67 0 118 -51 118 -117s-51 -115 -118 -115c-63 0 -114 49 -114 115zM300 -10c-106 0 -167 65 -167 178v1029c0 114 59 178 165 178s166 -65 166 -178v-1029c0 -114 -59 -178 -164 -178z" />
    <glyph glyph-name="Ibreve" unicode="&#x12c;" horiz-adv-x="596" 
d="M611 1715c0 -59 -40 -116 -83 -160c-52 -53 -124 -84 -230 -84c-91 0 -162 28 -215 71c-54 45 -99 106 -99 173c0 47 37 83 84 83c38 0 67 -23 82 -55c25 -57 58 -118 148 -118c87 0 123 56 144 109c14 34 41 64 84 64c48 0 85 -35 85 -83zM300 -10
c-106 0 -167 65 -167 178v1029c0 114 59 178 165 178s166 -65 166 -178v-1029c0 -114 -59 -178 -164 -178z" />
    <glyph glyph-name="Idotbelow" unicode="&#x1eca;" horiz-adv-x="596" 
d="M300 -10c-106 0 -167 65 -167 178v1029c0 114 59 178 165 178s166 -65 166 -178v-1029c0 -114 -59 -178 -164 -178zM164 -253c0 75 61 134 134 134c74 0 134 -59 134 -134c0 -74 -60 -133 -134 -133s-134 59 -134 133z" />
    <glyph glyph-name="Iinvertedbreve" unicode="&#x20a;" horiz-adv-x="596" 
d="M-28 1540c0 71 46 136 103 183c55 45 129 75 223 75c109 0 184 -33 238 -88c45 -47 87 -107 87 -170c0 -50 -40 -89 -90 -89c-44 0 -72 33 -86 70c-22 55 -60 113 -149 113c-93 0 -127 -63 -153 -124c-15 -34 -46 -59 -86 -59c-49 0 -87 39 -87 89zM300 -10
c-106 0 -167 65 -167 178v1029c0 114 59 178 165 178s166 -65 166 -178v-1029c0 -114 -59 -178 -164 -178z" />
    <glyph glyph-name="Imacron" unicode="&#x12a;" horiz-adv-x="596" 
d="M-1 1576c0 44 36 73 93 73h411c57 0 93 -28 93 -73s-36 -74 -93 -74h-411c-57 0 -93 29 -93 74zM300 -10c-106 0 -167 65 -167 178v1029c0 114 59 178 165 178s166 -65 166 -178v-1029c0 -114 -59 -178 -164 -178z" />
    <glyph glyph-name="Itildebelow" unicode="&#x1e2c;" horiz-adv-x="596" 
d="M300 -10c-106 0 -167 65 -167 178v1029c0 114 59 178 165 178s166 -65 166 -178v-1029c0 -114 -59 -178 -164 -178zM-45 -293c0 48 19 93 54 124c38 35 93 57 159 57c70 0 114 -23 157 -59c41 -34 61 -56 96 -56c39 0 55 23 70 61c14 25 33 48 70 48c47 0 81 -28 81 -83
c0 -48 -21 -96 -59 -128c-39 -36 -94 -59 -156 -59c-61 0 -101 23 -148 59c-45 35 -65 57 -103 57c-42 0 -57 -23 -72 -61c-14 -27 -29 -48 -68 -48c-45 0 -81 27 -81 88z" />
    <glyph glyph-name="Ihookabove" unicode="&#x1ec8;" horiz-adv-x="596" 
d="M120 1727c0 32 19 55 55 68c18 7 50 12 88 12c135 0 221 -70 221 -179c0 -99 -94 -185 -202 -185c-47 0 -81 26 -81 63c0 31 21 50 69 60c42 10 65 30 65 59c0 34 -31 56 -77 56c-37 0 -55 -4 -78 -4c-36 0 -60 20 -60 50zM300 -10c-106 0 -167 65 -167 178v1029
c0 114 59 178 165 178s166 -65 166 -178v-1029c0 -114 -59 -178 -164 -178z" />
    <glyph glyph-name="Itilde" unicode="&#x128;" horiz-adv-x="596" 
d="M-14 1560c0 87 84 159 190 159c78 0 125 -26 161 -56c30 -24 51 -38 70 -38c23 0 40 21 51 48c13 24 32 45 71 45c48 0 76 -30 76 -81c0 -84 -82 -154 -184 -154c-81 0 -123 25 -161 56c-27 23 -49 38 -69 38c-23 0 -40 -20 -54 -48c-13 -25 -32 -45 -75 -45
c-48 0 -76 28 -76 76zM300 -10c-106 0 -167 65 -167 178v1029c0 114 59 178 165 178s166 -65 166 -178v-1029c0 -114 -59 -178 -164 -178z" />
    <glyph glyph-name="Iogonek" unicode="&#x12e;" horiz-adv-x="596" 
d="M328 -398c-154 0 -253 83 -253 212c0 87 39 163 112 221c-35 27 -54 68 -54 118v1044c0 114 59 178 165 178s166 -65 166 -178v-1029c0 -77 -18 -112 -78 -153c-72 -46 -97 -80 -97 -129c0 -60 41 -92 109 -97c63 -5 97 -28 97 -75c0 -37 -21 -69 -61 -89
c-28 -15 -65 -23 -106 -23z" />
    <glyph glyph-name="I.1" horiz-adv-x="988" 
d="M54 126c0 69 57 125 126 125h149v863h-149c-69 0 -126 56 -126 125c0 70 57 126 126 126h628c69 0 126 -56 126 -126c0 -69 -57 -125 -126 -125h-149v-863h149c69 0 126 -56 126 -125c0 -70 -57 -126 -126 -126h-628c-69 0 -126 56 -126 126z" />
    <glyph glyph-name="Idotaccent.1" horiz-adv-x="988" 
d="M360 1638c0 74 59 131 134 131c74 0 134 -57 134 -131c0 -75 -59 -129 -134 -129s-134 54 -134 129zM54 126c0 69 57 125 126 125h149v863h-149c-69 0 -126 56 -126 125c0 70 57 126 126 126h628c69 0 126 -56 126 -126c0 -69 -57 -125 -126 -125h-149v-863h149
c69 0 126 -56 126 -125c0 -70 -57 -126 -126 -126h-628c-69 0 -126 56 -126 126z" />
    <glyph glyph-name="Igrave.1" horiz-adv-x="988" 
d="M424 1529l-112 127c-16 18 -24 43 -24 69c0 58 46 105 103 105c29 0 57 -6 85 -45l92 -136c12 -16 20 -36 20 -58c0 -53 -43 -96 -93 -96c-28 0 -53 14 -71 34zM54 126c0 69 57 125 126 125h149v863h-149c-69 0 -126 56 -126 125c0 70 57 126 126 126h628
c69 0 126 -56 126 -126c0 -69 -57 -125 -126 -125h-149v-863h149c69 0 126 -56 126 -125c0 -70 -57 -126 -126 -126h-628c-69 0 -126 56 -126 126z" />
    <glyph glyph-name="Idblgrave.1" horiz-adv-x="988" 
d="M406 1587c0 -49 -40 -90 -87 -90c-27 0 -50 12 -67 31l-108 123c-14 16 -22 40 -22 65c0 55 44 99 97 99c28 0 54 -5 80 -42l89 -130c11 -16 18 -35 18 -56zM749 1587c0 -49 -40 -90 -88 -90c-26 0 -50 12 -67 31l-107 123c-15 16 -23 40 -23 65c0 55 44 99 98 99
c27 0 53 -5 80 -42l88 -130c11 -16 19 -35 19 -56zM54 126c0 69 57 125 126 125h149v863h-149c-69 0 -126 56 -126 125c0 70 57 126 126 126h628c69 0 126 -56 126 -126c0 -69 -57 -125 -126 -125h-149v-863h149c69 0 126 -56 126 -125c0 -70 -57 -126 -126 -126h-628
c-69 0 -126 56 -126 126z" />
    <glyph glyph-name="Iacute.1" horiz-adv-x="988" 
d="M383 1590c0 22 8 42 20 58l92 136c28 39 56 45 85 45c57 0 103 -47 103 -105c0 -27 -8 -51 -24 -69l-112 -127c-18 -21 -43 -34 -71 -34c-50 0 -93 43 -93 96zM54 126c0 69 57 125 126 125h149v863h-149c-69 0 -126 56 -126 125c0 70 57 126 126 126h628
c69 0 126 -56 126 -126c0 -69 -57 -125 -126 -125h-149v-863h149c69 0 126 -56 126 -125c0 -70 -57 -126 -126 -126h-628c-69 0 -126 56 -126 126z" />
    <glyph glyph-name="Icircumflex.1" horiz-adv-x="988" 
d="M497 1647h-6l-125 -128c-25 -21 -47 -32 -75 -32c-48 0 -80 32 -80 75c0 30 12 50 43 72l122 107c34 25 68 39 118 39c51 0 83 -13 118 -39l122 -108c32 -22 43 -42 43 -71c0 -43 -32 -75 -80 -75c-29 0 -50 11 -75 33zM54 126c0 69 57 125 126 125h149v863h-149
c-69 0 -126 56 -126 125c0 70 57 126 126 126h628c69 0 126 -56 126 -126c0 -69 -57 -125 -126 -125h-149v-863h149c69 0 126 -56 126 -125c0 -70 -57 -126 -126 -126h-628c-69 0 -126 56 -126 126z" />
    <glyph glyph-name="Icaron.1" horiz-adv-x="988" 
d="M211 1707c0 43 33 75 80 75c29 0 51 -11 75 -32l125 -128h6l126 127c24 22 46 33 74 33c48 0 80 -32 80 -75c0 -29 -11 -49 -42 -71l-123 -108c-34 -26 -67 -39 -117 -39c-51 0 -84 14 -118 39l-122 107c-32 22 -44 42 -44 72zM54 126c0 69 57 125 126 125h149v863h-149
c-69 0 -126 56 -126 125c0 70 57 126 126 126h628c69 0 126 -56 126 -126c0 -69 -57 -125 -126 -125h-149v-863h149c69 0 126 -56 126 -125c0 -70 -57 -126 -126 -126h-628c-69 0 -126 56 -126 126z" />
    <glyph glyph-name="Idieresis.1" horiz-adv-x="988" 
d="M193 1583c0 66 48 117 112 117c66 0 120 -51 120 -117s-54 -115 -120 -115c-64 0 -112 49 -112 115zM563 1583c0 66 50 117 114 117c67 0 118 -51 118 -117s-51 -115 -118 -115c-64 0 -114 49 -114 115zM54 126c0 69 57 125 126 125h149v863h-149c-69 0 -126 56 -126 125
c0 70 57 126 126 126h628c69 0 126 -56 126 -126c0 -69 -57 -125 -126 -125h-149v-863h149c69 0 126 -56 126 -125c0 -70 -57 -126 -126 -126h-628c-69 0 -126 56 -126 126z" />
    <glyph glyph-name="Idieresisacute.1" horiz-adv-x="988" 
d="M419 1793c0 23 7 41 35 61l77 56c28 20 41 28 71 28c43 0 75 -33 75 -70c0 -24 -11 -51 -44 -73l-80 -46c-28 -17 -42 -21 -68 -21c-37 0 -66 29 -66 65zM193 1583c0 66 48 117 112 117c66 0 120 -51 120 -117s-54 -115 -120 -115c-64 0 -112 49 -112 115zM563 1583
c0 66 50 117 114 117c67 0 118 -51 118 -117s-51 -115 -118 -115c-64 0 -114 49 -114 115zM54 126c0 69 57 125 126 125h149v863h-149c-69 0 -126 56 -126 125c0 70 57 126 126 126h628c69 0 126 -56 126 -126c0 -69 -57 -125 -126 -125h-149v-863h149
c69 0 126 -56 126 -125c0 -70 -57 -126 -126 -126h-628c-69 0 -126 56 -126 126z" />
    <glyph glyph-name="Ibreve.1" horiz-adv-x="988" 
d="M809 1715c0 -59 -40 -116 -83 -160c-52 -53 -124 -84 -230 -84c-91 0 -162 28 -215 71c-54 45 -99 106 -99 173c0 47 37 83 84 83c38 0 67 -23 82 -55c25 -57 58 -118 148 -118c87 0 123 56 144 109c14 34 41 64 84 64c48 0 85 -35 85 -83zM54 126c0 69 57 125 126 125
h149v863h-149c-69 0 -126 56 -126 125c0 70 57 126 126 126h628c69 0 126 -56 126 -126c0 -69 -57 -125 -126 -125h-149v-863h149c69 0 126 -56 126 -125c0 -70 -57 -126 -126 -126h-628c-69 0 -126 56 -126 126z" />
    <glyph glyph-name="Idotbelow.1" horiz-adv-x="988" 
d="M54 126c0 69 57 125 126 125h149v863h-149c-69 0 -126 56 -126 125c0 70 57 126 126 126h628c69 0 126 -56 126 -126c0 -69 -57 -125 -126 -125h-149v-863h149c69 0 126 -56 126 -125c0 -70 -57 -126 -126 -126h-628c-69 0 -126 56 -126 126zM360 -253
c0 75 60 134 133 134c74 0 134 -59 134 -134c0 -74 -60 -133 -134 -133s-133 59 -133 133z" />
    <glyph glyph-name="Iinvertedbreve.1" horiz-adv-x="988" 
d="M170 1540c0 71 46 136 103 183c55 45 129 75 223 75c109 0 184 -33 238 -88c45 -47 87 -107 87 -170c0 -50 -40 -89 -90 -89c-44 0 -72 33 -87 70c-21 55 -59 113 -148 113c-93 0 -127 -63 -153 -124c-15 -34 -46 -59 -86 -59c-49 0 -87 39 -87 89zM54 126
c0 69 57 125 126 125h149v863h-149c-69 0 -126 56 -126 125c0 70 57 126 126 126h628c69 0 126 -56 126 -126c0 -69 -57 -125 -126 -125h-149v-863h149c69 0 126 -56 126 -125c0 -70 -57 -126 -126 -126h-628c-69 0 -126 56 -126 126z" />
    <glyph glyph-name="Imacron.1" horiz-adv-x="988" 
d="M195 1576c0 44 36 73 93 73h411c57 0 93 -28 93 -73s-36 -74 -93 -74h-411c-57 0 -93 29 -93 74zM54 126c0 69 57 125 126 125h149v863h-149c-69 0 -126 56 -126 125c0 70 57 126 126 126h628c69 0 126 -56 126 -126c0 -69 -57 -125 -126 -125h-149v-863h149
c69 0 126 -56 126 -125c0 -70 -57 -126 -126 -126h-628c-69 0 -126 56 -126 126z" />
    <glyph glyph-name="Itildebelow.1" horiz-adv-x="988" 
d="M54 126c0 69 57 125 126 125h149v863h-149c-69 0 -126 56 -126 125c0 70 57 126 126 126h628c69 0 126 -56 126 -126c0 -69 -57 -125 -126 -125h-149v-863h149c69 0 126 -56 126 -125c0 -70 -57 -126 -126 -126h-628c-69 0 -126 56 -126 126zM144 -293c0 48 20 93 55 124
c38 35 93 57 159 57c69 0 114 -23 156 -59c42 -34 62 -56 97 -56c39 0 54 23 70 61c14 25 33 48 70 48c47 0 81 -28 81 -83c0 -48 -22 -96 -59 -128c-39 -36 -94 -59 -156 -59c-61 0 -101 23 -148 59c-45 35 -65 57 -104 57c-41 0 -56 -23 -72 -61c-13 -27 -28 -48 -67 -48
c-46 0 -82 27 -82 88z" />
    <glyph glyph-name="Ihookabove.1" horiz-adv-x="988" 
d="M307 1727c0 32 18 55 54 68c19 7 51 12 88 12c135 0 222 -70 222 -179c0 -99 -95 -185 -202 -185c-48 0 -81 26 -81 63c0 31 21 50 69 60c42 10 64 30 64 59c0 34 -31 56 -77 56c-37 0 -55 -4 -78 -4c-36 0 -59 20 -59 50zM54 126c0 69 57 125 126 125h149v863h-149
c-69 0 -126 56 -126 125c0 70 57 126 126 126h628c69 0 126 -56 126 -126c0 -69 -57 -125 -126 -125h-149v-863h149c69 0 126 -56 126 -125c0 -70 -57 -126 -126 -126h-628c-69 0 -126 56 -126 126z" />
    <glyph glyph-name="Itilde.1" horiz-adv-x="988" 
d="M181 1560c0 87 83 159 189 159c79 0 125 -26 161 -56c30 -24 51 -38 71 -38c22 0 39 21 51 48c12 24 31 45 71 45c48 0 76 -30 76 -81c0 -84 -83 -154 -184 -154c-81 0 -124 25 -162 56c-27 23 -49 38 -69 38c-23 0 -40 -20 -53 -48c-13 -25 -33 -45 -75 -45
c-49 0 -76 28 -76 76zM54 126c0 69 57 125 126 125h149v863h-149c-69 0 -126 56 -126 125c0 70 57 126 126 126h628c69 0 126 -56 126 -126c0 -69 -57 -125 -126 -125h-149v-863h149c69 0 126 -56 126 -125c0 -70 -57 -126 -126 -126h-628c-69 0 -126 56 -126 126z" />
    <glyph glyph-name="Iogonek.1" horiz-adv-x="988" 
d="M507 -184c0 82 50 147 97 177v7h-424c-69 0 -126 57 -126 126s57 125 126 125h149v863h-149c-69 0 -126 57 -126 125c0 70 57 126 126 126h628c69 0 126 -56 126 -126c0 -68 -57 -125 -126 -125h-149v-863h141c80 0 131 -51 131 -118c0 -61 -37 -101 -102 -131
c-63 -30 -101 -72 -101 -120c0 -56 41 -93 114 -93c3 0 8 0 11 1c43 0 75 -39 75 -88c0 -32 -17 -57 -45 -71c-29 -15 -71 -23 -123 -23c-155 0 -253 81 -253 208z" />
    <glyph glyph-name="J" unicode="J" horiz-adv-x="1125" 
d="M664 1192c0 118 57 183 163 183c107 0 167 -66 167 -183v-721c0 -321 -181 -501 -503 -501c-165 0 -297 46 -374 129c-46 47 -72 108 -72 171c0 87 56 143 137 143c57 0 92 -25 128 -65c46 -55 100 -97 186 -97c111 0 168 65 168 218v723z" />
    <glyph glyph-name="Jcircumflex" unicode="&#x134;" horiz-adv-x="1125" 
d="M829 1647h-6l-125 -128c-24 -21 -46 -32 -75 -32c-47 0 -79 32 -79 75c0 30 11 50 43 72l122 107c34 25 67 39 118 39c50 0 83 -13 117 -39l123 -108c31 -22 43 -42 43 -71c0 -43 -33 -75 -80 -75c-29 0 -51 11 -75 33zM664 1192c0 118 57 183 163 183
c107 0 167 -66 167 -183v-721c0 -321 -181 -501 -503 -501c-165 0 -297 46 -374 129c-46 47 -72 108 -72 171c0 87 56 143 137 143c57 0 92 -25 128 -65c46 -55 100 -97 186 -97c111 0 168 65 168 218v723z" />
    <glyph glyph-name="K" unicode="K" horiz-adv-x="1304" 
d="M1086 -8c-62 0 -112 31 -164 103l-332 457l-126 -128v-256c0 -114 -58 -178 -162 -178c-107 0 -169 66 -169 178v1029c0 114 59 178 165 178s166 -65 166 -178v-393h18l459 499c45 49 83 70 130 70c82 0 145 -64 145 -145c0 -41 -16 -72 -60 -120l-321 -347l342 -462
c53 -71 68 -105 68 -151c0 -92 -65 -156 -159 -156z" />
    <glyph glyph-name="Kacute" unicode="&#x1e30;" horiz-adv-x="1304" 
d="M558 1590c0 22 8 42 20 58l93 136c27 39 55 45 84 45c57 0 104 -47 104 -105c0 -27 -9 -51 -24 -69l-113 -127c-18 -21 -43 -34 -71 -34c-50 0 -93 43 -93 96zM1086 -8c-62 0 -112 31 -164 103l-332 457l-126 -128v-256c0 -114 -58 -178 -162 -178
c-107 0 -169 66 -169 178v1029c0 114 59 178 165 178s166 -65 166 -178v-393h18l459 499c45 49 83 70 130 70c82 0 145 -64 145 -145c0 -41 -16 -72 -60 -120l-321 -347l342 -462c53 -71 68 -105 68 -151c0 -92 -65 -156 -159 -156z" />
    <glyph glyph-name="Kcaron" unicode="&#x1e8;" horiz-adv-x="1304" 
d="M361 1707c0 43 32 75 79 75c29 0 51 -11 75 -32l125 -128h7l125 127c25 22 46 33 75 33c47 0 80 -32 80 -75c0 -29 -12 -49 -43 -71l-123 -108c-34 -26 -67 -39 -117 -39c-51 0 -84 14 -118 39l-122 107c-32 22 -43 42 -43 72zM1086 -8c-62 0 -112 31 -164 103l-332 457
l-126 -128v-256c0 -114 -58 -178 -162 -178c-107 0 -169 66 -169 178v1029c0 114 59 178 165 178s166 -65 166 -178v-393h18l459 499c45 49 83 70 130 70c82 0 145 -64 145 -145c0 -41 -16 -72 -60 -120l-321 -347l342 -462c53 -71 68 -105 68 -151
c0 -92 -65 -156 -159 -156z" />
    <glyph glyph-name="Kdotbelow" unicode="&#x1e32;" horiz-adv-x="1304" 
d="M1086 -8c-62 0 -112 31 -164 103l-332 457l-126 -128v-256c0 -114 -58 -178 -162 -178c-107 0 -169 66 -169 178v1029c0 114 59 178 165 178s166 -65 166 -178v-393h18l459 499c45 49 83 70 130 70c82 0 145 -64 145 -145c0 -41 -16 -72 -60 -120l-321 -347l342 -462
c53 -71 68 -105 68 -151c0 -92 -65 -156 -159 -156zM518 -253c0 75 60 134 134 134c73 0 133 -59 133 -134c0 -74 -59 -133 -133 -133s-134 59 -134 133z" />
    <glyph glyph-name="Klinebelow" unicode="&#x1e34;" horiz-adv-x="1304" 
d="M1086 -8c-62 0 -112 31 -164 103l-332 457l-126 -128v-256c0 -114 -58 -178 -162 -178c-107 0 -169 66 -169 178v1029c0 114 59 178 165 178s166 -65 166 -178v-393h18l459 499c45 49 83 70 130 70c82 0 145 -64 145 -145c0 -41 -16 -72 -60 -120l-321 -347l342 -462
c53 -71 68 -105 68 -151c0 -92 -65 -156 -159 -156zM340 -283c0 50 37 83 97 83h428c60 0 98 -33 98 -82c0 -50 -38 -84 -98 -84h-428c-60 0 -97 33 -97 83z" />
    <glyph glyph-name="Kcommaaccent" unicode="&#x136;" horiz-adv-x="1304" 
d="M1086 -8c-62 0 -112 31 -164 103l-332 457l-126 -128v-256c0 -114 -58 -178 -162 -178c-107 0 -169 66 -169 178v1029c0 114 59 178 165 178s166 -65 166 -178v-393h18l459 499c45 49 83 70 130 70c82 0 145 -64 145 -145c0 -41 -16 -72 -60 -120l-321 -347l342 -462
c53 -71 68 -105 68 -151c0 -92 -65 -156 -159 -156zM509 -391l40 216c8 51 56 81 105 81c74 0 117 -62 103 -115l-67 -217c-13 -41 -49 -63 -91 -63c-68 0 -98 49 -90 98z" />
    <glyph glyph-name="L" unicode="L" horiz-adv-x="1037" 
d="M1030 138c0 -81 -58 -138 -141 -138h-564c-125 0 -192 66 -192 189v1008c0 114 59 178 165 178s166 -65 166 -178v-921h425c83 0 141 -57 141 -138z" />
    <glyph glyph-name="Lacute" unicode="&#x139;" horiz-adv-x="1037" 
d="M212 1590c0 22 9 42 20 58l93 136c28 39 56 45 84 45c57 0 104 -47 104 -105c0 -27 -9 -51 -24 -69l-113 -127c-17 -21 -43 -34 -71 -34c-50 0 -93 43 -93 96zM1030 138c0 -81 -58 -138 -141 -138h-564c-125 0 -192 66 -192 189v1008c0 114 59 178 165 178
s166 -65 166 -178v-921h425c83 0 141 -57 141 -138z" />
    <glyph glyph-name="Lcircumflexbelow" unicode="&#x1e3c;" horiz-adv-x="1037" 
d="M1030 138c0 -81 -58 -138 -141 -138h-564c-125 0 -192 66 -192 189v1008c0 114 59 178 165 178s166 -65 166 -178v-921h425c83 0 141 -57 141 -138zM316 -420c-52 0 -91 40 -91 88c0 31 15 54 42 79l139 126c38 33 68 46 118 46c51 0 80 -13 119 -47l139 -125
c23 -21 42 -44 42 -80c0 -47 -39 -87 -91 -87c-34 0 -67 18 -89 45l-113 141h-13l-120 -142c-22 -26 -46 -44 -82 -44z" />
    <glyph glyph-name="Ldotbelow" unicode="&#x1e36;" horiz-adv-x="1037" 
d="M1030 138c0 -81 -58 -138 -141 -138h-564c-125 0 -192 66 -192 189v1008c0 114 59 178 165 178s166 -65 166 -178v-921h425c83 0 141 -57 141 -138zM391 -253c0 75 61 134 134 134c74 0 134 -59 134 -134c0 -74 -60 -133 -134 -133s-134 59 -134 133z" />
    <glyph glyph-name="Ldotbelowmacron" unicode="&#x1e38;" horiz-adv-x="1037" 
d="M-1 1576c0 44 36 73 92 73h412c57 0 93 -28 93 -73s-36 -74 -93 -74h-412c-56 0 -92 29 -92 74zM1030 138c0 -81 -58 -138 -141 -138h-564c-125 0 -192 66 -192 189v1008c0 114 59 178 165 178s166 -65 166 -178v-921h425c83 0 141 -57 141 -138zM391 -253
c0 75 61 134 134 134c74 0 134 -59 134 -134c0 -74 -60 -133 -134 -133s-134 59 -134 133z" />
    <glyph glyph-name="Llinebelow" unicode="&#x1e3a;" horiz-adv-x="1037" 
d="M1030 138c0 -81 -58 -138 -141 -138h-564c-125 0 -192 66 -192 189v1008c0 114 59 178 165 178s166 -65 166 -178v-921h425c83 0 141 -57 141 -138zM213 -283c0 50 37 83 98 83h427c60 0 98 -33 98 -82c0 -50 -38 -84 -98 -84h-427c-61 0 -98 33 -98 83z" />
    <glyph glyph-name="Lcommaaccent" unicode="&#x13b;" horiz-adv-x="1037" 
d="M1030 138c0 -81 -58 -138 -141 -138h-564c-125 0 -192 66 -192 189v1008c0 114 59 178 165 178s166 -65 166 -178v-921h425c83 0 141 -57 141 -138zM383 -391l39 216c9 51 56 81 106 81c74 0 116 -62 102 -115l-67 -217c-13 -41 -48 -63 -91 -63c-68 0 -98 49 -89 98z
" />
    <glyph glyph-name="Lcaron" unicode="&#x13d;" horiz-adv-x="1037" 
d="M743 923c-69 0 -110 55 -103 122l28 296c7 69 64 108 119 108c82 0 130 -75 116 -141l-56 -299c-11 -57 -54 -86 -104 -86zM1030 138c0 -81 -58 -138 -141 -138h-564c-125 0 -192 66 -192 189v1008c0 114 59 178 165 178s166 -65 166 -178v-921h425
c83 0 141 -57 141 -138z" />
    <glyph glyph-name="Lslash" unicode="&#x141;" horiz-adv-x="1067" 
d="M343 0c-125 0 -192 66 -192 189v324l-17 -10c-21 -3 -42 0 -61 10c-41 17 -69 57 -69 103c0 41 22 81 59 102l88 49v430c0 114 59 178 165 178c105 0 165 -65 165 -178v-245l147 85c17 9 34 14 55 14c64 0 117 -54 117 -118c0 -40 -23 -81 -53 -98l-266 -151v-408h426
c82 0 140 -57 140 -138s-58 -138 -140 -138h-564z" />
    <glyph glyph-name="M" unicode="M" horiz-adv-x="1660" 
d="M1377 -10c-94 0 -144 60 -144 172v687h-16l-231 -516c-47 -101 -85 -134 -152 -134c-68 0 -108 35 -154 134l-231 516h-16v-687c0 -109 -55 -172 -151 -172c-95 0 -145 60 -145 172v1000c0 133 76 214 198 214c101 0 161 -47 221 -176l272 -610h11l272 611
c60 129 119 175 222 175c124 0 195 -78 195 -214v-1000c0 -109 -55 -172 -151 -172z" />
    <glyph glyph-name="Macute" unicode="&#x1e3e;" horiz-adv-x="1660" 
d="M745 1590c0 22 8 42 19 58l93 136c28 39 56 45 85 45c56 0 103 -47 103 -105c0 -27 -9 -51 -24 -69l-113 -127c-17 -21 -42 -34 -71 -34c-50 0 -92 43 -92 96zM1377 -10c-94 0 -144 60 -144 172v687h-16l-231 -516c-47 -101 -85 -134 -152 -134c-68 0 -108 35 -154 134
l-231 516h-16v-687c0 -109 -55 -172 -151 -172c-95 0 -145 60 -145 172v1000c0 133 76 214 198 214c101 0 161 -47 221 -176l272 -610h11l272 611c60 129 119 175 222 175c124 0 195 -78 195 -214v-1000c0 -109 -55 -172 -151 -172z" />
    <glyph glyph-name="Mdotaccent" unicode="&#x1e40;" horiz-adv-x="1660" 
d="M696 1638c0 74 59 131 134 131c74 0 133 -57 133 -131c0 -75 -58 -129 -133 -129s-134 54 -134 129zM1377 -10c-94 0 -144 60 -144 172v687h-16l-231 -516c-47 -101 -85 -134 -152 -134c-68 0 -108 35 -154 134l-231 516h-16v-687c0 -109 -55 -172 -151 -172
c-95 0 -145 60 -145 172v1000c0 133 76 214 198 214c101 0 161 -47 221 -176l272 -610h11l272 611c60 129 119 175 222 175c124 0 195 -78 195 -214v-1000c0 -109 -55 -172 -151 -172z" />
    <glyph glyph-name="Mdotbelow" unicode="&#x1e42;" horiz-adv-x="1660" 
d="M1377 -10c-94 0 -144 60 -144 172v687h-16l-231 -516c-47 -101 -85 -134 -152 -134c-68 0 -108 35 -154 134l-231 516h-16v-687c0 -109 -55 -172 -151 -172c-95 0 -145 60 -145 172v1000c0 133 76 214 198 214c101 0 161 -47 221 -176l272 -610h11l272 611
c60 129 119 175 222 175c124 0 195 -78 195 -214v-1000c0 -109 -55 -172 -151 -172zM694 -253c0 75 60 134 133 134c74 0 134 -59 134 -134c0 -74 -60 -133 -134 -133s-133 59 -133 133z" />
    <glyph glyph-name="N" unicode="N" horiz-adv-x="1393" 
d="M440 162c0 -108 -55 -172 -152 -172s-154 65 -154 172v1019c0 128 55 194 164 194c73 0 115 -36 181 -132l460 -686h13v646c0 108 56 172 152 172c97 0 155 -64 155 -172v-1029c0 -120 -54 -184 -155 -184c-74 0 -119 31 -187 131l-464 695h-13v-654z" />
    <glyph glyph-name="Ngrave" unicode="&#x1f8;" horiz-adv-x="1393" 
d="M615 1529l-113 127c-15 18 -24 43 -24 69c0 58 47 105 104 105c29 0 57 -6 84 -45l93 -136c12 -16 20 -36 20 -58c0 -53 -43 -96 -93 -96c-28 0 -53 14 -71 34zM440 162c0 -108 -55 -172 -152 -172s-154 65 -154 172v1019c0 128 55 194 164 194c73 0 115 -36 181 -132
l460 -686h13v646c0 108 56 172 152 172c97 0 155 -64 155 -172v-1029c0 -120 -54 -184 -155 -184c-74 0 -119 31 -187 131l-464 695h-13v-654z" />
    <glyph glyph-name="Nacute" unicode="&#x143;" horiz-adv-x="1393" 
d="M611 1590c0 22 8 42 20 58l93 136c27 39 55 45 84 45c57 0 103 -47 103 -105c0 -27 -8 -51 -24 -69l-112 -127c-18 -21 -43 -34 -71 -34c-50 0 -93 43 -93 96zM440 162c0 -108 -55 -172 -152 -172s-154 65 -154 172v1019c0 128 55 194 164 194c73 0 115 -36 181 -132
l460 -686h13v646c0 108 56 172 152 172c97 0 155 -64 155 -172v-1029c0 -120 -54 -184 -155 -184c-74 0 -119 31 -187 131l-464 695h-13v-654z" />
    <glyph glyph-name="Ntilde" unicode="&#xd1;" horiz-adv-x="1393" 
d="M384 1560c0 87 84 159 190 159c79 0 125 -26 161 -56c30 -24 51 -38 70 -38c23 0 40 21 51 48c13 24 32 45 71 45c49 0 76 -30 76 -81c0 -84 -82 -154 -183 -154c-81 0 -124 25 -162 56c-27 23 -49 38 -69 38c-23 0 -40 -20 -54 -48c-13 -25 -32 -45 -75 -45
c-48 0 -76 28 -76 76zM440 162c0 -108 -55 -172 -152 -172s-154 65 -154 172v1019c0 128 55 194 164 194c73 0 115 -36 181 -132l460 -686h13v646c0 108 56 172 152 172c97 0 155 -64 155 -172v-1029c0 -120 -54 -184 -155 -184c-74 0 -119 31 -187 131l-464 695h-13v-654z
" />
    <glyph glyph-name="Ndotbelow" unicode="&#x1e46;" horiz-adv-x="1393" 
d="M440 162c0 -108 -55 -172 -152 -172s-154 65 -154 172v1019c0 128 55 194 164 194c73 0 115 -36 181 -132l460 -686h13v646c0 108 56 172 152 172c97 0 155 -64 155 -172v-1029c0 -120 -54 -184 -155 -184c-74 0 -119 31 -187 131l-464 695h-13v-654zM563 -253
c0 75 60 134 133 134c74 0 134 -59 134 -134c0 -74 -60 -133 -134 -133s-133 59 -133 133z" />
    <glyph glyph-name="Ndotaccent" unicode="&#x1e44;" horiz-adv-x="1393" 
d="M563 1638c0 74 58 131 133 131s134 -57 134 -131c0 -75 -59 -129 -134 -129s-133 54 -133 129zM440 162c0 -108 -55 -172 -152 -172s-154 65 -154 172v1019c0 128 55 194 164 194c73 0 115 -36 181 -132l460 -686h13v646c0 108 56 172 152 172c97 0 155 -64 155 -172
v-1029c0 -120 -54 -184 -155 -184c-74 0 -119 31 -187 131l-464 695h-13v-654z" />
    <glyph glyph-name="Ncaron" unicode="&#x147;" horiz-adv-x="1393" 
d="M414 1707c0 43 32 75 79 75c29 0 51 -11 75 -32l125 -128h6l126 127c24 22 46 33 75 33c47 0 80 -32 80 -75c0 -29 -12 -49 -43 -71l-123 -108c-34 -26 -67 -39 -117 -39c-51 0 -84 14 -118 39l-122 107c-32 22 -43 42 -43 72zM440 162c0 -108 -55 -172 -152 -172
s-154 65 -154 172v1019c0 128 55 194 164 194c73 0 115 -36 181 -132l460 -686h13v646c0 108 56 172 152 172c97 0 155 -64 155 -172v-1029c0 -120 -54 -184 -155 -184c-74 0 -119 31 -187 131l-464 695h-13v-654z" />
    <glyph glyph-name="Ncircumflexbelow" unicode="&#x1e4a;" horiz-adv-x="1393" 
d="M440 162c0 -108 -55 -172 -152 -172s-154 65 -154 172v1019c0 128 55 194 164 194c73 0 115 -36 181 -132l460 -686h13v646c0 108 56 172 152 172c97 0 155 -64 155 -172v-1029c0 -120 -54 -184 -155 -184c-74 0 -119 31 -187 131l-464 695h-13v-654zM487 -420
c-52 0 -91 40 -91 88c0 31 15 54 42 79l139 126c38 33 68 46 118 46c51 0 80 -13 119 -47l139 -125c23 -21 42 -44 42 -80c0 -47 -39 -87 -91 -87c-34 0 -67 18 -89 45l-113 141h-13l-120 -142c-22 -26 -46 -44 -82 -44z" />
    <glyph glyph-name="Nlinebelow" unicode="&#x1e48;" horiz-adv-x="1393" 
d="M440 162c0 -108 -55 -172 -152 -172s-154 65 -154 172v1019c0 128 55 194 164 194c73 0 115 -36 181 -132l460 -686h13v646c0 108 56 172 152 172c97 0 155 -64 155 -172v-1029c0 -120 -54 -184 -155 -184c-74 0 -119 31 -187 131l-464 695h-13v-654zM384 -283
c0 50 37 83 98 83h427c60 0 98 -33 98 -82c0 -50 -38 -84 -98 -84h-427c-61 0 -98 33 -98 83z" />
    <glyph glyph-name="Ncommaaccent" unicode="&#x145;" horiz-adv-x="1393" 
d="M440 162c0 -108 -55 -172 -152 -172s-154 65 -154 172v1019c0 128 55 194 164 194c73 0 115 -36 181 -132l460 -686h13v646c0 108 56 172 152 172c97 0 155 -64 155 -172v-1029c0 -120 -54 -184 -155 -184c-74 0 -119 31 -187 131l-464 695h-13v-654zM554 -391l40 216
c8 51 55 81 105 81c74 0 116 -62 102 -115l-67 -217c-13 -41 -48 -63 -91 -63c-68 0 -98 49 -89 98z" />
    <glyph glyph-name="O" unicode="O" horiz-adv-x="1373" 
d="M84 595v163c0 394 224 632 603 632s602 -239 602 -632v-163c0 -390 -223 -625 -602 -625c-381 0 -603 236 -603 625zM415 760v-165c0 -223 101 -355 272 -355c170 0 271 132 271 355v165c0 226 -102 360 -271 360c-171 0 -272 -134 -272 -360z" />
    <glyph glyph-name="Odieresis" unicode="&#xd6;" horiz-adv-x="1373" 
d="M387 1583c0 66 48 117 112 117c66 0 119 -51 119 -117s-53 -115 -119 -115c-64 0 -112 49 -112 115zM757 1583c0 66 50 117 114 117c67 0 117 -51 117 -117s-50 -115 -117 -115c-64 0 -114 49 -114 115zM84 595v163c0 394 224 632 603 632s602 -239 602 -632v-163
c0 -390 -223 -625 -602 -625c-381 0 -603 236 -603 625zM415 760v-165c0 -223 101 -355 272 -355c170 0 271 132 271 355v165c0 226 -102 360 -271 360c-171 0 -272 -134 -272 -360z" />
    <glyph glyph-name="Oslash" unicode="&#xd8;" horiz-adv-x="1372" 
d="M117 122l68 87c-71 102 -102 235 -102 390v159c0 385 216 632 604 632c150 0 276 -39 372 -109l47 58c16 19 40 31 66 31c48 0 87 -39 87 -87c0 -22 -10 -43 -23 -59l-52 -65c73 -105 106 -242 106 -401v-159c0 -380 -214 -629 -603 -629c-154 0 -280 43 -376 115
l-64 -78c-16 -20 -39 -32 -67 -32c-47 0 -87 40 -87 87c0 23 11 43 24 60zM406 594c0 -35 4 -74 12 -101l454 560c-47 49 -111 75 -186 75c-174 0 -280 -134 -280 -366v-168zM686 233c172 0 280 129 280 361v168c0 39 -5 81 -15 112l-456 -563c47 -51 112 -78 191 -78z" />
    <glyph glyph-name="Otilde" unicode="&#xd5;" horiz-adv-x="1373" 
d="M374 1560c0 87 84 159 190 159c78 0 125 -26 161 -56c29 -24 51 -38 70 -38c23 0 40 21 51 48c12 24 32 45 71 45c48 0 76 -30 76 -81c0 -84 -82 -154 -184 -154c-81 0 -124 25 -161 56c-27 23 -49 38 -69 38c-23 0 -40 -20 -54 -48c-13 -25 -32 -45 -75 -45
c-48 0 -76 28 -76 76zM84 595v163c0 394 224 632 603 632s602 -239 602 -632v-163c0 -390 -223 -625 -602 -625c-381 0 -603 236 -603 625zM415 760v-165c0 -223 101 -355 272 -355c170 0 271 132 271 355v165c0 226 -102 360 -271 360c-171 0 -272 -134 -272 -360z" />
    <glyph glyph-name="Oacute" unicode="&#xd3;" horiz-adv-x="1373" 
d="M601 1590c0 22 8 42 20 58l92 136c28 39 56 45 85 45c56 0 103 -47 103 -105c0 -27 -8 -51 -24 -69l-113 -127c-17 -21 -42 -34 -71 -34c-50 0 -92 43 -92 96zM84 595v163c0 394 224 632 603 632s602 -239 602 -632v-163c0 -390 -223 -625 -602 -625
c-381 0 -603 236 -603 625zM415 760v-165c0 -223 101 -355 272 -355c170 0 271 132 271 355v165c0 226 -102 360 -271 360c-171 0 -272 -134 -272 -360z" />
    <glyph glyph-name="Ocircumflex" unicode="&#xd4;" horiz-adv-x="1373" 
d="M690 1647h-7l-125 -128c-24 -21 -46 -32 -75 -32c-47 0 -79 32 -79 75c0 30 11 50 43 72l122 107c34 25 67 39 118 39c50 0 83 -13 117 -39l123 -108c31 -22 43 -42 43 -71c0 -43 -33 -75 -80 -75c-29 0 -50 11 -75 33zM84 595v163c0 394 224 632 603 632
s602 -239 602 -632v-163c0 -390 -223 -625 -602 -625c-381 0 -603 236 -603 625zM415 760v-165c0 -223 101 -355 272 -355c170 0 271 132 271 355v165c0 226 -102 360 -271 360c-171 0 -272 -134 -272 -360z" />
    <glyph glyph-name="Ograve" unicode="&#xd2;" horiz-adv-x="1373" 
d="M605 1529l-113 127c-15 18 -24 43 -24 69c0 58 47 105 104 105c29 0 57 -6 84 -45l93 -136c11 -16 20 -36 20 -58c0 -53 -43 -96 -93 -96c-28 0 -53 14 -71 34zM84 595v163c0 394 224 632 603 632s602 -239 602 -632v-163c0 -390 -223 -625 -602 -625
c-381 0 -603 236 -603 625zM415 760v-165c0 -223 101 -355 272 -355c170 0 271 132 271 355v165c0 226 -102 360 -271 360c-171 0 -272 -134 -272 -360z" />
    <glyph glyph-name="Ocircumflexhookabove" unicode="&#x1ed4;" horiz-adv-x="1373" 
d="M839 1879c0 18 7 31 22 41c18 12 49 18 93 18c105 0 172 -52 172 -135c0 -78 -73 -140 -158 -140c-38 0 -64 19 -64 48c0 24 21 43 49 44c34 2 58 18 58 47c0 26 -22 43 -52 43c-31 0 -46 -6 -72 -6c-30 0 -48 16 -48 40zM689 1589h-6l-116 -90c-30 -21 -50 -29 -74 -29
c-43 0 -73 28 -73 69c0 28 12 47 43 66l115 75c38 25 66 33 108 33s70 -8 108 -33l115 -75c31 -19 43 -38 43 -66c0 -41 -30 -69 -73 -69c-25 0 -44 8 -74 29zM84 595v163c0 394 224 632 603 632s602 -239 602 -632v-163c0 -390 -223 -625 -602 -625
c-381 0 -603 236 -603 625zM415 760v-165c0 -223 101 -355 272 -355c170 0 271 132 271 355v165c0 226 -102 360 -271 360c-171 0 -272 -134 -272 -360z" />
    <glyph glyph-name="Ocircumflexgrave" unicode="&#x1ed2;" horiz-adv-x="1373" 
d="M1094 1751c0 -36 -29 -65 -66 -65c-27 0 -43 5 -68 21l-80 46c-36 23 -44 51 -44 73c0 36 31 70 75 70c33 0 49 -12 71 -28l77 -56c29 -21 35 -39 35 -61zM689 1589h-6l-116 -90c-20 -14 -43 -29 -74 -29c-46 0 -73 31 -73 69c0 23 7 44 43 66l115 75c35 21 65 33 108 33
c42 0 73 -12 108 -33l115 -75c36 -22 43 -43 43 -66c0 -38 -28 -69 -73 -69c-31 0 -54 15 -74 29zM84 595v163c0 394 224 632 603 632s602 -239 602 -632v-163c0 -390 -223 -625 -602 -625c-381 0 -603 236 -603 625zM415 760v-165c0 -223 101 -355 272 -355
c170 0 271 132 271 355v165c0 226 -102 360 -271 360c-171 0 -272 -134 -272 -360z" />
    <glyph glyph-name="Odotbelow" unicode="&#x1ecc;" horiz-adv-x="1373" 
d="M84 595v163c0 394 224 632 603 632s602 -239 602 -632v-163c0 -390 -223 -625 -602 -625c-381 0 -603 236 -603 625zM415 760v-165c0 -223 101 -355 272 -355c170 0 271 132 271 355v165c0 226 -102 360 -271 360c-171 0 -272 -134 -272 -360zM550 -253
c0 75 60 134 134 134s133 -59 133 -134c0 -74 -59 -133 -133 -133s-134 59 -134 133z" />
    <glyph glyph-name="Odblgrave" unicode="&#x20c;" horiz-adv-x="1373" 
d="M600 1587c0 -49 -40 -90 -88 -90c-27 0 -50 12 -67 31l-107 123c-15 16 -23 40 -23 65c0 55 44 99 98 99c27 0 53 -5 79 -42l89 -130c11 -16 19 -35 19 -56zM942 1587c0 -49 -40 -90 -87 -90c-27 0 -50 12 -67 31l-108 123c-14 16 -22 40 -22 65c0 55 44 99 97 99
c28 0 54 -5 80 -42l89 -130c11 -16 18 -35 18 -56zM84 595v163c0 394 224 632 603 632s602 -239 602 -632v-163c0 -390 -223 -625 -602 -625c-381 0 -603 236 -603 625zM415 760v-165c0 -223 101 -355 272 -355c170 0 271 132 271 355v165c0 226 -102 360 -271 360
c-171 0 -272 -134 -272 -360z" />
    <glyph glyph-name="Otildeacute" unicode="&#x1e4c;" horiz-adv-x="1373" 
d="M631 1793c0 23 7 41 34 61l78 56c28 20 40 28 71 28c43 0 74 -33 74 -70c0 -24 -10 -51 -44 -73l-79 -46c-28 -17 -43 -21 -68 -21c-37 0 -66 29 -66 65zM374 1560c0 87 84 159 190 159c78 0 125 -26 161 -56c29 -24 51 -38 70 -38c23 0 40 21 51 48c12 24 32 45 71 45
c48 0 76 -30 76 -81c0 -84 -82 -154 -184 -154c-81 0 -124 25 -161 56c-27 23 -49 38 -69 38c-23 0 -40 -20 -54 -48c-13 -25 -32 -45 -75 -45c-48 0 -76 28 -76 76zM84 595v163c0 394 224 632 603 632s602 -239 602 -632v-163c0 -390 -223 -625 -602 -625
c-381 0 -603 236 -603 625zM415 760v-165c0 -223 101 -355 272 -355c170 0 271 132 271 355v165c0 226 -102 360 -271 360c-171 0 -272 -134 -272 -360z" />
    <glyph glyph-name="Omacronacute" unicode="&#x1e52;" horiz-adv-x="1373" 
d="M631 1793c0 23 7 41 34 61l78 56c28 20 40 28 71 28c43 0 74 -33 74 -70c0 -24 -10 -51 -44 -73l-79 -46c-28 -17 -43 -21 -68 -21c-37 0 -66 29 -66 65zM387 1576c0 44 36 73 93 73h411c57 0 93 -28 93 -73s-36 -74 -93 -74h-411c-57 0 -93 29 -93 74zM84 595v163
c0 394 224 632 603 632s602 -239 602 -632v-163c0 -390 -223 -625 -602 -625c-381 0 -603 236 -603 625zM415 760v-165c0 -223 101 -355 272 -355c170 0 271 132 271 355v165c0 226 -102 360 -271 360c-171 0 -272 -134 -272 -360z" />
    <glyph glyph-name="Ocircumflextilde" unicode="&#x1ed6;" horiz-adv-x="1373" 
d="M406 1805c0 31 16 63 44 88c30 31 74 47 125 47c67 0 112 -21 145 -47c28 -22 42 -33 64 -33c20 0 33 15 43 36c13 25 30 44 66 44c34 0 68 -17 68 -70c0 -29 -16 -64 -43 -88c-30 -28 -72 -45 -122 -45c-62 0 -104 19 -145 53c-29 20 -39 28 -59 28
c-25 0 -37 -14 -47 -35c-14 -26 -30 -45 -69 -45c-40 0 -70 24 -70 67zM420 1539c0 23 7 44 43 66l115 75c40 24 68 33 108 33s68 -9 108 -33l115 -75c36 -22 43 -43 43 -66c0 -39 -28 -69 -73 -69c-29 0 -49 11 -74 29l-116 90h-6l-116 -90c-26 -18 -45 -29 -74 -29
c-45 0 -73 30 -73 69zM84 595v163c0 394 224 632 603 632s602 -239 602 -632v-163c0 -390 -223 -625 -602 -625c-381 0 -603 236 -603 625zM415 760v-165c0 -223 101 -355 272 -355c170 0 271 132 271 355v165c0 226 -102 360 -271 360c-171 0 -272 -134 -272 -360z" />
    <glyph glyph-name="Odotaccentmacron" unicode="&#x230;" horiz-adv-x="1373" 
d="M387 1855c0 45 36 74 93 74h411c57 0 93 -28 93 -73s-36 -74 -93 -74h-411c-57 0 -93 28 -93 73zM552 1580c0 75 59 131 134 131c74 0 133 -56 133 -131c0 -74 -58 -128 -133 -128s-134 54 -134 128zM84 595v163c0 394 224 632 603 632s602 -239 602 -632v-163
c0 -390 -223 -625 -602 -625c-381 0 -603 236 -603 625zM415 760v-165c0 -223 101 -355 272 -355c170 0 271 132 271 355v165c0 226 -102 360 -271 360c-171 0 -272 -134 -272 -360z" />
    <glyph glyph-name="Omacrongrave" unicode="&#x1e50;" horiz-adv-x="1373" 
d="M732 1793c0 -36 -30 -65 -66 -65c-26 0 -41 4 -68 21l-80 46c-33 22 -44 49 -44 73c0 37 32 70 75 70c30 0 43 -8 71 -28l77 -56c28 -20 35 -38 35 -61zM387 1576c0 44 36 73 93 73h411c57 0 93 -28 93 -73s-36 -74 -93 -74h-411c-57 0 -93 29 -93 74zM84 595v163
c0 394 224 632 603 632s602 -239 602 -632v-163c0 -390 -223 -625 -602 -625c-381 0 -603 236 -603 625zM415 760v-165c0 -223 101 -355 272 -355c170 0 271 132 271 355v165c0 226 -102 360 -271 360c-171 0 -272 -134 -272 -360z" />
    <glyph glyph-name="Ocaron" unicode="&#x1d1;" horiz-adv-x="1373" 
d="M404 1707c0 43 32 75 80 75c28 0 50 -11 75 -32l125 -128h6l125 127c25 22 46 33 75 33c48 0 80 -32 80 -75c0 -29 -11 -49 -43 -71l-122 -108c-35 -26 -67 -39 -118 -39c-50 0 -84 14 -118 39l-122 107c-31 22 -43 42 -43 72zM84 595v163c0 394 224 632 603 632
s602 -239 602 -632v-163c0 -390 -223 -625 -602 -625c-381 0 -603 236 -603 625zM415 760v-165c0 -223 101 -355 272 -355c170 0 271 132 271 355v165c0 226 -102 360 -271 360c-171 0 -272 -134 -272 -360z" />
    <glyph glyph-name="Oslashacute" unicode="&#x1fe;" horiz-adv-x="1372" 
d="M601 1590c0 22 8 42 20 58l92 136c28 39 56 45 85 45c56 0 103 -47 103 -105c0 -27 -8 -51 -24 -69l-113 -127c-17 -21 -42 -34 -71 -34c-50 0 -92 43 -92 96zM117 122l68 87c-71 102 -102 235 -102 390v159c0 385 216 632 604 632c150 0 276 -39 372 -109l47 58
c16 19 40 31 66 31c48 0 87 -39 87 -87c0 -22 -10 -43 -23 -59l-52 -65c73 -105 106 -242 106 -401v-159c0 -380 -214 -629 -603 -629c-154 0 -280 43 -376 115l-64 -78c-16 -20 -39 -32 -67 -32c-47 0 -87 40 -87 87c0 23 11 43 24 60zM406 594c0 -35 4 -74 12 -101
l454 560c-47 49 -111 75 -186 75c-174 0 -280 -134 -280 -366v-168zM686 233c172 0 280 129 280 361v168c0 39 -5 81 -15 112l-456 -563c47 -51 112 -78 191 -78z" />
    <glyph glyph-name="Ohungarumlaut" unicode="&#x150;" horiz-adv-x="1373" 
d="M406 1583c0 21 7 40 18 55l89 131c26 37 52 42 80 42c53 0 97 -44 97 -99c0 -25 -8 -49 -22 -66l-108 -122c-17 -19 -40 -32 -67 -32c-47 0 -87 41 -87 91zM748 1583c0 21 8 40 19 55l89 131c26 37 52 42 79 42c54 0 98 -44 98 -99c0 -25 -8 -49 -23 -66l-107 -122
c-17 -19 -40 -32 -67 -32c-48 0 -88 41 -88 91zM84 595v163c0 394 224 632 603 632s602 -239 602 -632v-163c0 -390 -223 -625 -602 -625c-381 0 -603 236 -603 625zM415 760v-165c0 -223 101 -355 272 -355c170 0 271 132 271 355v165c0 226 -102 360 -271 360
c-171 0 -272 -134 -272 -360z" />
    <glyph glyph-name="Obreve" unicode="&#x14e;" horiz-adv-x="1373" 
d="M999 1715c0 -59 -40 -116 -84 -160c-51 -53 -123 -84 -229 -84c-91 0 -162 28 -215 71c-54 45 -99 106 -99 173c0 47 37 83 84 83c38 0 67 -23 82 -55c25 -57 58 -118 148 -118c86 0 123 56 144 109c14 34 41 64 84 64c48 0 85 -35 85 -83zM84 595v163
c0 394 224 632 603 632s602 -239 602 -632v-163c0 -390 -223 -625 -602 -625c-381 0 -603 236 -603 625zM415 760v-165c0 -223 101 -355 272 -355c170 0 271 132 271 355v165c0 226 -102 360 -271 360c-171 0 -272 -134 -272 -360z" />
    <glyph glyph-name="Oinvertedbreve" unicode="&#x20e;" horiz-adv-x="1373" 
d="M360 1540c0 71 46 136 103 183c55 45 129 75 223 75c109 0 184 -33 238 -88c45 -47 87 -107 87 -170c0 -50 -40 -89 -90 -89c-44 0 -72 33 -87 70c-22 55 -59 113 -148 113c-93 0 -127 -63 -153 -124c-15 -34 -46 -59 -86 -59c-49 0 -87 39 -87 89zM84 595v163
c0 394 224 632 603 632s602 -239 602 -632v-163c0 -390 -223 -625 -602 -625c-381 0 -603 236 -603 625zM415 760v-165c0 -223 101 -355 272 -355c170 0 271 132 271 355v165c0 226 -102 360 -271 360c-171 0 -272 -134 -272 -360z" />
    <glyph glyph-name="Ohookabove" unicode="&#x1ece;" horiz-adv-x="1373" 
d="M508 1727c0 32 19 55 55 68c18 7 50 12 87 12c136 0 222 -70 222 -179c0 -99 -94 -185 -202 -185c-47 0 -81 26 -81 63c0 31 21 50 69 60c42 10 65 30 65 59c0 34 -31 56 -77 56c-37 0 -56 -4 -78 -4c-36 0 -60 20 -60 50zM84 595v163c0 394 224 632 603 632
s602 -239 602 -632v-163c0 -390 -223 -625 -602 -625c-381 0 -603 236 -603 625zM415 760v-165c0 -223 101 -355 272 -355c170 0 271 132 271 355v165c0 226 -102 360 -271 360c-171 0 -272 -134 -272 -360z" />
    <glyph glyph-name="Odieresismacron" unicode="&#x22a;" horiz-adv-x="1373" 
d="M387 1855c0 45 36 74 93 74h411c57 0 93 -28 93 -73s-36 -74 -93 -74h-411c-57 0 -93 28 -93 73zM385 1583c0 66 48 117 112 117c66 0 120 -51 120 -117s-54 -115 -120 -115c-64 0 -112 49 -112 115zM755 1583c0 66 50 117 114 117c67 0 118 -51 118 -117
s-51 -115 -118 -115c-64 0 -114 49 -114 115zM84 595v163c0 394 224 632 603 632s602 -239 602 -632v-163c0 -390 -223 -625 -602 -625c-381 0 -603 236 -603 625zM415 760v-165c0 -223 101 -355 272 -355c170 0 271 132 271 355v165c0 226 -102 360 -271 360
c-171 0 -272 -134 -272 -360z" />
    <glyph glyph-name="Otildemacron" unicode="&#x22c;" horiz-adv-x="1373" 
d="M387 1855c0 45 36 74 93 74h411c57 0 93 -28 93 -73s-36 -74 -93 -74h-411c-57 0 -93 28 -93 73zM374 1560c0 87 84 159 190 159c78 0 125 -26 161 -56c29 -24 51 -38 70 -38c23 0 40 21 51 48c12 24 32 45 71 45c48 0 76 -30 76 -81c0 -84 -82 -154 -184 -154
c-81 0 -124 25 -161 56c-27 23 -49 38 -69 38c-23 0 -40 -20 -54 -48c-13 -25 -32 -45 -75 -45c-48 0 -76 28 -76 76zM84 595v163c0 394 224 632 603 632s602 -239 602 -632v-163c0 -390 -223 -625 -602 -625c-381 0 -603 236 -603 625zM415 760v-165
c0 -223 101 -355 272 -355c170 0 271 132 271 355v165c0 226 -102 360 -271 360c-171 0 -272 -134 -272 -360z" />
    <glyph glyph-name="Odotaccent" unicode="&#x22e;" horiz-adv-x="1373" 
d="M552 1638c0 74 59 131 134 131c74 0 133 -57 133 -131c0 -75 -58 -129 -133 -129s-134 54 -134 129zM84 595v163c0 394 224 632 603 632s602 -239 602 -632v-163c0 -390 -223 -625 -602 -625c-381 0 -603 236 -603 625zM415 760v-165c0 -223 101 -355 272 -355
c170 0 271 132 271 355v165c0 226 -102 360 -271 360c-171 0 -272 -134 -272 -360z" />
    <glyph glyph-name="Ocircumflexdotbelow" unicode="&#x1ed8;" horiz-adv-x="1373" 
d="M690 1647h-7l-125 -128c-24 -21 -46 -32 -75 -32c-47 0 -79 32 -79 75c0 30 11 50 43 72l122 107c34 25 67 39 118 39c50 0 83 -13 117 -39l123 -108c31 -22 43 -42 43 -71c0 -43 -33 -75 -80 -75c-29 0 -50 11 -75 33zM84 595v163c0 394 224 632 603 632
s602 -239 602 -632v-163c0 -390 -223 -625 -602 -625c-381 0 -603 236 -603 625zM415 760v-165c0 -223 101 -355 272 -355c170 0 271 132 271 355v165c0 226 -102 360 -271 360c-171 0 -272 -134 -272 -360zM550 -253c0 75 60 134 134 134s133 -59 133 -134
c0 -74 -59 -133 -133 -133s-134 59 -134 133z" />
    </font>
</defs>
</svg>
